#TITLE:Gale Rider;
#SUBTITLE:;
#ARTIST:P*Light;
#TITLETRANSLIT:;
#SUBTITLETRANSLIT:;
#ARTISTTRANSLIT:;
#GENRE:;
#CREDIT:;
#BANNER:Gale Rider.png;
#BACKGROUND:Gale Rider-bg.png;
#LYRICSPATH:;
#CDTITLE:cdtitle.png;
#MUSIC:Gale Rider.mp3;
#OFFSET:-3.089001;
#SAMPLESTART:82.670776;
#SAMPLELENGTH:14.999999;
#SELECTABLE:YES;
#BPMS:0.000000=193.000000
,176.000000=96.500000
,193.000000=193.000000
;
#STOPS:176.000000=1.865000
;
#BGCHANGES:;
#KEYSOUNDS:;
#ATTACKS:;

//---------------dance-single - ----------------
#NOTES:
     dance-single:
     :
     Beginner:
     3:
     0.196938,0.349896,0.084059,0.033624,0.000000,150.000000,10.000000,4.000000,0.000000,0.000000,0.000000,0.196938,0.349896,0.084059,0.033624,0.000000,150.000000,10.000000,4.000000,0.000000,0.000000,0.000000:
0000
0000
0000
0000
,
0000
0000
0000
0000
,
0000
0000
0000
0000
,
0000
0000
0000
0000
,
1000
0000
0000
0000
,
0001
0000
0000
0000
,
0200
0000
0300
0000
,
0010
0000
0010
0000
,
1000
0000
0000
0000
,
0001
0000
0000
0000
,
0010
0000
0000
0000
,
0100
0000
0100
0000
,
0001
0000
0000
0000
,
1000
0000
0000
0000
,
0010
0000
0000
0000
,
0100
0000
0100
0000
,
0000
0110
0000
0000
,
0000
1001
0000
0000
,
0000
0110
0000
0000
,
0010
0000
0010
0000
,
1000
0000
0000
0000
,
0001
0000
0000
0000
,
0100
0000
0000
0000
,
0010
0000
0010
0000
,
0001
0000
0000
0000
,
1000
0000
0000
0000
,
0010
0000
0010
0000
,
0010
0010
0010
0010
,
0100
0000
0100
0000
,
0001
0000
0001
0000
,
1000
0000
1000
0000
,
0010
0000
0000
0000
,
0010
0000
1000
0000
,
0010
0000
1000
0000
,
0010
0000
0001
0000
,
0010
0000
0001
0000
,
0100
0000
0001
0000
,
0100
0000
0001
0000
,
0100
0000
1000
0000
,
0100
0000
1000
0000
,
0001
0000
0000
0000
,
1000
0000
0000
0000
,
0010
0000
0010
0000
,
0100
0000
0100
0000
,
0110
1000
0000
0001
,
0000
0010
0000
0100
,
0000
1000
0000
0100
,
0000
0010
0000
0001
,
0000
1000
0000
1000
,
0000
0001
0000
0001
,
0000
1000
0000
1000
,
0000
0010
0000
0010
,
0000
0110
0000
0010
,
0000
0110
0000
0010
,
0000
0100
0000
0100
,
0000
0000
0000
0010
,
0000
1000
0000
1000
,
0000
1001
1001
1001
,
0001
1000
0000
1000
,
0000
0001
0000
0001
,
0000
0010
0000
0010
,
0000
0100
0100
0100
,
0100
0010
0000
0010
,
0000
1000
0000
0001
,
0000
0100
0000
0001
,
0000
1000
1000
1000
,
1000
0001
0000
0001
,
0000
1000
0000
1000
,
0000
0010
0000
0010
,
0000
0100
0100
0100
,
0100
0010
0000
0010
,
0000
0001
0000
0001
,
0000
1000
0000
1000
,
0000
0100
0000
0010
,
0000
0001
0000
0001
,
0000
1000
1000
1000
,
0000
0010
0000
0010
,
0000
0100
0100
0100
,
0000
0001
0000
0100
,
0000
1000
0000
0010
,
0000
0001
0001
1000
,
1000
0020
0000
0000
,
0030
2002
0000
0000
,
0000
3003
0000
0000
;

//---------------dance-single - ----------------
#NOTES:
     dance-single:
     :
     Challenge:
     10:
     0.867009,1.000000,0.647255,0.210148,0.554790,620.000000,77.000000,25.000000,0.000000,0.000000,0.000000,0.867009,1.000000,0.647255,0.210148,0.554790,620.000000,77.000000,25.000000,0.000000,0.000000,0.000000:
// measure 0
0000
0000
0000
0000
,  // measure 1
0000
0000
0000
0000
,  // measure 2
0000
0000
0000
0000
,  // measure 3
0000
0000
0000
0000
,  // measure 4
1000
0000
0000
0001
0000
0000
0020
0000
0000
0000
0130
0000
1000
0000
0001
0000
,  // measure 5
1100
0000
0000
0101
0000
0000
0110
0000
0000
0000
1010
0000
0000
0000
0011
0000
,  // measure 6
2002
0000
0000
3003
,  // measure 7
1000
1000
0001
0001
0010
0100
0110
0000
,  // measure 8
0001
0000
0000
0010
0000
0000
0100
0000
0000
0010
0000
0000
1100
0000
0000
0000
,  // measure 9
1000
0000
0000
0010
0000
0000
0100
0000
0000
0010
0000
0000
0101
0000
0000
0000
,  // measure 10
0001
0000
0000
0100
0000
0000
1000
0000
0000
0100
0000
0000
1001
0000
0000
0000
,  // measure 11
0010
0100
0010
0001
0010
1000
0010
0000
,  // measure 12
1100
0000
0000
0001
0000
0000
0101
0000
0000
1000
0000
0000
1001
0000
0000
0000
,  // measure 13
0011
0000
0000
1000
0000
0000
1010
0000
0000
0001
0000
0000
1001
0000
0000
0000
,  // measure 14
0110
0000
0000
1000
0000
0000
0110
0000
0000
0001
0000
0000
0110
0000
0000
0000
,  // measure 15
0001
0010
1000
0010
0001
1000
1001
0000
,  // measure 16
0020
0000
0000
0001
0030
0000
0100
0000
0000
0010
0000
0000
1010
0000
0000
0000
,  // measure 17
0020
0000
0000
1000
0030
0000
0100
0000
0000
0010
0000
0000
0011
0000
0000
0000
,  // measure 18
0120
0000
0000
1030
0000
0000
0100
0000
0000
0010
0000
0000
0110
0000
0000
0000
,  // measure 19
0010
1000
0100
1000
0010
0100
0001
0000
,  // measure 20
0102
0000
0000
0203
0000
0000
0302
0000
0023
0000
0000
0230
0000
0000
2300
0000
,  // measure 21
3020
0000
0000
0230
0000
0000
0302
0000
0013
0000
0000
0010
0000
0000
1001
0000
,  // measure 22
0000
0000
0100
0000
0001
0000
0000
1000
0000
0000
1000
0000
0001
0000
0100
0000
,  // measure 23
0010
0010
0100
0100
0001
1000
1001
0000
,  // measure 24
0210
0010
0000
0310
,  // measure 25
1002
0000
1000
0000
0003
1010
0000
0101
,  // measure 26
0001
0000
0010
0001
0010
0000
0100
0000
1000
0000
0010
1000
0010
0000
0100
0000
,  // measure 27
0001
0100
1000
0100
0110
0000
0110
0000
,  // measure 28
1000
0010
0001
0010
1000
0100
0001
0100
,  // measure 29
1000
0010
0001
0010
1000
0100
0001
0000
,  // measure 30
0100
0000
1000
0010
1000
0000
0001
0010
0001
0000
1000
0100
1000
0000
0001
0100
,  // measure 31
0001
0001
1000
1000
0100
0010
0110
0000
,  // measure 32
0021
0000
0000
0100
0000
0000
1000
0000
0000
0130
0000
0000
0110
0000
0000
0000
,  // measure 33
1200
0000
0000
0010
0000
0000
0001
0000
0000
0010
0300
0000
0110
0000
0000
0000
,  // measure 34
1002
0000
0000
0100
0000
0000
0010
0000
0000
1000
0003
0000
1001
0000
0000
0000
,  // measure 35
1000
0100
1000
0010
0100
0001
0100
0000
,  // measure 36
0201
0000
0000
0010
0000
0000
1000
0000
0000
0310
0000
0000
1001
0000
0000
0000
,  // measure 37
1020
0000
0000
0100
0000
0000
0001
0000
0000
0130
0000
0000
1001
0000
0000
0000
,  // measure 38
0120
0000
0000
1000
0000
0000
0001
0000
0000
0130
0000
0000
0110
0000
0000
0000
,  // measure 39
0001
0100
0010
0100
0001
0001
1000
1000
,  // measure 40
0010
1000
0100
0010
0100
0100
0010
0010
,  // measure 41
0001
1000
0010
0100
0001
0001
1000
1000
,  // measure 42
0001
0010
1000
0010
0001
0100
1000
0100
,  // measure 43
0001
0000
1000
0010
1000
0000
0010
0100
0010
0000
0100
0001
0100
0000
0001
1000
,  // measure 44
0001
0000
0000
0000
0010
1000
0100
0010
0001
0100
0010
1000
0100
0010
0001
0100
,  // measure 45
0010
1000
0100
0010
0001
1000
0010
1000
0001
0010
0100
1000
0010
0100
0001
0010
,  // measure 46
0100
1000
0010
0000
0100
0001
0010
0100
1000
0010
0100
0001
0010
0100
1000
0010
,  // measure 47
0100
0010
1000
0100
0010
0001
0100
0010
1000
0100
0010
0001
0100
0010
1000
0100
,  // measure 48
0010
0001
0100
0000
1000
0000
0100
0000
0010
0000
0001
0000
1000
0000
0010
0000
,  // measure 49
0001
0000
0010
0000
1000
0000
0100
0000
0010
0000
0001
0000
0100
0010
0100
0000
,  // measure 50
0101
0000
0001
0010
0100
1000
0001
0100
,  // measure 51
1000
0000
0100
0000
0001
0000
0010
0000
0100
0000
1000
0000
0010
0100
0010
0000
,  // measure 52
1010
0000
0100
0010
1000
0010
0100
0001
,  // measure 53
0100
0010
1000
0100
0010
0001
0010
0100
,  // measure 54
1000
0000
0001
0000
1000
0000
0010
1000
0010
0000
0100
0001
0100
0000
0010
0100
,  // measure 55
0010
0000
1000
0001
0000
0000
1001
0000
0000
0000
1010
0000
0011
0000
0110
0000
,  // measure 56
1001
0000
0000
0000
1100
0000
0010
0001
0010
0000
0001
0000
0101
0000
0010
1000
,  // measure 57
0010
1000
1010
1000
0011
0001
1001
1000
,  // measure 58
0110
0000
1000
0100
0001
0100
1000
0100
,  // measure 59
0010
0000
0001
0000
1000
0000
0100
0000
0001
0000
0100
0000
1000
0001
1000
0000
,  // measure 60
0110
0000
0001
0010
1000
0010
0001
0100
,  // measure 61
0010
0000
1000
0000
0001
0000
0010
0000
1000
0000
0010
0000
0001
1000
0001
0000
,  // measure 62
0110
0000
0010
1000
0100
1000
0010
0100
,  // measure 63
0001
0000
1000
0000
0010
0000
1000
0000
0100
0000
1000
0000
0010
0100
0010
0000
,  // measure 64
1001
0000
0010
0001
0100
0001
0010
0100
,  // measure 65
1000
0001
1000
1000
0001
0001
1001
1000
,  // measure 66
0110
0000
0000
0000
0001
1000
0001
0000
0100
0010
0100
0000
0001
0000
0100
0000
,  // measure 67
0010
0000
1000
0000
0001
0010
0001
0000
1000
0100
1000
0000
0010
0100
0010
0000
,  // measure 68
1001
0000
0000
0000
0010
0001
0010
0000
0100
1000
0100
0000
1000
0000
0010
0000
,  // measure 69
0100
0000
0001
0000
1000
0010
1000
0000
0001
0100
0001
0000
1000
0001
1000
0000
,  // measure 70
0110
0000
0000
0000
0010
1000
0001
0000
0010
0001
1000
0000
0001
0000
0100
0000
,  // measure 71
1000
0000
0100
0000
0001
0010
0100
0000
1000
0010
0100
0000
0001
1000
0001
0000
,  // measure 72
0110
0000
0000
0000
0001
0100
0010
0000
1000
0100
0010
0000
0001
0000
0010
0000
,  // measure 73
1000
0010
0001
0001
1000
1000
0110
0100
,  // measure 74
1001
0000
0000
0000
0001
0000
1000
0010
0100
0000
0001
1000
0100
0000
0010
0001
,  // measure 75
0100
0000
0010
1000
0001
0000
0100
0001
1000
0000
0010
1000
0100
0000
0010
0001
,  // measure 76
0100
0000
0000
0000
0001
0000
1000
0100
0010
0000
0001
1000
0100
0000
0010
0001
,  // measure 77
1000
0000
0100
1000
0010
0000
0100
0001
0010
0000
0100
1000
0001
0000
0100
0000
,  // measure 78
0110
0000
0000
0000
0011
0000
1000
0100
1000
0000
0001
0100
0001
0000
1000
0100
,  // measure 79
1000
0000
0100
0000
0010
0000
0001
0010
0001
0000
1000
0010
1000
0000
0001
0010
,  // measure 80
0001
0000
1000
0000
0001
0010
0001
0010
0100
1000
0100
1000
0010
1000
0010
1000
,  // measure 81
0001
0100
0001
0100
0000
0000
1001
0000
0000
0000
0011
0000
1100
0000
1010
0000
,  // measure 82
1001
0202
0000
0000
,  // measure 83
0000
0303
0000
0000
;

//---------------dance-single - ----------------
#NOTES:
     dance-single:
     :
     Easy:
     5:
     0.378266,0.489854,0.193336,0.117683,0.000000,278.000000,23.000000,14.000000,0.000000,0.000000,0.000000,0.378266,0.489854,0.193336,0.117683,0.000000,278.000000,23.000000,14.000000,0.000000,0.000000,0.000000:
0000
0000
0000
0000
,
0000
0000
0000
0000
,
0000
0000
0000
0000
,
0000
0000
0000
0000
,
0010
0000
0010
0000
,
0100
0000
0100
0000
,
0220
0000
0000
0330
,
0001
0001
1000
1000
,
0100
1000
0100
1000
,
0001
0100
0001
0100
,
0010
1000
0010
1000
,
0001
0001
0001
0001
,
1000
0100
1000
0100
,
0010
0001
0010
0001
,
1000
0001
1000
0001
,
0100
0100
0010
0110
,
0000
0001
0000
1001
,
0000
1000
0000
1001
,
0000
0010
0000
0110
,
0001
0001
1000
1000
,
0200
0300
0020
0030
,
0002
0003
2000
3000
,
0000
0010
0010
0000
,
0100
0001
1000
0001
,
2002
0000
3003
0000
,
0220
0000
0330
0000
,
0001
0001
1000
1000
,
0010
0100
0110
0110
,
0001
0010
0001
0010
,
0100
1000
0100
1000
,
0010
1000
0010
1000
,
0001
0001
0001
1001
,
1000
0000
0100
0000
,
0001
0000
0100
0000
,
0010
0001
1000
0001
,
0100
0100
0100
0100
,
0010
0000
0100
0000
,
1000
0000
0001
0000
,
1000
1000
0010
0010
,
0100
0001
1000
1000
,
0100
1000
0001
0001
,
0010
0001
1000
1000
,
0010
0100
0001
0010
,
0100
0100
1000
1000
,
1001
0100
0010
1000
,
0001
0000
1000
0001
1000
0001
0100
0010
,
0100
0001
0100
0010
,
1000
0000
0100
0010
0100
0010
0001
1000
,
0001
0010
0010
0100
,
0100
0001
1000
0001
,
0000
0010
0010
0100
,
0100
1000
0001
1000
,
0000
0010
1000
0001
,
1000
0100
0010
0001
,
0010
0100
1000
0010
,
0100
0000
0000
1001
0000
0000
0110
0000
,
0110
0002
0103
2000
,
3100
0001
0010
0100
,
1001
0010
1000
0010
,
0100
0010
0001
0010
,
0000
1000
0100
0010
,
0100
0010
0001
0100
,
0010
1000
0010
0100
,
0001
0010
0001
1000
,
0000
1000
0001
0100
,
0010
1000
1000
0001
,
1001
0010
1000
0100
,
1000
0010
1000
0100
,
0000
0010
0001
0100
,
0001
0010
0001
0100
,
0000
1000
0100
0001
,
0100
1000
0100
0001
,
0000
0001
0010
1000
,
0010
0001
0001
1000
,
1001
0010
1000
0100
,
0010
0001
0100
0010
,
0100
0001
0010
0100
,
1000
0001
0100
0110
,
0110
0001
0010
1000
,
0010
0001
0100
1000
,
0100
0001
1000
0010
,
0100
0000
0000
1001
0000
0000
0110
0000
,
0110
2002
0000
0000
,
0000
3003
0000
0000
;

//---------------dance-single - ----------------
#NOTES:
     dance-single:
     :
     Medium:
     7:
     0.546384,0.629812,0.344642,0.050435,0.067247,408.000000,41.000000,6.000000,0.000000,0.000000,0.000000,0.546384,0.629812,0.344642,0.050435,0.067247,408.000000,41.000000,6.000000,0.000000,0.000000,0.000000:
// measure 0
0000
0000
0000
0000
,  // measure 1
0000
0000
0000
0000
,  // measure 2
0000
0000
0000
0000
,  // measure 3
0000
0000
0000
0000
,  // measure 4
0010
0100
0001
1000
,  // measure 5
0010
0000
0000
0010
0000
0000
0010
0000
0000
0000
0100
0000
0000
0000
0010
0000
,  // measure 6
0220
0000
0000
0000
0000
0000
0000
0000
0000
0000
0000
0330
0000
0000
0000
0000
,  // measure 7
1000
0001
1000
0001
1000
0000
1001
0000
,  // measure 8
0010
0000
1000
0000
0100
0010
0100
0000
,  // measure 9
0010
0000
0001
0000
0100
0010
0100
0000
,  // measure 10
0001
0000
1000
0000
0100
1000
0001
0000
,  // measure 11
0010
1000
0010
1000
0010
0000
1010
0000
,  // measure 12
0100
0000
0001
0000
0010
0001
0010
0000
,  // measure 13
0100
0000
1000
0000
0001
1000
0001
0000
,  // measure 14
0100
0000
0010
0000
1000
0010
1000
0000
,  // measure 15
0100
0010
0100
0010
0001
1000
0001
0000
,  // measure 16
0100
1001
0010
1000
,  // measure 17
0001
1001
0010
0100
,  // measure 18
0001
0000
1001
0000
1000
0100
1000
0000
,  // measure 19
0001
0010
0001
0010
0001
0000
0011
0000
,  // measure 20
1000
0000
0000
0100
0000
0000
0010
0000
0001
0000
0000
0100
0000
0000
0010
0000
,  // measure 21
1000
0000
0000
0100
0000
0000
0010
0000
0001
0000
0000
0001
0000
0000
1000
0000
,  // measure 22
0000
0000
0000
0000
0010
0000
0000
0100
0000
0000
0001
0000
0100
0000
0000
0000
,  // measure 23
0010
1000
0010
0000
1000
0000
1001
0000
,  // measure 24
0210
0000
0000
0310
,  // measure 25
1002
0000
0000
1003
,  // measure 26
0101
0100
0110
0010
,  // measure 27
1010
1001
0011
0110
,  // measure 28
0001
0010
0001
0000
1000
0100
1000
0000
,  // measure 29
0001
0100
0010
0000
1000
0001
1000
0000
,  // measure 30
0010
1000
0100
0000
0010
0001
0100
0000
,  // measure 31
0010
0100
0010
0100
0010
0000
0110
0000
,  // measure 32
1000
0100
1000
1001
,  // measure 33
0001
0100
0001
1001
,  // measure 34
0010
1000
0010
1001
,  // measure 35
0100
0010
0100
0010
1000
0001
1000
0000
,  // measure 36
0100
0010
0001
0011
,  // measure 37
0001
0100
0010
1010
,  // measure 38
0100
1000
0001
1001
,  // measure 39
1000
0100
1000
0000
0001
0100
0001
0000
,  // measure 40
1000
0010
1000
0000
0001
0010
0001
0000
,  // measure 41
0010
0100
0010
0000
0001
1000
0001
0000
,  // measure 42
1000
0100
1000
0000
0001
0100
0001
0000
,  // measure 43
1000
0010
0100
0000
0001
0010
0100
0000
,  // measure 44
1001
0000
0000
0000
0010
0000
0000
0001
0000
0000
1000
0000
0000
0010
0000
0000
,  // measure 45
0100
0000
0000
0001
0000
0000
1000
0000
0000
0100
0000
0000
0010
0000
0000
0000
,  // measure 46
0001
1000
0001
0000
0100
0000
0000
0010
0000
0000
1000
0000
0000
0001
0000
0000
,  // measure 47
0010
0000
0000
0100
0000
0000
1000
0000
0000
0001
0000
0000
0100
0000
0000
0000
,  // measure 48
0010
0100
0010
0000
0001
0000
0000
0000
0100
0000
0000
0000
0010
0000
0000
0000
,  // measure 49
1000
0000
0100
1000
0100
1000
0001
1000
,  // measure 50
0001
0010
0100
1000
,  // measure 51
0001
0000
0100
0001
0100
0001
1000
0001
,  // measure 52
1000
1010
0001
0100
,  // measure 53
0001
0011
0100
1000
,  // measure 54
0100
1001
0010
0110
,  // measure 55
0001
0000
0000
1000
0000
0010
0100
0001
,  // measure 56
1000
0000
0100
1000
0100
0000
0001
0100
,  // measure 57
0001
0000
1000
0010
1000
0000
1001
0000
,  // measure 58
1001
0000
0010
1000
0100
0000
0010
0001
,  // measure 59
0100
0000
0010
1000
0100
0000
0010
0100
,  // measure 60
0010
0000
0010
0001
0100
0000
0010
1000
,  // measure 61
0100
0000
1000
0001
1000
0001
0100
0000
,  // measure 62
0101
0000
0010
1000
0100
0000
0010
0001
,  // measure 63
0100
0000
0010
0100
0001
0000
1000
0100
,  // measure 64
1000
0000
0001
0010
0100
0000
1000
0010
,  // measure 65
1000
0000
0001
1000
0001
1000
0001
1000
,  // measure 66
1001
0000
0010
0000
0100
0000
0001
1000
,  // measure 67
0100
0000
1000
0001
0100
0000
0010
0100
,  // measure 68
0010
0000
1000
0000
0001
0000
0010
0100
,  // measure 69
1000
0000
0010
1000
0010
1000
0010
0000
,  // measure 70
1010
0000
0001
0000
0100
0000
0010
0100
,  // measure 71
0001
0000
0010
0100
1000
0000
0001
1000
,  // measure 72
0100
0000
1000
0000
0010
0000
1000
0001
,  // measure 73
0100
0000
0010
0100
0010
0100
0001
1000
,  // measure 74
0001
1000
1100
0001
,  // measure 75
0101
0000
1000
0000
1010
0000
0001
0010
,  // measure 76
0100
1000
0011
0100
,  // measure 77
1010
0000
0001
1000
0001
1000
0001
0000
,  // measure 78
1001
0000
0010
0000
1000
0000
0001
0010
,  // measure 79
0001
0000
1000
0000
0100
0000
1000
0010
,  // measure 80
1000
0000
0001
0100
0001
0100
0010
1000
,  // measure 81
0010
1000
0000
1001
0000
0010
0100
0001
,  // measure 82
1000
2002
0000
0000
,  // measure 83
0000
3003
0000
0000
;

//---------------dance-single - ----------------
#NOTES:
     dance-single:
     :
     Hard:
     9:
     0.724109,0.804760,0.445513,0.058841,0.311018,543.000000,53.000000,7.000000,0.000000,0.000000,0.000000,0.724109,0.804760,0.445513,0.058841,0.311018,543.000000,53.000000,7.000000,0.000000,0.000000,0.000000:
// measure 0
0000
0000
0000
0000
,  // measure 1
0000
0000
0000
0000
,  // measure 2
0000
0000
0000
0000
,  // measure 3
0000
0000
0000
0000
,  // measure 4
0001
0000
0000
1000
0000
0000
0002
0000
0000
0000
0103
0000
0010
0000
1000
0000
,  // measure 5
1100
0000
0000
0101
0000
0000
0110
0000
0000
0000
1001
0000
0000
0000
1001
0000
,  // measure 6
2002
0000
0000
3003
,  // measure 7
0001
0010
0100
1000
0001
1000
1001
0000
,  // measure 8
0010
0000
0000
0100
0000
0000
0001
0000
0000
1000
0000
0000
1001
0000
0000
0000
,  // measure 9
0010
0000
0000
0100
0000
0000
1000
0000
0000
0001
0000
0000
1001
0000
0000
0000
,  // measure 10
1000
0000
0000
0010
0000
0000
0100
0000
0000
0001
0000
0000
1001
0000
0000
0000
,  // measure 11
1000
0100
0010
0001
0010
0100
1000
0000
,  // measure 12
0001
0000
0000
0100
0000
0000
0010
0000
0000
1000
0000
0000
1010
0000
0000
0000
,  // measure 13
1000
0000
0000
0100
0000
0000
0010
0000
0000
0001
0000
0000
0011
0000
0000
0000
,  // measure 14
0001
0000
0000
0010
0000
0000
0100
0000
0000
1000
0000
0000
1001
0000
0000
0000
,  // measure 15
0010
0100
0001
1000
0010
0100
0110
0000
,  // measure 16
0010
0000
0000
1000
0000
0000
0001
0000
0000
0100
0000
0000
0101
0000
0000
0000
,  // measure 17
0010
0000
0000
0001
0000
0000
1000
0000
0000
0100
0000
0000
1100
0000
0000
0000
,  // measure 18
1000
0000
0000
0100
0000
0000
0010
0000
0000
0001
0000
0000
1001
0000
0000
0000
,  // measure 19
0010
1000
0001
0100
0010
1000
0001
0000
,  // measure 20
1000
0000
0000
0100
0000
0000
1000
0000
0001
0000
0000
0100
0000
0000
0001
0000
,  // measure 21
1000
0000
0000
0010
0000
0000
1000
0000
0001
0000
0000
0010
0000
0000
0110
0000
,  // measure 22
0000
0000
0001
0000
0010
0000
0000
0100
0000
0000
0100
0000
1000
0000
0010
0000
,  // measure 23
1000
0001
0100
0010
1000
0001
1000
0000
,  // measure 24
2100
0100
0000
3100
,  // measure 25
0102
0000
0100
0000
0000
0013
0000
0100
,  // measure 26
0001
1000
0001
0000
1000
0001
1000
0000
,  // measure 27
0001
0010
0100
1000
0001
0000
1001
0000
,  // measure 28
0010
1000
0001
1000
0010
0100
0001
1000
,  // measure 29
0100
0010
0001
1000
0100
1000
0001
0000
,  // measure 30
0100
0010
0100
0001
0010
0100
1000
0001
,  // measure 31
0100
0010
0100
0010
1000
0001
1001
0000
,  // measure 32
0001
0000
0000
0100
0000
0000
0010
0000
0000
1000
0000
0000
1010
0000
0000
0000
,  // measure 33
1000
0000
0000
0100
0000
0000
0010
0000
0000
0001
0000
0000
0011
0000
0000
0000
,  // measure 34
0100
0000
0000
0010
0000
0000
1000
0000
0001
0000
0000
0000
1001
0000
0000
0000
,  // measure 35
0010
0100
0001
1000
0100
0010
0001
0000
,  // measure 36
1000
0000
0000
0010
0000
0000
1000
0000
0000
0100
0000
0000
1100
0000
0000
0000
,  // measure 37
0010
0000
0000
0001
0000
0000
0100
0000
0000
0001
0000
0000
0101
0000
0000
0000
,  // measure 38
0100
0000
0000
0010
0000
0000
1000
0000
0000
0001
0000
0000
1001
0000
0000
0000
,  // measure 39
0010
1000
0001
1000
0100
0100
1000
1000
,  // measure 40
0001
0010
0100
1000
0001
0001
0100
0100
,  // measure 41
0010
0100
0001
1000
0010
0010
0100
0100
,  // measure 42
0001
0010
0100
1000
0010
0100
0001
1000
,  // measure 43
0010
1000
0100
0010
0001
0100
0010
1000
,  // measure 44
0010
0000
0000
0000
0001
0000
1000
0010
0000
0100
0001
0000
0010
0100
0000
1000
,  // measure 45
0001
0000
0100
0001
0000
1000
0010
0000
1000
0100
0000
0010
0001
0000
1000
0010
,  // measure 46
1000
0010
1000
0000
0100
0000
0010
0001
0000
0100
0010
0000
0100
0001
0000
1000
,  // measure 47
0100
0000
0010
0001
0000
1000
0010
0000
1000
0100
0000
0010
0001
0000
0100
0001
,  // measure 48
0100
0001
0100
0000
0001
0000
0010
0000
0001
0000
0010
0000
0100
0000
1000
0000
,  // measure 49
0001
0000
0010
0000
0100
0000
1000
0000
0100
0000
1000
0000
0001
1000
0001
0000
,  // measure 50
0100
0000
1000
0010
1000
0010
0100
0001
,  // measure 51
1000
0000
0010
0000
0100
0000
0001
0000
0100
0000
0001
0000
1000
0001
1000
0000
,  // measure 52
0010
0000
0001
0010
0100
1000
0001
0010
,  // measure 53
0100
1000
0010
0100
0001
1000
0010
0100
,  // measure 54
0001
1000
0010
0100
0010
0100
0001
1000
,  // measure 55
0001
1000
0000
0110
0000
1000
0001
0100
,  // measure 56
0110
0000
0000
0000
0001
0000
1000
0010
1000
0000
0100
0000
0010
0000
0001
0010
,  // measure 57
0001
0100
0001
1000
0100
0010
0001
1000
,  // measure 58
1001
0000
0010
0100
0010
0100
0001
1000
,  // measure 59
0010
0000
0100
0000
0001
0000
1000
0000
0001
0000
1000
0000
0001
0010
0001
0000
,  // measure 60
0100
0000
1000
0001
1000
0001
0010
0100
,  // measure 61
1000
0000
0001
0000
0100
0000
0010
0000
0100
0000
0010
0000
1000
0010
1000
0000
,  // measure 62
0100
0000
0001
0010
1000
0010
0001
0010
,  // measure 63
0100
0000
1000
0000
0001
0000
0010
0000
1000
0000
0010
0000
0001
1000
0001
0000
,  // measure 64
0100
0000
1000
0100
0001
0100
1000
0010
,  // measure 65
0100
0001
1000
1000
0001
0001
0100
0010
,  // measure 66
0110
0000
1000
0100
0010
0001
0100
0010
,  // measure 67
1000
0000
0100
0000
1000
0000
0001
0000
0100
0000
0010
0000
0100
0010
0100
0000
,  // measure 68
0001
1000
0100
0010
0001
0100
0001
1000
,  // measure 69
0010
0000
1000
0000
0001
0100
0001
0000
1000
0000
0100
0000
0010
0100
0010
0000
,  // measure 70
0001
0000
1000
0010
0100
0001
0010
0100
,  // measure 71
1000
0000
0001
0000
0100
0000
0010
0000
1000
0000
0100
0000
1000
0001
1000
0000
,  // measure 72
0010
0100
0001
0010
0100
0010
0001
0100
,  // measure 73
0010
1000
0100
0010
0001
1000
1001
0001
,  // measure 74
0110
0000
0001
0101
0000
1010
0000
0110
,  // measure 75
0000
1100
0000
1001
0000
0011
0000
0110
,  // measure 76
0010
0001
1000
1100
0000
0101
0000
0110
,  // measure 77
0000
0000
1001
0000
0001
0100
0001
0000
0100
0000
0010
0000
1000
0100
1000
0000
,  // measure 78
1001
0000
0000
0000
0001
0000
0101
0000
0000
0000
1010
0000
0000
0000
1000
0001
,  // measure 79
1000
0000
0100
0000
0010
0000
0011
0000
0000
0000
1100
0000
0000
0000
0001
1000
,  // measure 80
0001
0000
0100
0000
0010
0000
1000
0001
1000
0000
0100
0000
0010
0000
0001
0000
,  // measure 81
0100
0010
0100
0010
0000
0000
0110
0000
0000
0000
0001
0000
1000
0000
0010
0000
,  // measure 82
0110
2002
0000
0000
,  // measure 83
0000
3003
0000
0000
;
