#TITLE:GASPANIK;
#SUBTITLE:;
#ARTIST:Massive New Krew;
#TITLETRANSLIT:;
#SUBTITLETRANSLIT:;
#ARTISTTRANSLIT:;
#GENRE:;
#CREDIT:;
#BANNER:[Round 1] - GASPANIK.jpg;
#BACKGROUND:[Round 1] - GASPANIK-bg.jpg;
#LYRICSPATH:;
#CDTITLE:cdtitle.png;
#MUSIC:[Round 1] - GASPANIK.ogg;
#OFFSET:-0.364000;
#SAMPLESTART:89.967949;
#SAMPLELENGTH:12.000000;
#SELECTABLE:YES;
#BPMS:0.000000=150.000000
,160.000000=75.000000
,176.000000=150.000000
;
#STOPS:
;
#BGCHANGES:;
#KEYSOUNDS:;
#ATTACKS:;

//---------------dance-single - ----------------
#NOTES:
     dance-single:
     :
     Hard:
     8:
     0.564686,0.677624,0.059441,0.282343,0.185752,486.000000,8.000000,38.000000,0.000000,0.000000,0.000000,0.564686,0.677624,0.059441,0.282343,0.185752,486.000000,8.000000,38.000000,0.000000,0.000000,0.000000:
0000
0000
0000
0000
,
0000
0000
0000
0000
,
0000
0000
0000
0000
,
0000
0000
0000
0000
,
0000
0000
0000
0000
,
0000
0000
0000
0000
,
0000
0000
0000
0000
,
0000
0000
0000
0000
,
1001
0000
0001
0100
0000
0001
0000
1000
,
0000
0001
0000
0010
0001
1000
0100
0000
,
1000
0000
1000
0010
0000
1000
0000
0001
,
0000
1000
0000
0100
1000
0001
0010
0000
,
0001
0000
0001
0010
0000
0001
0000
1000
,
0000
0010
0000
1000
0001
0010
0100
0000
,
1000
0000
1000
0100
0000
1000
0000
0001
,
0000
0100
0000
0001
1000
0100
0010
0000
,
0100
0000
1000
0000
0100
0000
1000
0000
0100
0000
0010
0000
0100
0000
0010
0100
,
0010
0000
0001
0000
0010
0000
0001
0000
0010
0000
0100
0000
1000
0100
1000
0100
,
1000
0000
0001
0000
1000
0000
0001
0000
1000
0000
0010
0000
1000
0000
0010
1000
,
0010
0000
0100
0000
0010
0000
0100
0000
0010
0000
1000
0000
0001
1000
0001
1000
,
0001
0100
0001
0100
0001
1000
0001
1000
,
0001
0100
0001
0100
0001
0100
0001
0100
0001
1000
0001
1000
0001
1000
0001
1000
,
0001
0001
0100
0100
0010
0010
1000
1000
,
0001
0000
0000
0000
0001
0000
0000
0000
0001
0000
0000
0100
0001
0000
1000
0000
,
1002
0000
1003
0001
0100
0010
0000
0010
,
2000
0000
3001
1000
0010
0100
0000
0100
,
0020
0000
0130
0001
1000
0100
0000
0100
,
0020
0000
0000
0030
0020
0000
0000
0030
0020
0000
0000
0000
0130
0000
1000
0000
,
0020
0000
0130
0010
1000
0001
0000
0001
,
0200
0000
0310
0100
0001
1000
0000
1000
,
0002
0000
0103
0001
1000
0010
0000
0010
,
2000
0000
0000
3000
2000
0000
0000
3000
2000
0000
0000
3001
1000
0000
0010
0000
,
2010
0000
3010
1000
0001
0100
1000
0100
,
0002
0000
0103
0001
1000
0010
0001
0010
,
2000
0000
3001
1000
0001
0010
1000
0010
,
0002
0000
0000
0003
0002
0000
0000
0003
0002
0000
0000
0000
1003
0001
1000
0001
,
1000
0000
0010
0000
1000
0000
0010
0000
0100
0000
0010
0000
0100
0000
0010
0100
,
0010
0000
1000
0000
0010
0000
1000
0000
0001
0000
0100
0000
0001
0100
0001
0100
,
0001
1000
0001
1000
0010
1000
0010
1000
,
0010
0000
0000
0000
0010
0000
0000
0000
0010
0000
0000
1000
0010
0000
0100
0000
,
0102
0000
0000
0000
,
2003
0000
0000
0000
,
3020
0000
0000
0000
,
0230
0000
0000
0000
0000
0000
0300
1001
,
0001
0000
0100
0000
0001
0000
0100
0000
0010
0000
0100
0000
0010
0000
0100
0010
,
0100
0000
0001
0000
0100
0000
0001
0000
1000
0000
0010
0000
1000
0010
1000
0010
,
1000
0000
0001
0000
1000
0000
0001
0000
0010
0000
0001
0000
0010
0000
0001
0010
,
0001
0000
1000
0000
0001
0000
1000
0000
0010
0000
0100
0000
0010
0100
0010
0100
,
0010
1000
0001
0100
0010
1000
0001
0100
,
0010
1000
0010
1000
0010
1000
0010
1000
0010
0100
0010
0100
0010
0100
0010
0100
,
0010
0010
1000
1000
0001
0001
0100
0100
,
0010
0000
0000
0000
0010
0000
0000
0000
0010
0000
0000
0100
0010
0000
1000
0000
,
1020
0000
1030
0010
1000
0001
1000
0010
,
0100
0001
0100
0010
1000
0001
0100
0001
,
0200
0000
0301
0100
0001
1000
0001
0100
,
0010
1000
0010
0100
0001
1000
0001
0000
,
0002
0000
1003
0001
1000
0010
1000
0001
,
0100
0010
1000
0001
0010
0100
1000
0010
,
2000
0000
3001
1000
0001
0100
0001
1000
,
0020
0000
0000
0030
0020
0000
0000
0030
0020
0000
0000
1030
0010
0000
0100
0000
,
0120
0000
0130
0010
0100
0001
0100
0010
,
1000
0100
0001
0100
1000
0001
0100
0010
,
0200
0000
0310
0100
0010
1000
0010
0100
,
0001
0000
0010
0000
1000
0000
0010
0000
0001
0000
1000
0000
0001
0100
0001
0100
,
0001
0000
1000
0000
0001
0000
1000
0000
0001
0000
0100
0000
0001
0000
0100
0001
,
0100
0000
0010
0000
0100
0000
0010
0000
1000
0000
0001
0000
0100
0001
0100
0001
,
0100
0010
0100
0010
0100
0001
0100
0001
,
0200
0000
0000
0300
0200
0000
0000
0300
0200
0000
0000
0310
0100
0000
0001
0000
,
1001
0000
1000
0001
1000
0001
0100
0010
,
1000
1000
1000
1000
,
0001
0000
0001
1000
0001
1000
0010
0100
,
0001
0000
0000
0000
0001
0000
0000
0000
0001
0000
0000
0000
0001
0100
0001
0100
,
0001
0000
1000
0000
0001
0000
1000
0000
0010
0000
1000
0000
0010
0000
1000
0010
,
1000
0000
0001
0000
1000
0000
0001
0000
0100
0000
0010
0000
1000
0001
1000
0001
,
1000
0010
1000
0010
0100
0010
0100
0010
,
2000
0000
0000
3000
2000
0000
0000
3000
2000
0000
0000
3000
2000
0000
3001
1000
,
0001
0000
0000
0000
;

//---------------dance-single - ----------------
#NOTES:
     dance-single:
     :
     Medium:
     6:
     0.448989,0.451749,0.222902,0.029720,0.000000,389.000000,30.000000,4.000000,0.000000,0.000000,0.000000,0.448989,0.451749,0.222902,0.029720,0.000000,389.000000,30.000000,4.000000,0.000000,0.000000,0.000000:
0000
0000
0000
0000
,
0000
0000
0000
0000
,
0000
0000
0000
0000
,
0000
0000
0000
0000
,
0000
0000
0000
0000
,
0000
0000
0000
0000
,
0000
0000
0000
0000
,
0000
0000
0000
0000
,
1001
0000
1000
0010
0000
0100
0000
0010
,
0000
0100
0000
0001
0010
0100
1000
0000
,
0001
0000
0001
0100
0000
0010
0000
0100
,
0000
0010
0000
1000
0100
0010
0001
0000
,
0100
0000
0100
0001
0000
1000
0000
0001
,
0000
1000
0000
0010
1000
0001
0100
0000
,
0010
0000
0010
1000
0000
0001
0000
1000
,
0000
0001
0000
0100
0001
1000
0010
0000
,
0100
0001
0100
0001
0100
0001
0100
0001
,
1000
0001
1000
0001
1000
0001
1000
0001
,
0100
0010
0100
0010
0100
0010
0100
0010
,
1000
0010
1000
0010
1000
0010
1000
0010
,
0100
0001
0100
0001
1000
0010
1000
0010
,
0100
0010
0100
0010
1000
0001
1000
0001
,
0100
0010
1000
0001
0100
0010
1000
0001
,
1000
1000
1000
1000
,
1001
0000
0001
0100
0000
0001
0000
0010
,
0100
0000
1000
0010
0000
1000
0000
0100
,
0010
0000
0010
0001
0000
0010
0000
0100
,
1000
0000
1000
0000
1000
0000
1000
0001
,
1000
0000
0010
1000
0000
0010
0000
0100
,
0001
0000
0100
0001
0000
0100
0000
0010
,
1000
0000
0100
0010
0000
0100
0000
1000
,
0001
0001
0001
0001
,
1001
0000
1000
0010
0000
0110
0000
0100
,
0001
0000
0001
1000
0000
1010
0000
0010
,
0100
0000
0100
0001
0000
1001
0000
1000
,
0100
0000
0100
0000
0100
0000
0100
0010
,
0100
1000
0100
1000
0100
1000
0100
1000
,
0001
1000
0001
1000
0001
1000
0001
1000
,
0010
1000
0010
1000
0010
1000
0010
1000
,
0001
0001
0001
0001
,
1002
0000
0000
0000
,
0203
0000
0000
0000
,
0320
0000
0000
0000
,
2030
0000
0000
0000
0000
0000
3000
1001
,
1000
0001
1000
0001
1000
0001
1000
0001
,
1000
0010
1000
0010
1000
0010
1000
0010
,
0100
0001
0100
0001
0100
0001
0100
0001
,
0100
0010
0100
0010
0100
0010
0100
0010
,
1000
0010
1000
0010
1000
0010
1000
0010
,
0100
0001
0100
0001
0100
0001
0100
0001
,
0100
0010
0100
0001
0100
0010
0100
0001
,
1000
1000
1000
1000
,
1001
0000
0001
0100
0000
0110
0000
1010
,
0000
1001
0000
0001
0010
0100
1000
0000
,
0100
0000
1000
0010
0000
0110
0000
0101
,
0000
1001
0000
1000
0100
0010
0001
0000
,
1000
0000
0001
1000
0000
1100
0000
0110
,
0000
0011
0000
0001
0010
0100
1000
0000
,
0001
0000
1000
0001
0000
0011
0000
0110
,
0000
1100
0000
1000
0100
0010
0001
0000
,
1001
0000
0001
0100
0000
0110
0000
0101
,
0000
1001
0000
0001
0010
0100
1000
0000
,
0001
0000
1000
0010
0000
0110
0000
1010
,
0000
1001
0000
1000
0100
0010
0001
0000
,
1000
0001
1000
0001
1000
0001
1000
0001
,
0100
0001
0100
0001
0100
0001
0100
0001
,
1000
0010
1000
0010
1000
0010
1000
0010
,
0100
0100
0100
0100
,
0110
0000
0010
1000
0000
0001
0000
1000
,
0010
0010
0010
0010
,
0100
0000
0100
0001
0000
1000
0000
0001
,
0100
0000
0100
0000
0100
0000
0100
0001
,
1000
0001
1000
0001
1000
0001
1000
0001
,
0100
0001
0100
0001
0100
0001
0100
0001
,
1000
0100
1000
0100
1000
0100
1000
0100
,
0010
0000
0010
0000
0010
0000
0010
0100
,
1100
0000
0000
0000
;

//---------------dance-single - ----------------
#NOTES:
     dance-single:
     :
     Easy:
     4:
     0.303572,0.338812,0.037150,0.029720,0.000000,277.000000,5.000000,4.000000,0.000000,0.000000,0.000000,0.303572,0.338812,0.037150,0.029720,0.000000,277.000000,5.000000,4.000000,0.000000,0.000000,0.000000:
0000
0000
0000
0000
,
0000
0000
0000
0000
,
0000
0000
0000
0000
,
0000
0000
0000
0000
,
0000
0000
0000
0000
,
0000
0000
0000
0000
,
0000
0000
0000
0000
,
0000
0000
0000
0000
,
1001
0000
0001
0000
0000
0100
0000
0010
,
0000
0100
0000
0001
1000
0000
0001
0000
,
1000
0000
1000
0000
0000
0010
0000
0100
,
0000
0010
0000
1000
0001
0000
1000
0000
,
0010
0000
0100
0000
0000
0010
0000
0100
,
0000
0010
0000
1000
0001
0000
1000
0000
,
0100
0000
0010
0000
0000
0100
0000
0010
,
0000
0100
0000
1000
0001
0000
1000
0000
,
0001
0001
0001
0001
,
1000
1000
1000
1000
,
0010
0010
0010
0010
,
0100
0100
0100
0100
,
0001
0000
1000
0001
1000
0000
1000
0010
,
1000
0000
1000
0001
1000
0000
1000
0100
,
1000
0010
1000
0001
,
0100
0100
0100
0100
,
0110
0000
0010
0000
0000
1000
0000
0001
,
1000
0000
0100
0000
0000
0010
0000
0100
,
1000
0000
0001
0000
0000
0100
0000
0010
,
1000
0000
0001
0000
1000
0000
0001
1000
,
0001
0000
0100
0000
0000
0001
0000
1000
,
0001
0000
0010
0000
0000
0100
0000
0010
,
0001
0000
1000
0000
0000
0010
0000
0100
,
0001
1000
0001
1000
,
0010
0000
0100
0000
0000
0001
0000
1000
,
0001
0000
0010
0000
0000
0100
0000
1000
,
0100
0000
0010
0000
0000
0001
0000
0100
,
0001
1000
0001
1000
,
0010
0010
0010
0010
,
1000
1000
1000
1000
,
0001
0001
0001
0001
,
0100
0010
0100
0010
,
0200
0000
0000
0000
,
0302
0000
0000
0000
,
2003
0000
0000
0000
,
3002
0000
0000
0000
0000
0000
0003
1000
,
0001
0001
0001
0001
,
0100
0100
0100
0100
,
0010
0010
0010
0010
,
1000
1000
1000
1000
,
0001
0000
0100
0001
0100
0000
0100
0010
,
0100
0000
0100
0001
0100
0000
0100
0010
,
1000
0001
0100
0010
,
1000
1000
1000
1000
,
1001
0000
0001
0100
0000
0010
0000
0100
,
0000
0010
0000
1000
0001
0000
1000
0000
,
0001
0000
1000
0010
0000
0100
0000
0010
,
0000
0100
0000
0001
1000
0000
0001
0000
,
0100
0000
0001
1000
0000
0010
0000
1000
,
0000
0010
0000
1000
0001
0000
0100
0000
,
0010
0000
1000
0001
0000
0100
0000
0001
,
0000
0100
0000
0001
1000
0000
0001
0000
,
0100
0000
0001
0100
0000
0010
0000
0100
,
0000
0001
0000
0100
0001
0000
1000
0000
,
0010
0000
1000
0010
0000
0100
0000
0010
,
0000
0100
0000
0010
1000
0000
0001
0000
,
1000
1000
1000
1000
,
0001
0001
0001
0001
,
0100
0100
0100
0100
,
0010
0010
0010
0010
,
0110
0100
0100
0100
,
0001
0001
0001
0001
,
0100
0100
0100
0100
,
0010
0010
0010
0010
,
1000
1000
1000
1000
,
0001
0001
0001
0001
,
0100
0100
0100
0100
,
0010
0010
0010
0010
,
1001
0000
0000
0000
;

//---------------dance-single - ----------------
#NOTES:
     dance-single:
     :
     Beginner:
     2:
     0.226087,0.225875,0.000000,0.059441,0.000000,205.000000,0.000000,8.000000,0.000000,0.000000,0.000000,0.226087,0.225875,0.000000,0.059441,0.000000,205.000000,0.000000,8.000000,0.000000,0.000000,0.000000:
// measure 0
0000
0000
0000
0000
,  // measure 1
0000
0000
0000
0000
,  // measure 2
0000
0000
0000
0000
,  // measure 3
0000
0000
0000
0000
,  // measure 4
0000
0000
0000
0000
,  // measure 5
0000
0000
0000
0000
,  // measure 6
0000
0000
0000
0000
,  // measure 7
0000
0000
0000
0000
,  // measure 8
0001
0000
0001
0000
0000
0100
0000
0100
,  // measure 9
0000
0100
0000
0000
0000
0000
0001
0000
,  // measure 10
0010
0000
0100
0000
0000
1000
0000
1000
,  // measure 11
0000
1000
0000
0000
0000
0000
0010
0000
,  // measure 12
0010
0000
1000
0000
0000
0010
0000
0010
,  // measure 13
0000
0010
0000
0000
0000
0000
1000
0000
,  // measure 14
0100
0000
0010
0000
0000
0001
0000
0001
,  // measure 15
0000
0001
0000
0000
0000
0000
0100
0000
,  // measure 16
0100
0000
0100
0000
,  // measure 17
0100
0000
0100
0000
,  // measure 18
0001
0000
0001
0000
,  // measure 19
0001
0000
0001
0000
,  // measure 20
1000
1000
1000
1000
,  // measure 21
0010
0010
0010
0010
,  // measure 22
0200
0000
0002
0000
,  // measure 23
0303
0000
0000
0000
,  // measure 24
0001
0000
0001
0000
0000
0001
0000
0001
,  // measure 25
1000
0000
1000
0000
0000
1000
0000
1000
,  // measure 26
0010
0000
0010
0000
0000
0010
0000
0010
,  // measure 27
0100
0100
0100
0100
,  // measure 28
0001
0000
0001
0000
0000
0001
0000
0001
,  // measure 29
0100
0000
0100
0000
0000
0100
0000
0100
,  // measure 30
0010
0000
0010
0000
0000
0010
0000
0010
,  // measure 31
1000
1000
1000
1000
,  // measure 32
0010
0000
0010
0000
0000
0010
0000
0010
,  // measure 33
0100
0000
0100
0000
0000
0100
0000
0100
,  // measure 34
0001
0000
0001
0000
0000
0001
0000
0001
,  // measure 35
1000
1000
1000
1000
,  // measure 36
0010
0010
0010
0010
,  // measure 37
0100
0100
0100
0100
,  // measure 38
0001
0001
0001
0001
,  // measure 39
1000
1000
1000
1000
,  // measure 40
0002
0000
0000
0000
,  // measure 41
0000
0000
0000
0000
,  // measure 42
0203
0000
0000
0000
,  // measure 43
0000
0000
0000
0000
,  // measure 44
0310
0000
0010
0000
,  // measure 45
0010
0000
0010
0000
,  // measure 46
1000
0000
1000
0000
,  // measure 47
1000
0000
1000
0000
,  // measure 48
0001
0001
0001
0001
,  // measure 49
0100
0100
0100
0100
,  // measure 50
0020
0000
2000
0000
,  // measure 51
3030
0000
0000
0000
,  // measure 52
0001
0000
0001
0000
0000
1000
0000
1000
,  // measure 53
0000
1000
0000
1000
0000
0000
0010
0000
,  // measure 54
1000
0000
1000
0000
0000
0001
0000
0001
,  // measure 55
0000
0001
0000
0001
0000
0000
0100
0000
,  // measure 56
0001
0000
0001
0000
0000
0100
0000
0100
,  // measure 57
0000
0100
0000
0100
0000
0000
0010
0000
,  // measure 58
1000
0000
1000
0000
0000
0010
0000
0010
,  // measure 59
0000
0010
0000
0010
0000
0000
0100
0000
,  // measure 60
0001
0000
0001
0000
0000
0100
0000
0100
,  // measure 61
0000
0100
0000
0100
0000
0000
0010
0000
,  // measure 62
1000
0000
1000
0000
0000
0010
0000
0010
,  // measure 63
0000
0010
0000
0010
0000
0000
0100
0000
,  // measure 64
0001
0001
0001
0001
,  // measure 65
1000
1000
1000
1000
,  // measure 66
0010
0010
0010
0010
,  // measure 67
0100
0100
0100
0100
,  // measure 68
0200
0000
0000
0000
,  // measure 69
0301
0000
0000
0000
,  // measure 70
0020
0000
0000
0000
,  // measure 71
0130
0000
0000
0000
,  // measure 72
1000
1000
1000
1000
,  // measure 73
0001
0001
0001
0001
,  // measure 74
0100
0100
0100
0100
,  // measure 75
0010
0010
0010
0010
,  // measure 76
0100
0000
0000
0000
;
