#TITLE:FIRE FIREは電気スウィングの夢を見るか?;
#SUBTITLE:;
#ARTIST:millstones;
#TITLETRANSLIT:FIRE FIRE wa denki swing no yume wo miru ka?;
#SUBTITLETRANSLIT:;
#ARTISTTRANSLIT:;
#CREDIT:;
#BANNER:;
#BACKGROUND:;
#LYRICSPATH:;
#CDTITLE:;
#MUSIC:FIRE FIRE wa denki swing no yume wo miru ka.mp3;
#OFFSET:-7.230;
#SAMPLESTART:57.760;
#SAMPLELENGTH:14.430;
#SELECTABLE:YES;
#BPMS:0.000=133.000;
#STOPS:;
#BGCHANGES:;

//---------------dance-single - ----------------
#NOTES:
     dance-single:
     :
     Hard:
     9:
     0.572,0.538,0.145,0.213,0.337: // measure 1
1000
0100
2000
0000
0010
0000
3001
0000
,  // measure 2
0001
0010
0002
0000
0100
0000
1003
0001
,  // measure 3
0100
0000
0000
0001
1000
0000
0000
0000
0100
0000
0000
1000
0001
0000
0001
0000
,  // measure 4
0100
0000
0010
0000
1000
0000
0001
1000
0000
0001
0000
1000
0001
0000
0100
0000
,  // measure 5
1001
0000
0110
0000
1000
0000
0100
0010
,  // measure 6
0001
0000
1100
0000
1000
0010
0100
0001
,  // measure 7
1000
0000
0110
0000
0001
0010
0100
0010
,  // measure 8
0002
0000
0203
0000
0320
0000
1030
0100
,  // measure 9
0010
0001
0000
0000
0010
0000
0001
0000
1000
0000
0000
0000
1001
0000
0000
0000
,  // measure 10
1000
0010
0000
0000
0010
0000
0100
0000
0001
0000
1000
0200
0000
0000
0300
0000
,  // measure 11
1000
0001
0000
0000
0100
0000
0010
0000
0100
0000
0000
0000
1001
0000
0000
0000
,  // measure 12
0001
0000
0000
1000
0100
0000
1000
0000
0001
0000
0100
0000
0010
0000
1000
0000
,  // measure 13
0200
0000
0000
0000
0310
0000
0001
0000
0100
0000
0010
0100
0000
0000
0010
0000
,  // measure 14
2000
0000
0000
0000
3001
0000
0100
0000
0010
0000
1000
0100
0000
1000
0001
0000
,  // measure 15
0200
0000
0000
0000
1300
0000
0100
0000
0001
0000
1000
0001
0000
0000
1000
0000
,  // measure 16
0100
0000
0000
0000
0010
0000
0001
1000
0001
0000
1000
0000
1001
0000
0000
0000
,  // measure 17
0001
0000
0100
0000
0001
0000
1000
0100
0000
1000
0000
0100
1000
0000
0001
0000
,  // measure 18
1000
0000
0100
0000
0010
0000
0001
0100
0000
0001
0000
0100
0010
0000
0100
0000
,  // measure 19
0001
0000
1000
0000
0100
0000
0010
0100
0000
1000
0000
0010
0100
0000
0001
0000
,  // measure 20
1000
0000
0001
0000
1000
0000
0010
0100
0010
0000
1000
0000
1001
0000
0000
0000
,  // measure 21
2000
0000
0000
0000
,  // measure 22
3200
0000
0000
0000
,  // measure 23
2300
0000
0000
0000
,  // measure 24
3002
0000
0000
0000
0000
0203
0000
0000
,  // measure 25
0320
1000
0000
0100
,  // measure 26
2030
0001
0000
0010
,  // measure 27
3001
0000
0000
1000
0001
0000
1000
0000
0010
0000
0000
0100
0010
0000
0100
0000
,  // measure 28
0001
1000
0100
0010
0001
1000
1001
0000
,  // measure 29
0001
1000
0001
1000
0001
0000
0000
0000
0100
0000
0010
0000
1000
0000
0000
0000
,  // measure 30
0001
0100
0010
0100
0001
1000
0100
0000
,  // measure 31
0010
0001
0010
0001
0010
0000
0000
0000
0001
0000
1000
0000
0001
0000
0000
0000
,  // measure 32
1000
0010
0001
0010
0100
0001
1000
0100
,  // measure 33
0010
0100
0010
0100
0010
0000
0000
0000
0001
0000
1000
0000
0001
0000
0000
0000
,  // measure 34
1000
0010
0100
1000
0100
0010
1000
0001
,  // measure 35
1000
0001
1000
0001
0100
0000
0000
0000
0010
0000
0100
0000
0001
0000
1000
0000
,  // measure 36
0001
1000
0001
1000
0110
0000
1001
0000
,  // measure 37
0001
0000
0100
0010
0100
0000
0001
1000
0001
0000
1000
0000
0100
0000
0010
0000
,  // measure 38
0001
0010
0001
0000
1000
0000
0010
0000
0100
0000
0001
0000
1000
0000
0000
0000
,  // measure 39
1000
0000
0010
1000
0010
0000
0100
0001
0100
0000
0001
0000
1000
0000
0100
0000
,  // measure 40
0010
0000
0100
0010
0100
0000
0010
0000
0001
0000
1000
0000
0001
0000
0100
0000
,  // measure 41
0010
0000
1000
0100
0010
0000
0001
0100
0010
0000
0100
0000
0001
0000
1000
0000
,  // measure 42
0100
0010
0100
0000
0010
0000
0001
0000
1000
0010
1000
0000
0002
0000
0000
0000
,  // measure 43
1003
0000
0100
1000
0001
0000
0100
0001
1000
0000
0100
0000
0010
0000
0001
0000
,  // measure 44
1000
0010
0001
0010
1000
0001
2000
0002
,  // measure 45
3003
0000
0000
0000
0110
0000
0000
0000
0001
1000
0000
0100
0000
1000
0001
0000
,  // measure 46
0100
0001
1000
0000
0001
0000
0010
0001
1000
0000
0001
1000
0000
1000
0001
0000
,  // measure 47
1000
0001
0100
0010
1000
0100
1000
0001
,  // measure 48
0100
1000
0100
0001
0100
1000
0100
0001
,  // measure 49
1000
0000
0100
0010
0001
0000
0100
0020
0000
0000
0130
0000
0001
0100
0000
0001
,  // measure 50
0000
0100
0000
0020
0000
0000
0100
0000
0000
0100
0000
0000
0100
0000
0000
0200
,  // measure 51
0000
0000
0000
0000
0330
0000
0000
0000
1000
0010
1000
0000
0001
0010
0001
0000
,  // measure 52
0100
0001
0000
0000
0110
0000
0000
0101
0000
0001
0000
1000
0000
1100
0000
0000
,  // measure 53
1001
0000
0000
0000
0110
0000
0000
0000
0010
0000
1000
0100
0000
0000
0010
0000
,  // measure 54
0001
0000
0000
0000
1000
0000
0001
0000
1000
0000
0010
0100
0000
0010
0100
0000
,  // measure 55
0001
0000
0000
0000
1000
0000
0001
0000
0010
0000
0001
0100
0000
0000
0001
0000
,  // measure 56
0100
0000
0010
0000
0100
0000
0001
0000
1000
0000
0001
0000
1000
0001
1000
0000
,  // measure 57
0002
0000
0000
0000
0013
0000
0100
0000
0010
0000
0001
1000
0000
0000
0001
0000
,  // measure 58
0100
0000
0010
0000
0100
0000
0001
0000
1000
0000
0001
0010
0000
0000
0100
0000
,  // measure 59
0020
0000
0000
0000
0031
0000
0100
0000
0010
0000
1000
0001
0000
0000
1000
0000
,  // measure 60
0100
1000
0100
0000
1000
0000
0001
0000
0100
0000
0010
0000
1000
0001
1000
0000
,  // measure 61
0200
0310
0000
0000
0000
0000
0000
0000
;

//---------------dance-single - ----------------
#NOTES:
     dance-single:
     :
     Challenge:
     9:
     0.685,0.692,0.222,0.162,0.643: // measure 1
1000
0000
0100
0000
1000
0000
0100
1000
0000
0100
0000
1000
0100
0000
0010
0000
,  // measure 2
0001
0000
0100
0000
0001
0000
0100
0001
0000
0100
0000
0001
0100
0000
0001
0000
,  // measure 3
1000
0001
0000
1000
0001
0000
0100
0000
0010
0100
0000
0010
0100
0000
0001
0000
,  // measure 4
1000
0100
0010
0000
0001
0000
0100
0010
0000
0110
0000
0100
0001
0000
1000
0000
,  // measure 5
2001
0000
0000
0000
0100
0000
0000
0000
3001
0000
0000
0001
0100
0000
0001
0000
,  // measure 6
0020
0000
0000
0000
0100
0000
0000
0000
0031
0000
0000
0001
0100
0000
0010
0000
,  // measure 7
0200
0000
0000
0000
0010
0000
0000
0000
0301
0000
0000
0010
1000
0000
0100
0000
,  // measure 8
0010
0001
0010
0001
1000
1001
0000
0001
,  // measure 9
1001
0000
0000
0000
0100
0000
0010
0000
0100
0000
0001
1000
0000
0000
0000
0000
,  // measure 10
0100
0010
0000
0000
0001
0000
1000
0000
0001
0000
0100
0010
0000
0000
0000
0000
,  // measure 11
1000
0001
0000
0000
0100
0000
0010
0000
0100
0000
0001
1000
0000
0000
0100
0000
,  // measure 12
0010
0000
0001
1000
0001
1000
0000
0010
0000
0100
0000
0001
1000
0001
1000
0000
,  // measure 13
0012
0000
0000
0000
0103
0000
0010
0100
0000
0010
0000
0100
0010
0000
1000
0000
,  // measure 14
0100
0000
1000
0000
0001
0000
0100
0010
0000
1000
0000
0100
0010
0000
0100
0000
,  // measure 15
0010
0000
0001
0000
1000
0000
0001
1000
0000
0001
0000
0010
0100
0000
0010
0000
,  // measure 16
0001
0000
1000
0000
0100
0000
0010
0001
0100
0000
0010
0000
1001
0000
0000
0000
,  // measure 17
1000
0010
1000
0000
0001
0000
0100
0001
0000
0100
0000
0010
0100
0000
0001
0000
,  // measure 18
0010
0001
0010
0000
0001
0000
1000
0001
0000
0100
0000
0010
0100
0000
0001
0000
,  // measure 19
1000
0100
0010
0000
0100
0000
0010
0001
0000
1000
0000
0001
0100
0000
0010
0000
,  // measure 20
1000
0010
0000
0100
0001
0000
1000
0001
1000
0000
0010
0000
1001
0000
0000
0000
,  // measure 21
1200
0000
0000
0000
,  // measure 22
0320
0000
0000
0000
,  // measure 23
0230
0000
0000
0000
,  // measure 24
2300
0000
0000
0000
0000
3002
0000
0000
,  // measure 25
0203
1000
0000
0302
,  // measure 26
0023
1000
0000
0032
,  // measure 27
1003
0001
0000
1000
0001
0000
0100
0000
0001
1000
0000
0001
1000
0000
0100
0000
,  // measure 28
0010
0001
0100
0001
0100
0000
0010
0000
0100
0000
0010
0000
1001
0000
0000
0000
,  // measure 29
0001
0100
0001
0100
0001
0000
1000
0000
0100
0000
1000
0000
0001
0000
0100
0000
,  // measure 30
0010
0100
0010
0000
0100
0000
0001
0000
1000
0000
0100
0000
0010
0000
0000
0000
,  // measure 31
0100
0010
0100
0010
0100
0000
0010
0000
0001
0000
0100
0000
0010
0000
1000
0000
,  // measure 32
0001
0000
0010
0100
0010
0000
0001
1000
0001
0000
1000
0000
1001
0000
0001
0000
,  // measure 33
0100
0010
0100
0001
1000
0000
0001
1000
0001
0000
0100
0000
0010
0000
0100
0000
,  // measure 34
0001
0100
0001
0000
1000
0000
0010
1000
0001
0000
1000
0000
0100
0000
0010
0000
,  // measure 35
0100
0010
0001
1000
0001
0000
1000
0010
1000
0000
0010
0000
0100
0000
0001
0000
,  // measure 36
1000
0100
0010
0000
0001
0000
0100
0010
0100
0000
1001
0000
0110
0000
0000
0000
,  // measure 37
1000
0100
1000
0100
1000
0000
0010
0100
0001
0000
0010
0000
0100
0000
0010
0001
,  // measure 38
1000
0001
0100
0000
0010
0000
1000
0001
1000
0000
0010
0000
1001
0000
0000
0000
,  // measure 39
0001
0010
0100
0010
0100
0000
0010
0001
1000
0000
0010
0000
0100
0000
0010
0100
,  // measure 40
0001
0000
1000
0100
0010
0000
0100
0000
1000
0001
1000
0001
1000
0000
0001
0000
,  // measure 41
0100
0010
0100
0010
0100
0000
0001
1000
0001
1000
0001
0000
1000
0000
0100
0010
,  // measure 42
0100
0010
0100
0000
0010
0000
0001
1000
0001
1000
0001
0000
0100
0000
0010
0000
,  // measure 43
1000
0100
0010
0001
0010
0000
0001
0100
0010
1000
0010
0000
0100
0000
0010
1000
,  // measure 44
0001
1000
0100
0000
0010
0000
0001
0000
1000
0001
1000
0000
0110
0000
1001
0000
,  // measure 45
0220
0000
0000
0330
0110
0000
0000
0000
1000
0100
0000
1000
0000
0001
0100
0001
,  // measure 46
1000
0001
1000
0000
0100
0000
0010
0001
0100
0000
0010
0100
0000
0001
1000
0000
,  // measure 47
0100
0000
1000
0100
1000
0000
0100
0000
0010
0000
0001
0000
0100
0000
0010
1000
,  // measure 48
0010
1000
0010
1000
0001
1000
0001
1000
0100
0010
0100
0000
1000
0000
0001
0000
,  // measure 49
0100
0000
0010
0100
0010
0000
1000
0002
0000
0000
1003
0000
0100
0010
0000
1002
,  // measure 50
0000
1000
0000
0100
0000
0000
1000
0000
0000
0100
0000
0000
0100
0000
0000
2000
,  // measure 51
0000
0000
0000
0000
3003
0000
0000
0000
1000
0100
1000
0100
0010
0001
0010
0000
,  // measure 52
0001
0100
0000
0000
0101
0000
0000
0101
0000
1100
0000
0110
0000
1001
0000
0000
,  // measure 53
1000
0000
0100
0000
1000
0000
0001
0000
0100
0000
0010
0100
0000
0010
1000
0000
,  // measure 54
0100
0000
0010
0000
0100
0000
0010
0000
0001
0000
1000
0001
0000
1000
0100
0000
,  // measure 55
0010
0000
0001
0000
0100
0000
0010
0000
0100
0000
0001
1000
0000
0100
0010
0000
,  // measure 56
0001
1000
0001
0000
0100
0000
0010
1000
0010
0000
0100
0000
0001
0010
0100
0000
,  // measure 57
0010
0000
0100
0000
1001
0000
0100
0000
0010
0000
1000
0010
0000
0100
0001
0000
,  // measure 58
1000
0000
0100
0000
0011
0000
0001
0000
0100
0000
0010
1000
0001
0000
1000
0000
,  // measure 59
0001
0000
0100
0000
1010
0000
0100
0000
0001
0000
1000
0100
0010
0000
0100
0000
,  // measure 60
1000
0100
0010
0000
0001
0000
0001
0100
0010
0000
1000
0000
0001
1000
0001
0000
,  // measure 61
0200
0310
0000
0000
0000
0000
0000
0000
;

//---------------dance-single - ----------------
#NOTES:
     dance-single:
     :
     Medium:
     6:
     0.436,0.410,0.136,0.264,0.000: // measure 1
0010
0100
0010
0100
,  // measure 2
0001
1000
0001
1000
,  // measure 3
0001
0011
1000
1100
,  // measure 4
1000
0100
1000
0001
0100
0001
1000
0000
,  // measure 5
1002
0000
0100
0000
1000
0000
0103
0001
,  // measure 6
2000
0000
0100
0000
0001
0000
3100
0010
,  // measure 7
0002
0000
0010
0000
1000
0000
0103
0001
,  // measure 8
0020
0000
0230
0000
0320
0000
0031
1000
,  // measure 9
0200
0000
0010
0000
1000
0000
0310
0001
,  // measure 10
0200
0000
0010
0000
0001
0000
0310
1000
,  // measure 11
0002
0000
0010
0000
1000
0000
0103
0010
,  // measure 12
2000
0000
3200
0000
0310
0001
1000
0000
,  // measure 13
1001
0000
0010
0100
0010
0000
1000
0000
,  // measure 14
0001
0010
0100
0010
0001
0000
1000
0000
,  // measure 15
0001
0000
1000
0100
1000
0000
0001
0000
,  // measure 16
0100
0010
0100
0010
1000
0001
2000
0000
,  // measure 17
3001
0000
1000
0100
1000
0000
0001
0000
,  // measure 18
1000
0000
0100
0010
0001
0010
0100
0000
,  // measure 19
1000
0000
0001
1000
0001
0000
0100
0000
,  // measure 20
0010
0100
0002
0000
0103
0001
1000
0001
,  // measure 21
2000
0000
0000
0000
,  // measure 22
3200
0000
0000
0000
,  // measure 23
0320
0000
0000
0000
,  // measure 24
0032
0000
0000
0000
0000
2000
3003
0000
,  // measure 25
2000
0001
0000
0100
,  // measure 26
3002
1000
0000
0103
,  // measure 27
2002
3003
0220
0330
,  // measure 28
0110
0000
0001
1000
0001
1000
0001
0000
,  // measure 29
1000
0100
1000
0000
0001
0100
0001
0000
,  // measure 30
1000
0000
0100
0000
1000
0001
0100
0000
,  // measure 31
0010
0100
0001
0000
0010
0100
1000
0000
,  // measure 32
0001
0100
0010
1000
0001
0000
0101
0000
,  // measure 33
1000
0100
1000
0000
0001
0010
0001
0000
,  // measure 34
1000
0010
0100
0001
0100
0000
0010
0000
,  // measure 35
0100
0001
0010
0000
0100
1000
0010
1000
,  // measure 36
0001
0101
1100
1001
,  // measure 37
0010
0010
0010
0000
0100
0001
1000
0000
,  // measure 38
0001
0000
0010
0000
0100
0010
0100
0000
,  // measure 39
1000
1000
1000
0000
0001
0100
0001
0000
,  // measure 40
1000
0000
0100
0010
0001
1000
0001
0000
,  // measure 41
0100
0100
0100
0000
0010
0000
1001
0000
,  // measure 42
0100
0010
1000
0000
0010
0100
0001
0000
,  // measure 43
1000
1000
1000
0000
0001
0010
0001
0000
,  // measure 44
1000
0100
1000
0100
0010
0001
2000
0002
,  // measure 45
3003
0000
1001
0000
0001
0100
0001
0000
,  // measure 46
1000
0000
0100
0010
0100
0010
0001
0000
,  // measure 47
1000
0001
1000
0000
0001
0100
0001
0000
,  // measure 48
1000
0100
1000
0000
0001
0100
0001
1000
,  // measure 49
0100
0000
0010
0000
0001
1000
0001
0000
,  // measure 50
1000
0100
1000
0000
0001
0010
0001
0100
,  // measure 51
0010
0000
0100
0000
0001
1000
0001
1000
,  // measure 52
0100
0000
1000
0000
0001
0010
0001
1000
,  // measure 53
0002
0000
0100
0000
1000
1000
1003
0000
,  // measure 54
2000
0000
0010
0000
0001
0001
3001
0000
,  // measure 55
0020
0000
1000
0000
0100
0100
0130
0000
,  // measure 56
0200
0000
0001
0000
0010
0010
0310
0100
,  // measure 57
0001
0000
1001
0000
1000
0100
0010
0000
,  // measure 58
0100
0000
1001
0000
0001
0100
0010
0100
,  // measure 59
0001
0000
0101
0000
0100
0010
1000
0000
,  // measure 60
0100
0010
0100
0010
0001
1000
0001
1000
,  // measure 61
0200
0300
0000
0000
0000
0000
0000
0000
;

//---------------dance-single - ----------------
#NOTES:
     dance-single:
     :
     Easy:
     3:
     0.269,0.359,0.196,0.128,0.000: // measure 1
1000
0100
1000
0000
,  // measure 2
0001
0100
0001
0000
,  // measure 3
2002
3003
0220
0330
,  // measure 4
1000
0001
1000
0001
,  // measure 5
1001
0000
0001
0100
,  // measure 6
0010
0000
1000
0100
,  // measure 7
0010
0000
1000
0001
,  // measure 8
1000
0010
0100
0001
,  // measure 9
0010
0000
0001
0100
,  // measure 10
0010
0000
1000
0100
,  // measure 11
0010
0000
0100
0010
,  // measure 12
0100
1000
0001
0100
,  // measure 13
0110
0000
0010
1000
,  // measure 14
1001
0000
1000
0100
,  // measure 15
0110
0000
0010
0001
,  // measure 16
1000
0100
1000
0001
,  // measure 17
1001
0000
1000
0001
,  // measure 18
1001
0000
0010
0100
,  // measure 19
0110
0000
0100
0001
,  // measure 20
0010
0110
0110
0110
,  // measure 21
2001
0000
0000
0000
,  // measure 22
3200
0000
0000
0000
,  // measure 23
0320
0000
0000
0000
,  // measure 24
0032
0000
0000
0000
,  // measure 25
0203
0000
0000
0000
,  // measure 26
0320
0000
0000
0000
,  // measure 27
2030
0000
0000
0000
,  // measure 28
0002
0000
0000
3003
,  // measure 29
1000
0001
1000
0010
,  // measure 30
0100
0010
0100
0000
,  // measure 31
0001
0100
0001
1000
,  // measure 32
0100
0010
0001
0001
,  // measure 33
0001
1000
0001
0100
,  // measure 34
0010
1000
0100
0000
,  // measure 35
1000
0001
0100
0010
,  // measure 36
1000
0001
1000
0000
,  // measure 37
1001
0000
0110
0000
,  // measure 38
0001
1000
0001
0010
,  // measure 39
0100
0000
0110
0000
,  // measure 40
0010
0001
1000
0001
,  // measure 41
1000
0100
1000
0000
,  // measure 42
0001
0100
0001
0100
,  // measure 43
0010
0100
0010
0000
,  // measure 44
1001
1001
0110
0110
,  // measure 45
2002
3003
0001
0100
,  // measure 46
0001
1000
0100
0010
,  // measure 47
0100
0000
0010
0001
,  // measure 48
1000
0001
0100
0010
,  // measure 49
0100
0000
0010
1000
,  // measure 50
0001
0100
0001
1000
,  // measure 51
0100
0010
0001
1000
,  // measure 52
0100
1000
0001
1000
,  // measure 53
1001
0000
0001
1000
,  // measure 54
0100
0000
0010
0001
,  // measure 55
0100
0000
0010
0100
,  // measure 56
0010
1000
0001
1000
,  // measure 57
1001
0000
0001
0100
,  // measure 58
0001
0000
1000
0100
,  // measure 59
1000
0000
0001
0010
,  // measure 60
0001
1000
0010
0100
,  // measure 61
0020
0030
0000
0000
0000
0000
0000
0000
;

//---------------dance-single - ----------------
#NOTES:
     dance-single:
     :
     Beginner:
     1:
     0.131,0.179,0.051,0.034,0.000: // measure 1
1000
0000
0000
0000
,  // measure 2
0001
0000
0000
0000
,  // measure 3
0100
0000
0000
0000
,  // measure 4
0010
0000
0100
0000
,  // measure 5
0110
0000
0000
0000
,  // measure 6
0010
0000
0000
0000
,  // measure 7
1000
0000
0000
0000
,  // measure 8
0001
0000
1000
0000
,  // measure 9
0001
0000
0000
0000
,  // measure 10
0010
0000
0000
0000
,  // measure 11
0001
0000
0000
0000
,  // measure 12
1000
0000
0001
0000
,  // measure 13
0100
0000
0100
0000
,  // measure 14
0010
0000
0000
0000
,  // measure 15
1000
0000
0001
0000
,  // measure 16
1000
0000
0001
0000
,  // measure 17
0100
0000
0010
0000
,  // measure 18
1000
0000
0000
0000
,  // measure 19
0001
0000
0010
0000
,  // measure 20
0100
0000
0010
0000
,  // measure 21
1001
0000
0000
0000
,  // measure 22
0001
0000
0000
0000
,  // measure 23
0100
0000
0000
0000
,  // measure 24
0001
0000
0000
0000
,  // measure 25
1000
0000
0000
0000
,  // measure 26
0100
0000
0000
0000
,  // measure 27
1000
0000
0000
0000
,  // measure 28
0001
0000
0000
0000
,  // measure 29
1001
0000
1000
0000
,  // measure 30
0001
0000
0100
0000
,  // measure 31
0001
0000
1000
0000
,  // measure 32
0100
0000
0010
0000
,  // measure 33
0100
0000
0010
0000
,  // measure 34
0100
0000
1000
0000
,  // measure 35
0001
0000
1000
0000
,  // measure 36
0001
0000
1000
1000
,  // measure 37
1000
0000
0000
0000
,  // measure 38
0001
0000
0100
0000
,  // measure 39
0001
0000
0000
0000
,  // measure 40
1000
0000
0100
0000
,  // measure 41
1000
0000
1000
0000
,  // measure 42
0001
0000
0100
0000
,  // measure 43
0010
0000
0100
0000
,  // measure 44
0001
0000
0000
0000
,  // measure 45
2002
3003
0000
0000
,  // measure 46
1000
0000
0100
0000
,  // measure 47
1000
0000
0000
0000
,  // measure 48
0001
0000
1000
0000
,  // measure 49
0001
0000
0001
0000
,  // measure 50
0100
0000
0100
0000
,  // measure 51
0010
0000
0100
0000
,  // measure 52
0001
0000
1000
0000
,  // measure 53
1001
0000
0001
0000
,  // measure 54
0100
0000
0001
0000
,  // measure 55
1000
0000
0100
0000
,  // measure 56
0010
0000
0100
0000
,  // measure 57
0010
0000
0010
0000
,  // measure 58
0001
0000
1000
0000
,  // measure 59
0010
0000
0010
0000
,  // measure 60
0100
0000
0001
0000
,  // measure 61
2002
3003
0000
0000
0000
0000
0000
0000
;
