#VERSION:0.83;
#TITLE:Enigma Machine;
#SUBTITLE:;
#ARTIST:Dream Theater;
#TITLETRANSLIT:;
#SUBTITLETRANSLIT:;
#ARTISTTRANSLIT:;
#GENRE:;
#ORIGIN:;
#CREDIT:;
#BANNER:[Round 1] - Enigma Machine.png;
#BACKGROUND:[Round 1] - Enigma Machine-bg.png;
#PREVIEWVID:;
#JACKET:[Round 1] - Enigma Machine-jacket.png;
#CDIMAGE:;
#DISCIMAGE:;
#LYRICSPATH:;
#CDTITLE:cdtitle.png;
#MUSIC:[Round 1] - Enigma Machine.ogg;
#OFFSET:0.677000;
#SAMPLESTART:26.160000;
#SAMPLELENGTH:13.333332;
#SELECTABLE:YES;
#DISPLAYBPM:90.000000:180.000000;
#BPMS:0.000=90.000,
16.000=180.000,
50.500=75.000,
53.000=180.000;
#STOPS:;
#DELAYS:;
#WARPS:;
#TIMESIGNATURES:0.000=4=4;
#TICKCOUNTS:0.000=4;
#COMBOS:0.000=1;
#SPEEDS:0.000=1.000=0.000=0;
#SCROLLS:0.000=1.000;
#FAKES:;
#LABELS:0.000=Song Start;
#BGCHANGES:;
#KEYSOUNDS:;
#ATTACKS:
;

//---------------dance-single - xRGTMx----------------
#NOTEDATA:;
#CHARTNAME:xRGTMx-SH;
#STEPSTYPE:dance-single;
#DESCRIPTION:xRGTMx;
#CHARTSTYLE:;
#DIFFICULTY:Hard;
#METER:10;
#RADARVALUES:0.766807,1.012868,0.294118,0.463235,0.518382,730.000000,690.000000,40.000000,63.000000,0.000000,0.000000,0.000000,0.000000,0.000000,0.766807,1.012868,0.294118,0.463235,0.518382,730.000000,690.000000,40.000000,63.000000,0.000000,0.000000,0.000000,0.000000,0.000000;
#CREDIT:xRGTMx;
#DISPLAYBPM:90.000000:180.000000;
#NOTES:
// measure 0
0000
0000
0000
0000
,  // measure 1
0000
0000
0000
0000
,  // measure 2
0000
0000
0000
0000
,  // measure 3
0000
0000
0000
0000
,  // measure 4
2200
0000
0000
3300
0022
0000
0000
0033
,  // measure 5
2002
0000
0000
0000
0000
0000
3003
0000
2020
0000
0000
3030
0202
0000
0000
0000
,  // measure 6
0000
0303
0220
0000
0000
0330
2002
0000
,  // measure 7
0000
0000
0000
0000
0000
0000
3003
0000
0001
0000
0010
0001
0010
0000
0100
0000
,  // measure 8
1000
0000
0001
0100
0001
0000
1000
0000
0100
0000
0010
0001
0010
0000
0100
0000
,  // measure 9
1000
0000
0001
0010
0100
0001
0100
1000
,  // measure 10
0010
0100
1000
0100
0001
0010
1000
0001
,  // measure 11
1000
0010
0001
1000
0010
0001
1000
0100
,  // measure 12
0010
0100
0001
1000
0001
0220
0000
0000
,  // measure 13
0000
0000
0330
0000
1000
0010
1000
0000
0001
0100
0001
0000
0010
0001
0010
0000
,  // measure 14
0100
1000
0100
0000
0010
0001
0010
0001
1000
0010
1000
0010
0100
0001
0100
0001
,  // measure 15
1000
0100
1000
0100
0010
0000
0000
0000
1001
0000
0000
0000
0001
0000
0010
0000
,  // measure 16
0001
0100
0000
0100
0010
0000
2000
0000
,  // measure 17
0010
0000
3001
0010
0001
0100
0000
0100
,  // measure 18
0010
1000
0000
0001
1000
0100
0010
0100
,  // measure 19
1000
0001
0000
0001
0010
0000
0001
1000
,  // measure 20
0100
0000
0000
0000
1100
0000
1001
0000
0101
0000
0100
0000
0010
0000
1000
0001
,  // measure 21
1000
0100
0000
0100
0010
0001
1000
0010
,  // measure 22
0100
0101
0000
0001
1000
0000
0002
0000
,  // measure 23
0010
0000
0000
0003
1001
0000
1000
0000
0010
0000
0100
0000
0000
0000
0000
0000
,  // measure 24
0011
0001
1000
0100
0010
0000
1001
0000
,  // measure 25
1000
0010
0001
0010
0100
0101
0000
0001
,  // measure 26
1000
0000
0001
0010
0100
0000
1100
1001
,  // measure 27
0000
0000
0001
0000
0100
0001
0100
0001
1000
0100
1000
0100
0010
0001
1000
0010
,  // measure 28
0100
0001
0100
0010
1000
0000
0001
0000
0010
0000
0210
0000
0000
0000
1000
0000
,  // measure 29
1000
0000
0010
0010
0010
0000
0001
0001
,  // measure 30
0001
0000
1300
0001
0100
0201
0000
0010
,  // measure 31
0010
0000
1000
1000
1000
0000
0001
0001
,  // measure 32
0001
0000
0310
1000
0001
0021
0000
0100
,  // measure 33
0130
0000
0010
0000
0001
0010
0001
0000
1000
0000
0001
0000
0100
0001
0100
0001
,  // measure 34
1000
0000
0001
0010
0100
1100
0000
1000
,  // measure 35
0001
0000
0100
0000
0010
0000
0010
0000
1000
0000
1000
0000
0001
0000
0010
0100
,  // measure 36
1000
0100
0010
0000
0001
0000
1000
0000
0100
0000
1100
0000
0000
0000
1000
0000
,  // measure 37
0010
0200
0000
1300
0200
0000
0301
0200
,  // measure 38
0000
0000
0301
0010
0100
1100
0000
1000
,  // measure 39
0001
0000
0010
0000
0000
0000
0001
0000
1000
0010
1000
0001
0100
0001
1000
0001
,  // measure 40
1000
0100
1000
0000
0001
0000
0010
0000
0001
0000
0101
0000
0000
0000
0100
0000
,  // measure 41
0001
0020
0000
1030
0020
0000
0031
0020
,  // measure 42
0100
0000
0130
0010
0001
1001
0000
1000
,  // measure 43
0010
0000
0100
0000
0010
1000
0010
1000
0001
0100
0010
1000
0010
1000
0001
0100
,  // measure 44
0001
1000
0100
1000
0001
0000
0010
0000
0100
0000
1000
0000
0001
0000
0100
0000
,  // measure 45
1000
0100
0010
0001
0010
1000
0100
0010
,  // measure 46
0001
1000
0001
0010
1000
0001
0100
0010
,  // measure 47
0011
0000
0000
0001
1010
0100
0000
0001
,  // measure 48
1100
0010
0001
0000
1010
0000
0100
0001
,  // measure 49
0000
0001
0000
1000
0011
0001
0100
0000
,  // measure 50
0010
0000
1000
0100
1000
0000
0001
0100
0001
0000
1000
0010
1000
0000
0001
0010
,  // measure 51
0001
0000
0100
0000
0010
0000
1000
0000
0100
0000
0010
0000
0001
0000
1000
0001
,  // measure 52
0010
0000
0001
0100
0010
0000
1000
0001
0100
0000
0001
0010
0100
0000
0010
0000
,  // measure 53
0001
1000
2001
0000
0000
0010
3010
1000
,  // measure 54
0100
0000
0010
0000
0001
0000
0010
0000
0100
0000
1000
0000
0001
0000
0100
0001
,  // measure 55
0100
0000
0010
1000
1000
0100
0010
0001
,  // measure 56
1000
0010
0100
0000
0010
0000
1000
0000
0001
0000
0020
0000
0000
0000
0000
0000
,  // measure 57
0000
0000
0000
0000
0031
0010
0100
1000
0001
0000
0100
0000
0010
1000
0010
0100
,  // measure 58
0001
0000
1000
0000
0010
0000
0010
0000
1000
0001
1000
0001
0010
0000
0100
0000
,  // measure 59
0010
0001
1000
0010
0010
0100
0010
0010
,  // measure 60
1000
0001
0010
0100
0100
0100
0010
0010
,  // measure 61
0010
0000
0001
0000
1000
0000
1000
0000
0001
0010
0001
0010
0100
1000
0100
1000
,  // measure 62
0001
0100
0010
1000
0010
1000
0001
1000
0100
0000
0010
0000
0001
1000
0001
0000
,  // measure 63
1000
0010
1000
0000
0100
1000
0100
1000
0001
0010
0001
0010
0100
1000
0001
1000
,  // measure 64
0020
0000
0000
0030
0000
0000
0000
0000
,  // measure 65
0000
0000
0000
0000
,  // measure 66
0000
0000
0000
0000
2000
0000
0000
0000
3100
1000
0100
0010
0001
1000
0010
0100
,  // measure 67
0001
0100
0010
0000
1000
0000
0002
0000
0000
0000
1003
0000
2000
0000
0000
0000
,  // measure 68
3100
0000
1000
0000
0010
0000
0010
0000
1000
0001
1000
0001
0100
0010
0100
0010
,  // measure 69
2000
0000
0000
0000
3001
0010
0100
1000
0001
0100
0010
1000
0001
0010
0001
0000
,  // measure 70
0100
0000
0020
0000
0000
0000
0000
0000
1030
0000
0010
0100
0000
0010
1000
0000
,  // measure 71
0010
0100
0000
0001
0100
0000
0010
1000
0000
0001
1000
0000
0001
0010
0100
0000
,  // measure 72
1000
0000
0010
1000
0100
0000
0010
0000
0001
1000
0100
0000
1000
0000
0020
0000
,  // measure 73
0100
0130
0020
0000
1030
0002
0000
0013
,  // measure 74
0001
0100
0000
0100
0020
0000
0000
0000
1000
0000
0030
2000
0000
0000
3002
0000
,  // measure 75
0000
0023
0000
0000
0000
0000
0000
0000
0000
0000
0230
0000
0000
0000
0000
0000
0000
0000
0000
0000
0302
0000
0000
0000
0000
0000
0000
0000
0000
0203
0000
0000
0000
0000
0000
0000
0000
0000
2300
0000
0000
0000
0000
0000
0000
0000
0000
0000
3002
0000
0000
0000
0000
0000
0000
0000
2003
0000
0000
0000
0000
0000
0000
0000
,  // measure 76
3010
0000
0100
0010
0100
0010
0100
0001
0100
0001
2000
0000
0010
0000
0010
0000
,  // measure 77
3001
0000
1001
0000
1000
0100
0010
0100
,  // measure 78
1000
0000
0001
0100
0001
0000
1000
0100
1000
0000
0001
0100
0010
0000
1000
0000
,  // measure 79
0001
0000
0010
0000
0100
0000
0010
0001
1000
0000
0010
1000
0010
0000
0100
0001
,  // measure 80
1000
0000
0000
0000
0001
0000
0010
0000
0001
0000
0010
0000
0100
0000
1000
0001
,  // measure 81
0100
0000
0010
1000
0010
0000
0100
0001
1000
0000
0100
0000
0010
0000
0001
0010
,  // measure 82
0001
0000
1000
0010
1000
0000
0100
0010
0001
0000
1000
0001
0100
0001
0100
0001
,  // measure 83
0100
0001
0100
0001
2000
0000
0000
0000
0000
3100
0000
1000
0100
0000
0010
0000
,  // measure 84
0001
0000
1000
0010
1000
0000
0001
0000
0010
0000
0100
0000
1000
0001
1000
0000
,  // measure 85
0010
0100
0010
0001
0010
1000
0100
0010
,  // measure 86
1000
0000
0010
0000
0100
0000
0001
0000
0100
0000
1000
0000
0001
0000
0100
0001
,  // measure 87
0100
0001
1000
0100
1000
0100
0010
0001
0010
0001
1000
0001
1000
0100
1000
0010
,  // measure 88
0100
0001
1000
0100
0020
0000
0000
0000
0000
0000
0030
0000
0022
0000
0000
0000
,  // measure 89
0000
0000
0033
0000
0202
0000
0000
0000
0000
0000
0303
0000
2020
0000
0000
3030
,  // measure 90
2200
0000
0000
0000
0000
0000
0000
3300
0220
0000
0000
0000
0000
0000
0000
0330
,  // measure 91
2002
0000
0000
0000
,  // measure 92
0000
0000
0000
0000
,  // measure 93
0000
0000
0000
0000
,  // measure 94
0000
0000
0000
0000
,  // measure 95
3003
0000
0000
0000
;

//---------------dance-single - xRGTMx----------------
#NOTEDATA:;
#CHARTNAME:xRGTMx-SM;
#STEPSTYPE:dance-single;
#DESCRIPTION:xRGTMx;
#CHARTSTYLE:;
#DIFFICULTY:Medium;
#METER:9;
#RADARVALUES:0.582983,0.733456,0.161765,0.404412,0.044118,555.000000,533.000000,22.000000,55.000000,0.000000,0.000000,0.000000,0.000000,0.000000,0.582983,0.733456,0.161765,0.404412,0.044118,555.000000,533.000000,22.000000,55.000000,0.000000,0.000000,0.000000,0.000000,0.000000;
#CREDIT:xRGTMx;
#DISPLAYBPM:90.000000:180.000000;
#NOTES:
// measure 0
0000
0000
0000
0000
,  // measure 1
0000
0000
0000
0000
,  // measure 2
0000
0000
0000
0000
,  // measure 3
0000
0000
0000
0000
,  // measure 4
0200
0000
0302
0000
,  // measure 5
2003
0000
3020
0230
,  // measure 6
0000
0302
0000
2003
,  // measure 7
0000
0000
0000
3000
1010
0000
0000
0000
,  // measure 8
0011
0000
0110
0000
,  // measure 9
1001
0000
1000
0000
0010
0100
0001
1000
,  // measure 10
0100
0000
0010
0001
1000
0010
0100
0000
,  // measure 11
0010
1000
0001
0010
0100
0010
0000
0001
,  // measure 12
0010
0001
0010
0100
1000
0020
0000
0000
,  // measure 13
0000
0000
1030
0010
0100
0100
0001
0010
,  // measure 14
0100
0000
0100
0000
1000
0001
1000
0000
0010
0000
0010
0000
1000
0001
1000
0000
,  // measure 15
0010
0100
0010
0100
0010
0000
0000
0000
1001
0000
0000
0000
1000
0000
0100
0000
,  // measure 16
0010
0001
0000
0001
0100
0000
0002
0000
,  // measure 17
1000
0000
0013
0001
0100
0010
0000
0010
,  // measure 18
1000
0002
0000
0000
1003
0100
0010
0100
,  // measure 19
1000
0002
0000
0000
0103
0000
0010
2000
,  // measure 20
0000
0000
3100
0100
0010
0010
0100
0010
,  // measure 21
0010
1001
0000
0001
1000
0000
0001
0010
,  // measure 22
0100
1000
0000
1000
0010
0000
2000
0000
,  // measure 23
0001
0000
3010
1000
0100
0020
0000
0000
,  // measure 24
0031
0010
0100
1000
0001
0000
0200
0000
,  // measure 25
0310
0100
0010
0100
0001
1000
0000
1000
,  // measure 26
0100
0000
0010
0001
1000
0000
0010
1001
,  // measure 27
0000
1000
0001
0010
1000
0010
0001
0100
,  // measure 28
1000
0100
0010
0010
0010
1001
0000
1000
,  // measure 29
0100
0000
0010
0001
0100
0000
0010
1000
,  // measure 30
0100
0000
0010
0010
0010
1001
0000
0001
,  // measure 31
0100
0000
0010
1000
0100
0000
0010
0001
,  // measure 32
0100
0000
0010
0010
0010
1001
0000
1000
,  // measure 33
0100
0010
0002
0000
0013
0001
2000
0001
,  // measure 34
0001
0000
3010
0010
0010
1001
0000
1000
,  // measure 35
0001
0010
0001
0100
1000
0100
0001
0020
,  // measure 36
0000
0000
0130
0100
0100
1001
0000
1000
,  // measure 37
0001
0020
0000
0130
0020
0000
1030
0020
,  // measure 38
0000
0000
0130
0100
0100
1001
0000
1000
,  // measure 39
0002
0100
0000
1000
2003
0001
0000
0010
,  // measure 40
3010
1000
0100
0100
0100
1001
0000
1000
,  // measure 41
0001
0200
0000
1300
0200
0000
0301
0200
,  // measure 42
0010
0300
0100
0100
0100
1001
0000
0001
,  // measure 43
0010
0000
0100
0000
1000
0100
1000
0000
0001
0000
1000
0010
1000
0000
0001
0000
,  // measure 44
1000
0100
1000
0000
0001
0000
0000
0000
0010
0000
0100
0000
1000
0000
0000
0000
,  // measure 45
0001
0100
0010
0000
1000
0010
0100
0000
,  // measure 46
0001
1000
0100
0000
0010
0100
0010
0100
,  // measure 47
2100
0000
0000
0010
0000
0010
0000
3001
,  // measure 48
0012
0010
1000
0000
0100
0000
0000
0010
,  // measure 49
0000
0010
0000
1003
2001
0000
0010
0000
,  // measure 50
3001
0010
0001
1000
0010
0100
0001
0100
,  // measure 51
0010
1000
0100
1000
0001
0010
0001
1000
,  // measure 52
0100
0010
0100
1000
0001
1000
0010
0010
,  // measure 53
0100
0010
2001
0000
0000
0010
3010
1000
,  // measure 54
0001
1000
0010
0100
0001
0100
0010
0200
,  // measure 55
0000
0000
0301
0010
0001
0010
0100
1000
,  // measure 56
0001
1000
0000
0000
0001
0000
0100
0000
0100
0000
0020
0000
0000
0000
0000
0000
,  // measure 57
0000
0000
1030
0010
0100
0100
0001
0010
,  // measure 58
0100
0100
1000
0001
2000
0000
3010
0010
,  // measure 59
0100
0001
1000
0100
0100
0100
0010
0001
,  // measure 60
0010
0001
1000
0001
0001
0001
0100
0100
,  // measure 61
0100
0010
0010
0010
1000
0010
0100
0001
,  // measure 62
1000
0100
0010
0001
1000
0001
0200
0000
,  // measure 63
0320
0000
1030
0010
0001
1000
0100
0001
,  // measure 64
0020
0000
0000
0030
0000
0000
0000
0000
,  // measure 65
0000
0000
0000
0000
,  // measure 66
0000
0000
0002
0000
1003
0001
0100
0001
,  // measure 67
1000
0100
0010
0020
0000
0130
0200
0000
,  // measure 68
0000
0310
0010
0001
0010
1000
0010
0001
,  // measure 69
0200
0000
0310
1000
0001
1000
0100
0010
,  // measure 70
0002
1000
0000
0100
0203
0000
0310
1000
,  // measure 71
0010
0100
0010
0001
0010
1000
0100
0001
,  // measure 72
1000
0001
0100
1000
0010
0001
0010
0200
,  // measure 73
0001
0301
0200
0000
0010
0010
0300
0100
,  // measure 74
0010
1000
0002
0000
0010
0000
0000
1000
,  // measure 75
1000
1000
0000
0100
0100
0000
0010
0010
,  // measure 76
0023
0100
0000
0100
0130
0010
0001
1000
,  // measure 77
0010
0000
1001
0000
1000
0001
1000
0001
,  // measure 78
1000
0001
1000
0001
0100
0100
1000
0001
,  // measure 79
0010
0010
1000
0100
0010
0010
1000
0001
,  // measure 80
0110
0000
0001
1000
0001
1000
0001
1000
,  // measure 81
0001
1000
0100
0100
0001
1000
0010
0010
,  // measure 82
0001
0100
0010
0010
0001
1000
0010
0000
,  // measure 83
0010
0100
0020
0000
0030
0010
1000
0010
,  // measure 84
0100
0001
0001
0100
0010
1000
0100
0100
,  // measure 85
0010
0001
1000
0010
0010
0100
0001
1000
,  // measure 86
0001
0001
1000
0010
0010
0100
0001
1000
,  // measure 87
1000
0000
0100
0000
0100
0000
0010
0000
0010
0000
0001
0000
1000
0010
1000
0010
,  // measure 88
0100
0001
0100
0001
2000
0000
0000
0000
0000
0000
0000
0000
3002
0000
0000
0000
,  // measure 89
0000
0203
0000
0320
,  // measure 90
0230
0000
0000
0000
0302
0000
0000
0003
,  // measure 91
0220
0000
0000
0000
,  // measure 92
0000
0000
0000
0000
,  // measure 93
0000
0000
0000
0000
,  // measure 94
0000
0000
0000
0000
,  // measure 95
0330
0000
0000
0000
;

//---------------dance-single - xRGTMx----------------
#NOTEDATA:;
#CHARTNAME:xRGTMx-SE;
#STEPSTYPE:dance-single;
#DESCRIPTION:xRGTMx;
#CHARTSTYLE:;
#DIFFICULTY:Easy;
#METER:6;
#RADARVALUES:0.336134,0.444485,0.117647,0.110294,0.000000,320.000000,304.000000,16.000000,15.000000,0.000000,0.000000,0.000000,0.000000,0.000000,0.336134,0.444485,0.117647,0.110294,0.000000,320.000000,304.000000,16.000000,15.000000,0.000000,0.000000,0.000000,0.000000,0.000000;
#CREDIT:xRGTMx;
#DISPLAYBPM:90.000000:180.000000;
#NOTES:
// measure 0
0000
0000
0000
0000
,  // measure 1
0000
0000
0000
0000
,  // measure 2
0000
0000
0000
0000
,  // measure 3
0000
0000
0000
0000
,  // measure 4
1000
0000
1000
0000
,  // measure 5
0001
0000
0001
0100
,  // measure 6
0000
0100
0000
0010
,  // measure 7
0000
0000
1000
0000
,  // measure 8
0001
0000
1000
0000
,  // measure 9
0100
0010
0010
0010
,  // measure 10
0001
0001
0001
1000
,  // measure 11
1000
1000
0010
0010
,  // measure 12
0010
0000
0100
0000
0000
2002
0000
0000
,  // measure 13
3003
1000
1000
0001
,  // measure 14
0001
0000
0100
0010
0100
0000
0001
1000
,  // measure 15
0001
0010
0010
0001
,  // measure 16
0000
0001
0000
0000
0100
0000
0200
0000
,  // measure 17
0000
0310
0010
0000
,  // measure 18
1000
0001
0000
0000
1000
0000
1000
0000
,  // measure 19
0000
0100
0000
0000
0010
0000
0010
0000
,  // measure 20
0000
0001
1000
0010
,  // measure 21
0000
1001
0000
0000
1000
0000
0001
0000
,  // measure 22
0000
0110
0000
0000
0010
0000
0100
0000
,  // measure 23
0000
1000
0001
0000
,  // measure 24
0100
0010
0000
0100
,  // measure 25
0100
0000
0001
0000
0000
1000
0000
0000
,  // measure 26
0100
0000
0010
0000
0010
0000
0001
1000
,  // measure 27
0000
1000
0001
0000
0000
0000
0000
0000
,  // measure 28
0000
0000
0010
0000
0000
1001
0000
0000
,  // measure 29
1000
0100
0010
0001
,  // measure 30
1000
0000
0010
0000
0000
1001
0000
0000
,  // measure 31
0001
0100
0010
1000
,  // measure 32
0001
0000
0010
0000
0000
1001
0000
0000
,  // measure 33
1000
0000
0100
0000
0010
0100
0010
0000
,  // measure 34
0000
0000
0100
0000
0000
1001
0000
0000
,  // measure 35
0001
0000
0100
0000
0010
0100
0010
0000
,  // measure 36
0000
0000
1000
0000
0000
0110
0000
0000
,  // measure 37
0001
1000
0000
1000
0001
0000
0001
1000
,  // measure 38
0000
0000
0001
0000
0000
0110
0000
0000
,  // measure 39
2000
0000
3010
0010
,  // measure 40
1000
0000
0001
0000
0000
0110
0000
0000
,  // measure 41
1000
0001
0000
0001
1000
0000
1000
0001
,  // measure 42
0000
0000
1000
0000
0000
0110
0000
0000
,  // measure 43
0001
0000
1000
0000
0010
0010
0000
0100
,  // measure 44
0100
0001
0010
0100
,  // measure 45
1000
0001
0100
0001
,  // measure 46
0100
0010
1000
0100
,  // measure 47
0110
0000
0000
0001
0000
0001
0000
0001
,  // measure 48
1000
0000
1000
0000
1000
0000
0000
0010
,  // measure 49
0000
0010
0000
0010
0100
0000
0100
0000
,  // measure 50
0001
0000
0100
0000
0010
0000
1000
0001
,  // measure 51
1000
0000
0100
0000
0010
0000
0001
1000
,  // measure 52
0001
0000
0100
0000
0100
0000
0010
0100
,  // measure 53
0010
2001
0000
3100
,  // measure 54
0000
1000
0001
0100
,  // measure 55
0000
0010
1000
0010
,  // measure 56
0100
0000
0001
0000
0000
0020
0000
0000
,  // measure 57
0000
0031
0010
0100
,  // measure 58
1000
0001
0001
0100
,  // measure 59
0000
0010
0000
1000
,  // measure 60
1000
0001
0001
1000
,  // measure 61
0000
0100
0010
0001
,  // measure 62
0010
0100
0100
1000
,  // measure 63
1000
0000
0001
0000
1000
0000
0010
0100
,  // measure 64
0020
0030
0000
0000
,  // measure 65
0000
0000
0000
0000
,  // measure 66
0000
2000
3100
0010
,  // measure 67
0001
0000
1000
0010
0000
0000
0020
0000
,  // measure 68
0000
0130
0100
0001
,  // measure 69
1000
0001
0010
0100
,  // measure 70
1000
0020
0001
0000
,  // measure 71
1000
0000
0000
0000
0001
0000
0130
0010
,  // measure 72
0100
0000
0001
0000
1000
0000
0000
0200
,  // measure 73
0000
0300
0200
0000
0000
0000
0000
0000
,  // measure 74
0310
0000
0001
0000
1000
0000
0000
1000
,  // measure 75
0001
0000
0000
0001
1000
0000
0010
0100
,  // measure 76
0010
0100
0000
0001
1000
0000
0100
0010
,  // measure 77
0100
1001
1000
0001
,  // measure 78
0100
0100
0010
0010
,  // measure 79
1000
0001
0001
0010
,  // measure 80
1001
0001
1000
0010
,  // measure 81
0010
0100
0100
0001
,  // measure 82
0001
0000
1000
0000
1000
0000
0100
0010
,  // measure 83
0100
0010
0200
0000
0000
0000
0310
0000
,  // measure 84
0001
0001
1000
0010
,  // measure 85
0010
0100
0001
0001
,  // measure 86
1000
1000
0100
0100
,  // measure 87
0010
0000
0001
0000
1000
0000
0001
0010
,  // measure 88
0100
1000
0001
0000
0000
0000
0001
0000
,  // measure 89
0000
0100
0000
0100
,  // measure 90
0010
0000
0010
0000
,  // measure 91
2002
0000
0000
0000
,  // measure 92
0000
0000
0000
0000
,  // measure 93
3003
0000
0000
0000
;

//---------------dance-single - xRGTMx----------------
#NOTEDATA:;
#CHARTNAME:xRGTMx-SN;
#STEPSTYPE:dance-single;
#DESCRIPTION:xRGTMx;
#CHARTSTYLE:;
#DIFFICULTY:Beginner;
#METER:3;
#RADARVALUES:0.211134,0.307721,0.000000,0.007353,0.000000,201.000000,201.000000,0.000000,1.000000,0.000000,0.000000,0.000000,0.000000,0.000000,0.211134,0.307721,0.000000,0.007353,0.000000,201.000000,201.000000,0.000000,1.000000,0.000000,0.000000,0.000000,0.000000,0.000000;
#CREDIT:xRGTMx;
#DISPLAYBPM:90.000000:180.000000;
#NOTES:
// measure 0
0000
0000
0000
0000
,  // measure 1
0000
0000
0000
0000
,  // measure 2
0000
0000
0000
0000
,  // measure 3
0000
0000
0000
0000
,  // measure 4
1000
0000
0000
0000
,  // measure 5
1000
0000
0000
0001
,  // measure 6
0000
0000
0000
0001
,  // measure 7
0000
0000
0010
0000
,  // measure 8
0000
0000
0010
0000
,  // measure 9
0000
0100
0000
1000
,  // measure 10
0000
0001
0000
1000
,  // measure 11
0000
0010
0000
0100
,  // measure 12
0000
0000
0010
0000
0000
0010
0000
0000
,  // measure 13
0000
0010
0000
0010
,  // measure 14
0000
0010
0000
0010
,  // measure 15
0010
0100
0000
0001
,  // measure 16
0000
1000
0000
0100
,  // measure 17
0000
0000
0010
0000
0000
0010
0000
0000
,  // measure 18
0000
0100
0000
0000
0000
0000
1000
0000
,  // measure 19
0000
0001
0000
0100
,  // measure 20
0000
0010
0000
0100
,  // measure 21
0000
0100
0000
0000
0000
0000
0001
0000
,  // measure 22
0000
0001
0000
0000
0000
0000
0001
0000
,  // measure 23
0000
0000
1000
0000
0000
1000
0000
0000
,  // measure 24
1000
0000
0000
0010
,  // measure 25
0000
0000
0100
0000
0000
0100
0000
0000
,  // measure 26
0000
0001
0000
1000
,  // measure 27
0000
0100
0000
0000
,  // measure 28
0000
0000
1000
0000
0000
0100
0000
0000
,  // measure 29
0100
0000
0100
0000
,  // measure 30
0100
0000
0001
0000
0000
0100
0000
0000
,  // measure 31
0100
0000
0100
0000
,  // measure 32
0100
0000
1000
0000
0000
0010
0000
0000
,  // measure 33
0010
0000
0010
0000
,  // measure 34
0010
0000
0001
0000
0000
0010
0000
0000
,  // measure 35
0010
0000
0010
0000
,  // measure 36
0010
0000
1000
0000
0000
0100
0000
0000
,  // measure 37
0010
0000
0100
0000
,  // measure 38
0010
0000
0001
0000
0000
0100
0000
0000
,  // measure 39
0010
0000
0100
0000
,  // measure 40
0100
0000
0001
0000
0000
0010
0000
0000
,  // measure 41
0100
0000
0010
0000
,  // measure 42
0100
0000
1000
0000
0000
0010
0000
0000
,  // measure 43
0100
0000
0010
0000
0000
0010
0000
0000
,  // measure 44
0000
0100
0000
0100
,  // measure 45
0000
0001
0000
0001
,  // measure 46
0000
1000
0000
1000
,  // measure 47
0100
0000
0100
0000
,  // measure 48
0010
0000
0010
0000
0010
0000
0000
0100
,  // measure 49
0000
0100
0000
0000
0100
0000
0000
0000
,  // measure 50
1000
1000
1000
1000
,  // measure 51
1000
1000
0001
0001
,  // measure 52
0001
0001
0001
0001
,  // measure 53
0000
0010
0000
0000
,  // measure 54
0000
0100
0000
0100
,  // measure 55
0000
1000
0000
0001
,  // measure 56
0000
0000
0100
0000
0000
0100
0000
0000
,  // measure 57
0000
0010
0000
1000
,  // measure 58
0000
0100
0000
0010
,  // measure 59
0000
0001
0000
0100
,  // measure 60
0000
0010
0000
0010
,  // measure 61
0000
0100
0100
0100
,  // measure 62
0000
0001
0000
1000
,  // measure 63
0000
0000
0100
0000
0000
0010
0000
0000
,  // measure 64
0100
0000
0000
0000
,  // measure 65
0000
0000
0000
0000
,  // measure 66
0000
1000
1000
1000
,  // measure 67
0000
0001
0000
1000
,  // measure 68
0000
0010
0010
0000
,  // measure 69
0010
0000
0100
0100
,  // measure 70
0100
0000
0001
0000
,  // measure 71
1000
0000
0001
0010
,  // measure 72
0000
0010
0000
0000
0010
0000
0000
0100
,  // measure 73
0000
0100
0000
0000
,  // measure 74
1000
0000
0001
0000
,  // measure 75
0100
0000
0100
0000
,  // measure 76
0001
0000
1000
0000
,  // measure 77
1000
0001
0001
0001
,  // measure 78
0000
0010
0010
0010
,  // measure 79
0000
0100
0100
0100
,  // measure 80
1000
1000
1000
0000
,  // measure 81
0010
0010
0010
0000
,  // measure 82
0100
0100
0100
0001
,  // measure 83
0000
1000
0000
0100
,  // measure 84
0100
0010
0000
0001
,  // measure 85
0001
1000
1000
0010
,  // measure 86
0010
0100
0100
0001
,  // measure 87
0000
1000
0100
0010
,  // measure 88
0001
1000
0000
1000
,  // measure 89
0000
1000
0000
0000
,  // measure 90
0001
0000
0001
0000
,  // measure 91
0002
0000
0000
0000
,  // measure 92
0000
0000
0000
0000
,  // measure 93
0003
0000
0000
0000
;
