#TITLE:Energia!;
#SUBTITLE:;
#ARTIST:Russkaja;
#TITLETRANSLIT:;
#SUBTITLETRANSLIT:;
#ARTISTTRANSLIT:;
#GENRE:;
#CREDIT:;
#BANNER:Energia! - Russkajabn.png;
#BACKGROUND:Energia! - Russkajabg.png;
#LYRICSPATH:Energia! - Russkaja.lrc;
#CDTITLE:encorerebirth.png;
#MUSIC:Energia! - Russkaja.ogg;
#OFFSET:0.020;
#SAMPLESTART:22.606;
#SAMPLELENGTH:11.274;
#SELECTABLE:YES;
#BPMS:0.000=170.000
,0.500=127.500
,21.500=170.000
,57.000=255.000
,69.000=170.000
,77.000=255.000
,89.000=170.000
,97.000=255.000
,109.000=170.000
,117.000=255.000
,129.000=170.000
,201.000=255.000
,213.000=170.000
,221.000=255.000
,233.000=170.000
,241.000=255.000
,253.000=170.000
,261.000=255.000
,285.000=170.000
,285.500=85.000
,287.500=170.000
;
#STOPS:
;
#BGCHANGES:0.000=Energia! - Russkaja.avi=1.000=1=0=1===CrossFade==,
290.500=Energia! - Russkajabg.png=1.000=1=0=1===CrossFade==,
99999=-nosongbg-=1.000=0=0=0 // don't automatically add -songbackground-
;
#KEYSOUNDS:;
#ATTACKS:;

//---------------dance-single - Spork!----------------
#NOTES:
     dance-single:
     Spork! - Beginner:
     Beginner:
     1:
     0.119,0.148,0.010,0.104,0.000,69.000,1.000,10.000,0.000,0.000,0.000,0.119,0.148,0.010,0.104,0.000,69.000,1.000,10.000,0.000,0.000,0.000:
0000
0000
0000
0000
,
0000
0000
0000
0000
,
0000
0000
0000
0000
,
0000
0000
0000
0000
,
0000
0000
0000
0000
,
0000
0000
0000
0000
,
0000
1000
0000
0000
,
0000
0001
0000
0100
,
0000
0001
0000
0000
,
0000
1000
0000
0001
,
0000
1000
0000
0000
,
0000
0010
0000
0100
,
0000
0010
0000
0000
,
0000
1000
0000
0000
,
0000
0100
0000
0000
,
0100
0000
0000
0100
,
0000
0000
0100
0000
,
0000
0200
0000
0000
,
0000
0300
0000
0000
,
0000
0010
0000
0000
,
0010
0000
0000
0010
,
0000
0000
0010
0000
,
0000
0020
0000
0000
,
0000
0030
0000
0000
,
0000
0001
0000
0000
,
0001
0000
0000
0001
,
0000
0000
0001
0000
,
0000
0002
0000
0000
,
0000
0003
0000
0000
,
0000
1000
0000
0000
,
1000
0000
0000
1000
,
0000
0000
1000
0000
,
0000
2000
0000
0000
,
0000
3000
0000
0000
,
0000
0001
0000
0000
,
0000
0010
0000
0000
,
0000
0001
0000
0000
,
0000
0100
0000
0001
,
0000
1000
0000
0000
,
0000
0100
0000
0000
,
0000
1000
0000
0000
,
0000
0010
0000
1000
,
0000
0001
0000
0000
,
0000
0001
0000
0000
,
0000
1000
0000
0000
,
0000
1000
0000
0000
,
0000
0010
0000
0000
,
0000
0010
0000
0000
,
0000
0220
0000
0000
,
0000
0330
0000
0000
,
0000
0100
0000
0000
,
0100
0000
0000
0100
,
0000
0000
0100
0000
,
0000
0200
0000
0000
,
0000
0300
0000
0000
,
0000
0010
0000
0000
,
0010
0000
0000
0010
,
0000
0000
0010
0000
,
0000
0020
0000
0000
,
0000
0030
0000
0000
,
0000
1000
0000
0000
,
1000
0000
0000
1000
,
0000
0000
1000
0000
,
0000
2000
0000
0000
,
0000
3000
0000
0000
,
0000
0001
0000
0000
,
0001
0000
0000
0001
,
0000
0000
0001
0000
,
0000
0002
0000
0000
,
0000
0000
0000
0000
,
0000
0000
0000
0000
,
0000
1003
0000
0000
;

//---------------dance-single - Spork!----------------
#NOTES:
     dance-single:
     Spork! - Expert:
     Challenge:
     12:
     0.933,0.870,0.292,0.198,1.000,580.000,28.000,19.000,85.000,0.000,6.000,0.933,0.870,0.292,0.198,1.000,580.000,28.000,19.000,85.000,0.000,6.000: // measure 0
0000
0000
0000
0000
,  // measure 1
0000
0000
0000
0000
,  // measure 2
0000
0000
0000
0000
,  // measure 3
0000
0000
0000
0000
,  // measure 4
0000
0000
0000
0000
,  // measure 5
0000
0000
0000
0100
0100
0001
0010
0010
,  // measure 6
1001
0000
0001
0010
0001
0010
1000
0010
,  // measure 7
1000
0010
0400
0000
0000
0340
0000
0000
,  // measure 8
0030
0000
0100
1000
0001
0000
0100
0000
0010
0000
0100
0000
1000
0000
0100
0000
,  // measure 9
0010
0100
0004
0000
0000
4003
0000
0000
,  // measure 10
3000
0110
1000
0100
0001
0100
1000
0100
,  // measure 11
0001
0100
0040
0000
0000
0430
0000
0000
,  // measure 12
0300
1000
1100
1000
0010
0100
0110
0010
,  // measure 13
0100
0000
0001
0000
0011
0000
0000
0101
0000
0000
1010
0000
2002
0000
0000
0000
,  // measure 14
3003
0000
0000
0000
0000
0000
0000
0000
0M01
0000
0000
0010
0000
0000
0001
0000
0000
0010
0000
0000
0002
0000
0000
0000
0000
0000
0100
0000
0003
0000
0000
0000
,  // measure 15
M010
0000
0000
0100
0000
0000
0010
0000
0000
0100
0000
0000
0020
0000
0000
0000
0000
0000
1000
0000
0030
0000
0000
0000
010M
0000
0000
0010
0000
0000
0100
0000
,  // measure 16
0000
0010
0000
0000
0200
0000
0000
0000
0000
0000
1000
0000
0300
0000
0000
0000
00M1
0000
0000
0100
0000
0000
0001
0000
0000
0100
0000
0000
0002
0000
0000
0000
,  // measure 17
0000
0000
0000
0000
0000
0000
0000
0000
0000
0003
0000
0000
0010
0000
0000
0000
0000
0000
0100
0000
0000
0000
0000
0000
0010
0000
0000
0000
0000
0000
0001
0000
0000
0000
0000
0000
1000
0000
0100
0000
1000
0000
0100
0000
0000
0000
0000
0000
,  // measure 18
1000
0000
0000
0001
0000
0000
0100
0010
0100
0010
0000
0000
0100
0000
0000
0001
0000
0000
1000
0000
0000
1100
0000
0000
,  // measure 19
0101
0000
0000
0000
0000
0000
0000
0000
100M
0000
0000
0100
0000
0000
1000
0000
0000
0100
0000
0000
0020
0000
0000
0000
0000
0000
0001
0000
0030
0000
0000
0000
,  // measure 20
10M0
0000
0000
0001
0000
0000
1000
0000
0000
0001
0000
0000
0200
0000
0000
0000
0000
0000
0010
0000
0300
0000
0000
0000
1M00
0000
0000
0001
0000
0000
1000
0000
,  // measure 21
0000
0001
0000
0000
0020
0000
0000
0000
0000
0000
0100
0000
0030
0000
0000
0000
M010
0000
0000
0001
0000
0000
0010
0000
0000
0001
0000
0000
2000
0000
0000
0000
,  // measure 22
0000
0000
0000
3000
0010
0000
0100
0000
0001
0000
1000
0000
0100
0000
1000
0000
,  // measure 23
0010
1000
0010
1000
0000
0000
0010
0100
0010
0100
0000
0000
0001
0000
0000
0010
0000
0000
0100
0000
0000
1000
0000
0000
,  // measure 24
0001
0000
1000
0000
0001
0000
0000
0000
1M00
0000
0000
0010
0000
0000
0100
0000
0000
0010
0000
0000
2000
0000
0000
0000
0000
0000
0100
0000
3000
0000
0000
0000
,  // measure 25
001M
0000
0000
0100
0000
0000
1000
0000
0000
0100
0000
0000
0020
0000
0000
0000
0000
0000
0001
0000
0030
0000
0000
0000
M100
0000
0000
0010
0000
0000
1000
0000
,  // measure 26
0000
0010
0000
0000
0200
0000
0000
0000
0000
0000
0001
0000
0300
0000
0000
0000
10M0
0000
0000
0001
0000
0000
0010
0000
0000
0001
0000
0000
2000
0000
0000
0000
,  // measure 27
0000
0000
0000
0000
0000
0000
0000
0000
0000
3000
0000
0000
0100
0000
0000
0000
0000
0000
0010
0000
0000
0000
0000
0000
0100
0000
0000
0000
0000
0000
1000
0000
0000
0000
0000
0000
0010
0000
1000
0000
0010
0000
1000
0000
0000
0000
0000
0000
,  // measure 28
0100
0000
0000
1000
0000
0000
0001
0100
0001
0100
0000
0000
0010
0000
0000
0100
0000
0000
0001
0000
0000
0011
0000
0000
,  // measure 29
1010
0000
0000
0000
0000
0000
0000
0000
M001
0000
0000
0010
0000
0000
0100
0000
0000
1000
0000
0000
0020
0000
0000
0000
0000
0000
1000
0000
0030
0000
0000
0000
,  // measure 30
010M
0000
0000
1000
0000
0000
0010
0000
0000
0100
0000
0000
0002
0000
0000
0000
0000
0000
1000
0000
0003
0000
0000
0000
0M10
0000
0000
1000
0000
0000
0100
0000
,  // measure 31
0000
0010
0000
0000
0002
0000
0000
0000
0000
0000
1000
0000
0003
0000
0000
0000
00M1
0000
0000
0100
0000
0000
0010
0000
0000
1000
0000
0000
0200
0000
0000
0000
,  // measure 32
0000
0000
0000
0300
0000
0000
1000
0000
0000
0001
0000
0000
1000
0000
0000
0010
0000
0000
0100
0010
0100
0010
0000
0000
,  // measure 33
1000
0100
0000
1100
0000
0110
0000
0100
,  // measure 34
1000
0000
0010
0000
0100
0010
010M
0000
0000
0000
M100
0000
0001
0010
M100
0000
,  // measure 35
0010
0000
0000
0001
0000
0000
1M00
0000
0000
0000
0000
0000
0000
0000
0000
0000
0000
0000
M010
0000
0000
0100
0000
0000
0001
0000
0000
0000
0000
0000
10M0
0000
0000
0000
0000
0000
0100
0000
1000
0000
0100
0000
10M0
0000
0000
0000
0000
0000
,  // measure 36
0001
0100
M010
0000
0000
0010
M100
0000
0000
0000
001M
0000
1000
0100
001M
0000
,  // measure 37
0100
0000
0000
1000
0000
0000
00M1
0000
0000
0000
0000
0000
0000
0000
0000
0000
0000
0000
010M
0000
0000
0010
0000
0000
1000
0000
0000
0000
0000
0000
0M01
0000
0000
0000
0000
0000
0010
0000
0001
0000
0010
0000
0M01
0000
0000
0000
0000
0000
,  // measure 38
1000
0010
010M
0000
0100
0010
M100
0000
0000
0000
001M
0100
0010
1000
010M
0000
,  // measure 39
1000
0000
0000
0001
0000
0000
0M10
0000
0000
0000
0000
0000
0000
0000
0000
0000
0000
0000
M100
0000
0000
0010
0000
0000
0001
0000
0000
0000
0000
0000
1M00
0000
0000
0000
0000
0000
0010
0000
1000
0000
0010
0000
1M00
0000
0000
0000
0000
0000
,  // measure 40
0001
1000
00M1
0000
0000
0001
M010
0000
0000
0000
0M01
0010
0001
1000
01M0
0000
,  // measure 41
0010
0000
0000
0100
0000
0000
100M
0000
0000
0000
0000
0000
0000
0000
0000
0000
0000
0000
100M
0000
0000
0010
0000
0000
1000
0000
0000
0000
0000
0000
00M1
0000
0000
0000
0000
0000
0100
0000
0010
0000
0100
0000
M010
0000
0000
0000
0000
0000
,  // measure 42
0100
0001
M010
0000
0001
0000
0100
0000
0001
0000
0100
0000
0010
0000
1000
0000
,  // measure 43
0010
1000
0100
0010
0100
0010
0001
1000
,  // measure 44
0001
1000
0010
0100
0001
0010
0100
1000
,  // measure 45
0001
1000
0010
0100
0001
1000
0100
0010
,  // measure 46
0001
1000
0010
1000
0100
0001
0100
1000
,  // measure 47
0010
0010
0100
0001
0010
1000
0010
0001
,  // measure 48
0100
0100
0010
0100
1000
0100
0010
0001
,  // measure 49
0010
0000
1000
0000
0100
0000
0010
0000
1000
0000
0010
0000
0001
0100
0001
0100
,  // measure 50
0001
0000
0100
0000
0001
0000
0100
0000
M001
0000
0000
0010
0000
0000
0001
0000
0000
0010
0000
0000
0001
0000
0000
0010
0000
0000
0001
0000
0000
0010
0000
0000
,  // measure 51
010M
0000
0000
1000
0000
0000
0100
0000
0000
1000
0000
0000
0100
0000
0000
1000
0000
0000
0100
0000
0000
1000
0000
0000
001M
0000
0000
0100
0000
0000
0010
0000
,  // measure 52
0000
0100
0000
0000
0010
0000
0000
0100
0000
0000
0010
0000
0000
0100
0000
0000
00M1
0000
0000
1000
0000
0000
0001
0000
0000
1000
0000
0000
0001
0000
0000
1000
,  // measure 53
0000
0000
0000
0000
0000
0000
0000
0000
0000
0000
0000
0000
0001
0000
0000
0000
0000
0000
0000
0000
0000
0000
0000
0000
0000
0000
0000
0000
0000
0000
1000
0000
0000
0000
0000
0000
0000
0000
0000
0000
0000
0000
0000
0000
0000
0000
0000
0000
0010
0000
0000
0000
0000
0000
0000
0000
0000
0000
0000
0000
0000
0000
0000
0000
0000
0000
0000
0000
0000
0000
0000
0000
M100
0000
0000
0000
0000
0000
0000
0000
0000
0000
0000
0000
0000
0000
0000
0000
0000
0000
0000
0000
0000
0000
0000
0000
0001
0000
0000
0000
0000
0000
0000
0000
0000
0000
0000
0000
0000
0000
0000
0000
0000
0000
0000
0000
0000
0000
0000
0000
0M10
0000
0000
0000
0000
0000
0000
0000
0000
0000
0000
0000
0000
0000
0000
0000
0000
0000
0000
0000
0000
0000
0000
0000
0001
0000
0000
0000
0000
0000
0000
0000
0010
0000
0000
0000
0000
0000
0000
0000
0001
0000
0000
0000
0000
0000
0000
0000
M100
0000
0000
0000
0000
0000
0000
0000
0000
0000
0000
0000
0000
0000
0000
0000
0000
0000
0000
0000
0000
0000
0000
0000
,  // measure 54
0010
0000
0000
100M
0000
0000
0100
1000
0100
0010
0000
0000
0001
0000
0000
10M0
0000
0000
0001
0000
0000
0M11
0000
0000
,  // measure 55
1010
0000
0000
0000
0000
0000
0000
0000
100M
0000
0000
0100
0000
0000
1000
0000
0000
0100
0000
0000
0010
0000
0000
0100
0000
0000
0010
0000
0000
0100
0000
0000
,  // measure 56
M010
0000
0000
0001
0000
0000
0010
0000
0000
0001
0000
0000
1000
0000
0000
0001
0000
0000
1000
0000
0000
0001
0000
0000
M100
0000
0000
0001
0000
0000
0100
0000
,  // measure 57
0000
0001
0000
0000
0100
0000
0000
0010
0000
0000
0100
0000
0000
0010
0000
0000
100M
0000
0000
0010
0000
0000
1000
0000
0000
0010
0000
0000
1000
0000
0000
0001
,  // measure 58
0000
0000
1000
0000
0000
0001
0000
0000
0100
0000
0000
0000
M001
0000
0000
0000
0010
0000
0000
0000
0M01
0000
0000
0000
1000
0000
0000
0000
001M
0000
0000
0000
,  // measure 59
1000
0100
1000
001M
0000
0000
0100
0010
0100
M001
0000
0000
0010
0000
0000
010M
0000
0000
1000
0000
0000
01M0
0000
0000
,  // measure 60
100M
0000
0010
0000
0100
0000
0000
0000
M001
0000
0000
0010
0000
0000
0100
0000
0000
0010
0000
0000
0001
0000
0000
0010
0000
0000
0100
0000
0000
0010
0000
0000
,  // measure 61
0M01
0000
0000
1000
0000
0000
0100
0000
0000
1000
0000
0000
0001
0000
0000
1000
0000
0000
0100
0000
0000
1000
0000
0000
001M
0000
0000
0100
0000
0000
0010
0000
,  // measure 62
0000
1000
0000
0000
0010
0000
0000
0100
0000
0000
0010
0000
0000
1000
0000
0000
00M1
0000
0000
0100
0000
0000
0010
0000
0000
0100
0000
0000
0001
0000
0000
0100
,  // measure 63
0000
0000
0000
0000
0000
0000
0000
0000
0000
0000
0000
0000
0010
0000
0000
0000
0000
0000
0000
0000
0000
0000
0000
0000
0000
0000
0000
0000
0000
0000
0100
0000
0000
0000
0000
0000
0000
0000
0000
0000
0000
0000
0000
0000
0000
0000
0000
0000
0001
0000
0000
0000
0000
0000
0000
0000
0000
0000
0000
0000
0000
0000
0000
0000
0000
0000
0000
0000
0000
0000
0000
0000
M010
0000
0000
0000
0000
0000
0000
0000
0000
0000
0000
0000
0000
0000
0000
0000
0000
0000
0000
0000
0000
0000
0000
0000
0100
0000
0000
0000
0000
0000
0000
0000
0000
0000
0000
0000
0000
0000
0000
0000
0000
0000
0000
0000
0000
0000
0000
0000
M010
0000
0000
0000
0000
0000
0000
0000
0000
0000
0000
0000
0000
0000
0000
0000
0000
0000
0000
0000
0000
0000
0000
0000
0001
0000
0000
0000
0000
0000
0000
0000
0010
0000
0000
0000
0000
0000
0000
0000
0001
0000
0000
0000
0000
0000
0000
0000
1M00
0000
0000
0000
0000
0000
0000
0000
0000
0000
0000
0000
0000
0000
0000
0000
0000
0000
0000
0000
0000
0000
0000
0000
,  // measure 64
0010
0000
0000
M100
0000
0000
0010
0100
0010
100M
0000
0000
0100
0000
0000
10M0
0000
0000
0001
0000
0000
01M1
0000
0000
,  // measure 65
1100
0000
0000
0000
0000
0000
0000
0000
100M
0000
0000
0100
0000
0000
0010
0000
0000
0001
0000
0000
1000
0000
0000
0100
0000
0000
0010
0000
0000
0001
0000
0000
,  // measure 66
01M0
0000
0000
0001
0000
0000
1000
0000
0000
0010
0000
0000
1000
0000
0000
0001
0000
0000
0010
0000
0000
0001
0000
0000
1M00
0000
0000
0010
0000
0000
0100
0000
,  // measure 67
0000
0001
0000
0000
1000
0000
0000
0010
0000
0000
0100
0000
0000
0001
0000
0000
10M0
0000
0000
0100
0000
0000
1000
0000
0000
0001
0000
0000
0010
0000
0000
0001
,  // measure 68
0000
1000
0000
0000
1001
0000
0000
0001
0000
0000
0101
0000
0000
0001
0000
0000
,  // measure 69
0011
0000
0000
0010
0000
0000
0110
0000
0000
0100
0000
0000
1100
0000
0000
1000
,  // measure 70
0000
0000
1010
0000
0000
0010
0000
0000
0110
0000
0000
0100
0000
0000
0101
0000
,  // measure 71
0000
0001
0000
0000
2001
0000
0000
0000
0000
0000
0000
0000
3000
0000
0100
0000
,  // measure 72
0100
1000
0010
0010
0100
1001
0000
0000
;

//---------------dance-single - Spork!----------------
#NOTES:
     dance-single:
     Spork! - Light:
     Easy:
     5:
     0.381,0.492,0.333,0.615,0.000,165.000,32.000,59.000,0.000,0.000,0.000,0.381,0.492,0.333,0.615,0.000,165.000,32.000,59.000,0.000,0.000,0.000:
0000
0000
0000
0000
,
0000
0000
0000
0000
,
0000
0000
0000
0000
,
0000
0000
0000
0000
,
0000
0000
0000
0000
,
0000
0000
0000
0000
,
0000
0001
0010
0101
,
0000
0000
0020
0000
0000
2000
0030
0000
,
0100
3000
0000
0000
1000
0000
0000
0000
0010
0000
0000
0000
1100
0000
0000
0000
,
0000
0000
0020
0000
0000
0002
0030
0000
,
0100
0003
0000
0000
0001
0000
0000
0000
1000
0000
0000
0000
0011
0000
0000
0000
,
0000
0000
0200
0000
0000
2000
0300
0000
,
0010
3000
0000
0000
1000
0000
0000
0000
0001
0000
0000
0000
0010
0000
0000
0000
,
0001
0100
0010
1001
,
0000
0000
2200
0000
0000
3300
0000
0000
,
0202
0000
0000
0303
0000
0000
0022
0000
,
0000
0033
0000
0000
2020
0000
0000
3030
,
0000
1000
0100
0001
,
0100
1000
0100
0010
,
0100
0000
2200
0000
0000
3300
0000
0000
,
2020
0000
0000
3030
0000
0000
0022
0000
,
0000
0033
0000
0000
0202
0000
0000
0303
,
0000
0001
0010
1000
,
0010
0001
0010
0100
,
1000
0000
2020
0000
0000
3030
0000
0000
,
0022
0000
0000
0033
0000
0000
0202
0000
,
0000
0303
0000
0000
2200
0000
0000
3300
,
0000
1000
0010
0001
,
0010
1000
0010
0100
,
0001
0000
0022
0000
0000
0033
0000
0000
,
2020
0000
0000
3030
0000
0000
2200
0000
,
0000
3300
0000
0000
0202
0000
0000
0303
,
0000
0001
0010
1000
,
0010
0001
0010
0100
,
1000
0001
0000
0001
,
0000
1000
0100
0001
,
0010
1000
0000
1000
,
0000
0001
0100
1000
,
0010
0001
0000
1000
,
0000
0001
0010
1000
,
0100
0001
0000
0001
,
0000
1000
0010
0001
,
0100
2000
0000
0000
,
0000
3100
0000
1000
,
0000
0020
0000
0000
,
0000
0130
0000
0100
,
0100
0002
0000
0010
,
0000
1000
0000
0103
,
0010
1010
0000
1000
,
1100
0000
1000
0010
,
0100
2010
0000
0000
,
0200
3000
0000
0000
0000
0000
0002
0300
,
0000
0000
0000
0000
0020
0003
0000
0000
,
0000
1030
0100
0001
,
0100
1000
0100
0010
,
0100
0012
0000
0000
,
0200
0003
0000
0000
0000
0000
2000
0300
,
0000
0000
0000
0000
0020
3000
0000
0000
,
0000
0031
0100
1000
,
0100
0001
0010
0100
,
1000
0102
0000
0000
,
0020
0003
0000
0000
0000
0000
2000
0030
,
0000
0000
0000
0000
0200
3000
0000
0000
,
0000
0301
0010
1000
,
0010
0001
0100
0001
,
0010
2100
0000
0000
,
0020
3000
0000
0000
0000
0000
0002
0030
,
0000
0000
0000
0000
0200
0003
0000
0000
,
0000
0000
1000
0300
0000
0001
0000
0000
,
1100
0000
0000
0101
0000
0000
0001
0000
,
0000
1000
0000
0000
0011
0000
0000
1010
,
0000
0000
2002
0000
0000
0000
0000
3003
,
0000
0000
0000
0000
0000
0110
0000
0000
;

//---------------dance-single - Spork!----------------
#NOTES:
     dance-single:
     Spork! - Heavy:
     Hard:
     9:
     0.653,0.643,0.490,0.135,0.464,379.000,47.000,13.000,0.000,0.000,0.000,0.653,0.643,0.490,0.135,0.464,379.000,47.000,13.000,0.000,0.000,0.000:
0000
0000
0000
0000
,
0000
0000
0000
0000
,
0000
0000
0000
0000
,
0000
0000
0000
0000
,
0000
0000
0000
0000
,
0000
0000
0000
0000
,
0000
1000
1100
0001
,
0101
0000
0020
0000
0000
0230
0000
0001
,
0301
1000
0010
0000
1100
0100
0010
0000
,
0101
0000
0002
0000
0000
2003
0000
0010
,
3010
0100
0001
0000
0110
0010
0001
1000
,
1010
0000
0200
0000
0000
0320
0000
1000
,
1030
0001
1000
0100
0001
0100
1000
0010
,
0001
0000
0010
0000
1000
0000
0000
0001
0000
0000
0010
0000
2002
0000
0000
0000
,
3003
0000
0000
0000
1000
0000
0000
0100
0000
0000
0010
0000
0000
1000
0000
0000
,
0100
0000
0000
0010
0000
0000
1000
0000
0000
0100
0000
0000
0010
0000
0000
1000
,
0000
0000
0100
0000
0000
0010
0000
0000
1000
0000
0000
0100
0000
0000
0010
0000
,
0000
1000
0000
0000
0001
0000
0010
0000
0001
0000
0100
0000
0010
0100
0010
0000
,
1000
0000
0100
0000
1000
0010
1000
0000
0010
0000
0100
0000
0001
0000
0010
0000
,
0110
0000
0000
0000
0001
0000
0000
0100
0000
0000
0010
0000
0000
0001
0000
0000
,
0100
0000
0000
0010
0000
0000
0001
0000
0000
0100
0000
0000
0010
0000
0000
0001
,
0000
0000
0100
0000
0000
0010
0000
0000
0001
0000
0000
0100
0000
0000
0010
0000
,
0000
0001
0000
0000
1000
0000
0001
0000
1000
0000
0010
0000
0100
0000
0001
0000
,
0010
0100
0010
0000
0001
0010
0001
0000
0100
0000
0010
0000
1000
0000
0001
0000
,
1000
0001
1000
0000
0001
0000
0000
0010
0000
0000
0100
0000
0000
0001
0000
0000
,
0010
0000
0000
0100
0000
0000
0001
0000
0000
0010
0000
0000
0100
0000
0000
0001
,
0000
0000
0010
0000
0000
0100
0000
0000
0001
0000
0000
0010
0000
0000
0100
0000
,
0000
0001
0000
0000
1000
0000
0100
0000
0010
0000
0001
0000
0100
0001
0100
0000
,
0010
0000
1000
0000
0001
0010
0001
0000
0010
0000
0100
0000
1000
0000
0010
0000
,
0110
0000
0000
0000
1000
0000
0000
0010
0000
0000
0100
0000
0000
1000
0000
0000
,
0010
0000
0000
0100
0000
0000
1000
0000
0000
0010
0000
0000
0100
0000
0000
1000
,
0000
0000
0010
0000
0000
0100
0000
0000
1000
0000
0000
0010
0000
0000
0100
0000
,
0000
1000
0000
0000
0001
0000
0100
0000
0010
0000
1000
0000
0010
0100
0010
0000
,
1000
0100
0000
0010
0000
0001
0000
1000
,
0000
0001
1000
1100
0000
1010
0000
0101
,
0000
0000
0011
0000
0000
0000
0010
0100
0010
0000
0001
0000
0100
0000
0010
0000
,
1000
1000
0001
0101
0000
1100
0000
1010
,
0000
0000
0011
0000
0000
0000
0001
1000
0001
0000
0010
0000
0100
0000
0100
0000
,
1000
0001
1000
0000
0000
0000
0011
0000
0000
0000
1010
0000
0000
0000
1100
0000
,
0000
0000
0101
0000
0000
0000
0100
0010
0100
0000
0001
0000
1000
0000
0010
0000
,
1000
0100
0010
0011
0000
0101
0000
1010
,
0000
0000
1100
0000
0000
0000
1000
0001
1000
0000
0010
0000
0100
0000
0010
0000
,
1000
0001
0010
0000
0001
0000
0100
0010
,
0000
0000
0010
0000
1000
0000
0000
0100
0000
0000
1000
0000
0010
0000
0000
0000
,
0100
0000
0000
0001
0000
0000
2000
0000
0000
0000
0000
0000
3002
0000
0000
0000
,
0000
0003
0000
0010
0000
0010
0100
0000
,
0010
0000
0000
0000
0001
0000
0000
1000
0000
0000
0001
0000
0000
0000
0000
0000
,
0100
0010
1000
0001
,
1001
0000
0001
0010
0001
0010
0100
1000
,
0100
1000
0001
0100
1000
0100
0001
0001
,
0001
0000
0001
0000
1000
0000
0000
0100
0000
0000
0010
0000
0000
1000
0000
0000
,
0100
0000
0000
0001
0000
0000
1000
0000
0000
0100
0000
0000
0010
0000
0000
1000
,
0000
0000
0100
0000
0000
0001
0000
0000
1000
0000
0000
0100
0000
0000
0010
0000
,
0000
1000
0000
0000
0001
0000
0100
0000
0000
0000
0101
0000
0000
0000
1100
0000
,
0000
1001
0000
0110
0000
1010
0000
0022
,
0000
0033
0000
0000
0001
0000
0000
0100
0000
0000
0010
0000
0000
0001
0000
0000
,
0100
0000
0000
1000
0000
0000
0001
0000
0000
0100
0000
0000
0010
0000
0000
0001
,
0000
0000
0100
0000
0000
1000
0000
0000
0001
0000
0000
0100
0000
0000
0010
0000
,
0000
0001
0000
0000
1000
0000
0010
0000
0000
0000
1010
0000
0000
0000
0011
0000
,
0000
0110
0000
1001
0000
0101
0000
1100
,
1001
0000
0000
0000
1000
0000
0000
0010
0000
0000
0100
0000
0000
1000
0000
0000
,
0010
0000
0000
0001
0000
0000
1000
0000
0000
0010
0000
0000
0100
0000
0000
1000
,
0000
0000
0010
0000
0000
0001
0000
0000
1000
0000
0000
0010
0000
0000
0100
0000
,
0000
1000
0000
0000
0001
0000
1000
0000
0000
0000
1010
0000
0000
0000
0011
0000
,
0000
0110
0000
1001
0000
0101
0000
1100
,
0000
0000
1000
0000
0001
0000
0000
0010
0000
0000
0100
0000
0000
0001
0000
0000
,
0010
0000
0000
1000
0000
0000
0001
0000
0000
0010
0000
0000
0100
0000
0000
0001
,
0000
0000
0010
0000
0000
1000
0000
0000
0001
0000
0000
0010
0000
0000
0100
0000
,
0000
0001
0000
0000
1000
0000
0000
1000
0000
0000
0100
0000
0000
0100
0000
0000
,
0010
0000
0000
0010
0000
0000
0001
0000
0000
0001
0000
0000
0100
0000
0000
0100
,
0000
0000
0010
0000
0000
0010
0000
0000
1000
0000
0000
1000
0000
0000
0001
0000
,
0000
0001
0000
0000
1002
0000
0000
0000
0000
0000
0000
0000
0003
0000
0010
0000
,
0010
0001
0100
0100
0010
1001
0000
0000
;

//---------------dance-single - Spork!----------------
#NOTES:
     dance-single:
     Spork! - Standard:
     Medium:
     7:
     0.435,0.454,0.083,0.188,0.135,266.000,8.000,18.000,0.000,0.000,0.000,0.435,0.454,0.083,0.188,0.135,266.000,8.000,18.000,0.000,0.000,0.000:
0000
0000
0000
0000
,
0000
0000
0000
0000
,
0000
0000
0000
0000
,
0000
0000
0000
0000
,
0000
0000
0000
0000
,
0000
0000
0000
0000
,
0000
1000
0100
0010
,
0001
0000
0200
0000
0000
2300
0000
0000
,
3100
0000
0001
0000
0010
0010
0100
0000
,
1000
0000
0020
0000
0000
0032
0000
0000
,
0013
0000
1000
0000
0010
0010
0100
0000
,
0001
0000
0021
0000
0000
2030
0000
0000
,
3010
0001
0010
0100
,
1000
0010
0100
0220
,
0330
0000
0000
0000
0001
0000
0000
0000
0000
0000
0001
0000
0000
0010
0000
0000
,
0001
0000
0000
0000
0000
0000
1000
0000
0000
0001
0000
0000
1000
0000
0000
0000
,
0000
0000
0001
0000
0000
0100
0000
0000
0002
0000
0000
0000
0000
0000
0000
0000
,
0003
0000
1000
0000
0100
0000
0001
0100
,
1000
0000
0100
0000
0010
0000
1000
0010
,
0001
0000
0000
0000
1000
0000
0000
0000
0000
0000
1000
0000
0000
0010
0000
0000
,
1000
0000
0000
0000
0000
0000
0001
0000
0000
1000
0000
0000
0001
0000
0000
0000
,
0000
0000
1000
0000
0000
0100
0000
0000
2000
0000
0000
0000
0000
0000
0000
0000
,
3000
0001
0100
1000
,
0100
0001
1000
0000
0010
0000
0001
0010
,
1000
0000
0000
0000
0100
0000
0000
0000
0000
0000
0100
0000
0000
1000
0000
0000
,
0010
0000
0000
0000
0000
0000
0010
0000
0000
1000
0000
0000
0100
0000
0000
0000
,
0000
0000
0100
0000
0000
1000
0000
0000
0002
0000
0000
0000
0000
0000
0000
0000
,
0003
0000
1000
0000
0010
0000
0001
0010
,
1000
0000
0010
0000
0100
0000
1000
0100
,
0001
0000
0000
0000
0010
0000
0000
0000
0000
0000
0010
0000
0000
0001
0000
0000
,
0100
0000
0000
0000
0000
0000
0100
0000
0000
0001
0000
0000
0010
0000
0000
0000
,
0000
0000
0010
0000
0000
0001
0000
0000
2000
0000
0000
0000
0000
0000
0000
0000
,
3000
0001
0010
1000
,
0010
0001
0000
1000
,
0000
0000
0001
0100
0000
0010
0000
0100
,
0000
0001
0000
0010
0000
0100
0000
0100
,
0010
0100
0000
0100
0000
0010
0000
0100
,
0000
1000
0000
0010
0000
0100
0000
0100
,
0010
0100
0000
0010
0000
1000
0000
0010
,
0000
0100
0000
0001
0000
0010
0000
0100
,
0010
0100
0000
0010
0000
0001
0000
0010
,
0000
0100
0000
1000
0000
0010
0000
1000
,
0001
1000
0010
0000
0100
0000
0010
0000
,
0100
0001
1000
0001
,
1000
0100
0010
0001
,
0100
0010
1000
0001
,
0010
0001
0100
1000
,
0100
0001
1000
0100
,
0001
0100
0100
1000
,
1000
0000
0010
0000
0010
0000
1000
0001
,
1000
0000
0001
0000
0100
0000
0000
0000
0000
0000
0100
0000
0000
0001
0000
0000
,
0010
0000
0000
0000
0000
0000
0010
0000
0000
0100
0000
0000
1000
0000
0000
0000
,
0000
0000
1000
0000
0000
0010
0000
0000
0200
0000
0000
0000
0000
0000
0000
0000
,
0300
0000
0001
0001
0010
0000
1000
0010
,
0001
0000
0100
0100
1000
0000
0100
0001
,
1000
0000
0000
0000
0010
0000
0000
0000
0000
0000
0010
0000
0000
1000
0000
0000
,
0100
0000
0000
0000
0000
0000
0100
0000
0000
0010
0000
0000
0001
0000
0000
0000
,
0000
0000
0001
0000
0000
0100
0000
0000
0020
0000
0000
0000
0000
0000
0000
0000
,
0030
0000
1000
1000
0010
0000
0001
0001
,
0010
1000
0001
0001
0100
0000
1000
0100
,
0001
0000
0000
0000
0010
0000
0000
0000
0000
0000
0100
0000
0000
0010
0000
0000
,
0001
0000
0000
0000
0000
0000
0100
0000
0000
0010
0000
0000
1000
0000
0000
0000
,
0000
0000
0001
0000
0000
0010
0000
0000
0200
0000
0000
0000
0000
0000
0000
0000
,
0300
0000
1000
1000
0100
0000
0001
0100
,
1000
0000
0010
0010
0001
0000
0010
1000
,
0001
0000
0000
0000
0010
0000
0000
0000
0000
0000
0010
0000
0000
0100
0000
0000
,
1000
0000
0000
0000
0000
0000
0010
0000
0000
0100
0000
0000
0001
0000
0000
0000
,
0000
0000
1000
0000
0000
0100
0000
0000
0020
0000
0000
0000
0000
0000
0000
0000
,
0030
0000
0000
0000
0001
0000
0000
1000
0000
0000
0001
0000
0000
0000
0000
0000
,
1100
0000
0000
0000
0000
0000
0101
0000
0000
0000
0000
0000
1000
0000
0000
0001
,
0000
1000
0000
0000
0011
0000
0000
1010
,
0000
0000
0220
0000
0000
0000
0000
0330
,
0000
0000
0000
0000
0000
1001
0000
0000
;
