#TITLE:Element of SPADA;
#SUBTITLE:;
#ARTIST:Nekomata Master feat. Shimotsuki Haruka;
#TITLETRANSLIT:;
#SUBTITLETRANSLIT:;
#ARTISTTRANSLIT:;
#GENRE:;
#CREDIT:;
#BANNER:;
#BACKGROUND:;
#LYRICSPATH:;
#CDTITLE:cdtitle.png;
#MUSIC:Element of SPADA.ogg;
#OFFSET:-0.672000;
#SAMPLESTART:99.276726;
#SAMPLELENGTH:12.000000;
#SELECTABLE:YES;
#BPMS:0.000000=170.000000
,324.000000=85.000000
,333.000000=73.940002
,333.500000=67.800003
,334.000000=50.180000
,334.250000=58.060001
,334.500000=45.160000
,335.000000=40.299999
,335.250000=28.320000
;
#STOPS:
;
#BGCHANGES:;
#KEYSOUNDS:;
#ATTACKS:;

//---------------dance-single - ----------------
#NOTES:
     dance-single:
     :
     Hard:
     9:
     0.484714,0.746615,0.185494,0.316886,0.220275,439.000000,415.000000,24.000000,41.000000,0.000000,0.000000,0.484714,0.746615,0.185494,0.316886,0.220275,439.000000,415.000000,24.000000,41.000000,0.000000,0.000000:
// measure 0
0000
0000
0000
0000
,  // measure 1
0000
0000
0000
0000
,  // measure 2
0000
0000
0000
0000
,  // measure 3
1001
0000
0100
0010
0100
0000
0010
0000
,  // measure 4
0001
1000
0010
0100
0001
0000
0000
0000
,  // measure 5
0000
0000
0001
0010
0100
1000
0000
0000
,  // measure 6
1001
0000
1000
0001
1000
0000
0010
0000
,  // measure 7
0100
0001
2000
0000
,  // measure 8
0000
3002
0000
0000
,  // measure 9
1003
0000
0010
0100
0010
0000
1001
0000
,  // measure 10
0001
0100
0001
0000
1010
0000
1000
0010
,  // measure 11
0100
0000
0101
0000
0100
0001
1000
0000
,  // measure 12
1001
0000
0001
0010
0100
1000
1100
0000
,  // measure 13
1000
0010
0100
0000
0101
0000
0010
1000
,  // measure 14
0100
0000
0000
0000
0110
0000
0000
0000
1000
0010
0000
0000
0100
0000
0000
0000
,  // measure 15
0201
0000
0000
0020
,  // measure 16
0300
0000
0000
1000
,  // measure 17
0100
1030
0100
0010
,  // measure 18
0200
0000
0000
0000
0000
0000
0000
0000
0320
0000
0030
0000
0001
1000
0000
0000
,  // measure 19
2000
0000
3020
0000
,  // measure 20
0000
0230
0000
0000
,  // measure 21
0310
1000
0001
0100
,  // measure 22
0010
1000
0100
0010
,  // measure 23
0001
0000
1000
0000
0010
0100
0001
0000
,  // measure 24
1001
1000
0000
1000
,  // measure 25
0010
1010
0010
0100
,  // measure 26
0110
0000
0010
0100
0010
0100
0010
0100
,  // measure 27
0010
1000
0010
0100
,  // measure 28
0001
1000
0001
0100
,  // measure 29
0001
1000
0001
0100
,  // measure 30
0010
0100
0010
1000
,  // measure 31
0010
0100
0001
0010
,  // measure 32
0100
0000
1000
0001
1000
0001
1000
0001
,  // measure 33
1000
0100
1000
0010
0100
0010
1000
0100
,  // measure 34
0010
0001
1000
0001
0100
0001
0010
0100
,  // measure 35
1000
0001
1000
0000
0010
0000
0101
0000
,  // measure 36
1000
0000
0001
0100
0010
0000
1002
0000
,  // measure 37
0000
0000
1003
0000
0020
0000
0000
0030
,  // measure 38
0100
0102
1000
0100
,  // measure 39
2003
0100
0001
0100
,  // measure 40
0000
3000
0001
0000
0100
0000
0000
0000
,  // measure 41
0020
0230
0300
1020
,  // measure 42
0130
0001
1000
0200
,  // measure 43
1000
0310
0002
0010
,  // measure 44
1003
0020
0000
0030
,  // measure 45
1000
0000
0001
0100
0001
0000
1000
0010
0000
0000
0100
0001
1000
0000
0001
0000
,  // measure 46
1000
0000
0000
0100
1000
0000
0001
1000
0001
0000
0010
0000
0100
0000
1000
0000
,  // measure 47
0100
0110
1100
1000
,  // measure 48
1000
0001
0000
0000
0100
0010
0100
0010
0100
0000
0001
0010
0100
1000
0010
0000
,  // measure 49
0100
0010
0000
0000
1000
0001
0010
0000
0100
0000
0000
0000
0000
0000
0000
0000
,  // measure 50
1010
0000
0100
0000
0001
0100
0001
1000
,  // measure 51
0001
0010
0400
0000
0000
0000
0000
0000
,  // measure 52
0300
1000
0200
0000
,  // measure 53
0310
0001
1000
0001
,  // measure 54
1000
0010
1000
0010
0100
0010
1000
0100
,  // measure 55
0010
0001
0100
0010
0100
0001
1000
0010
,  // measure 56
0100
0010
0100
0010
1000
0000
0001
0000
,  // measure 57
1000
0100
0000
0000
0010
0100
0000
0000
0100
0010
0000
0000
0001
0010
0000
0000
,  // measure 58
0100
1000
0000
0000
0010
0100
0000
0000
0100
0010
0000
0000
0010
1000
0000
0000
,  // measure 59
0001
0010
0100
1000
0100
0000
0000
0000
0010
0000
0100
0000
0010
0000
0100
0000
,  // measure 60
1000
0010
0102
0000
0100
0000
0103
0000
,  // measure 61
0010
0000
1000
0000
0100
0010
0200
0000
,  // measure 62
0000
0000
0300
0000
0000
0000
0000
0000
1000
0010
0000
0000
0100
0001
0000
0000
,  // measure 63
0210
0010
0000
0320
,  // measure 64
1000
0000
0030
0000
1000
0000
0001
0100
0002
0000
0000
0000
2003
0000
0000
0000
,  // measure 65
3020
0230
0302
2003
,  // measure 66
3020
0000
0000
0000
,  // measure 67
0030
0000
0000
0000
0000
0000
0000
0000
1000
0100
0010
0001
0100
0001
1000
0010
,  // measure 68
0100
0001
1000
0001
0010
0100
1000
0001
1000
0000
0000
0000
0001
0000
0000
0000
,  // measure 69
0001
0100
0000
0000
0010
0100
0000
0000
0001
0100
0000
0000
0010
1000
0000
0000
,  // measure 70
0010
0100
0000
0000
0001
1000
0000
0000
0010
1000
0000
0000
0001
0100
0000
0000
,  // measure 71
0010
0100
0000
0000
0001
1000
0000
0010
1000
0000
0000
0000
0001
1000
0000
0000
,  // measure 72
1000
0001
2000
0000
0000
3000
0000
0000
,  // measure 73
0010
0100
0000
0000
0001
0100
0020
0000
,  // measure 74
0000
0030
0000
0000
1000
0000
0100
0000
,  // measure 75
2000
0001
3010
0200
,  // measure 76
0310
0000
0000
0000
0100
0000
0010
0100
0010
0000
0000
0000
1000
0000
0000
0000
,  // measure 77
0010
0100
0002
1003
,  // measure 78
0010
0100
0020
0000
1000
0000
0100
0000
,  // measure 79
1030
0000
0001
0100
0101
0000
0010
1000
,  // measure 80
0010
0000
0000
0000
0110
0000
0000
0000
0001
0000
0100
0000
0010
1000
0010
0000
,  // measure 81
0200
0000
0000
0000
0000
0000
0000
0000
0000
0000
0000
0000
0320
0000
0000
0000
0000
0000
0000
0000
0030
0000
1000
0100
0010
0001
0000
0000
1000
0000
0000
0000
,  // measure 82
0010
0000
0000
0000
0100
0000
0000
0000
0010
0000
0000
0000
1000
0100
1000
0000
0100
0000
0010
0000
0002
0000
0000
0000
0000
0000
0000
0000
0000
0000
0000
0000
,  // measure 83
0003
0000
1000
0000
0100
0000
1000
0000
0010
0000
0100
0001
0100
0010
2000
0000
,  // measure 84
3000
0000
0000
0000
;

//---------------dance-single - ----------------
#NOTES:
     dance-single:
     :
     Medium:
     7:
     0.345594,0.649230,0.069560,0.355531,0.123663,313.000000,304.000000,9.000000,46.000000,2.000000,0.000000,0.345594,0.649230,0.069560,0.355531,0.123663,313.000000,304.000000,9.000000,46.000000,2.000000,0.000000:
0000
0000
0000
0000
,
0000
0000
0000
0000
,
0000
0000
0000
0000
,
1001
0000
0001
1000
,
0000
0000
1000
0000
,
0000
0000
0001
1000
0001
1000
0001
0000
,
1001
0000
0000
0100
,
0010
0100
1010
0000
,
0000
0002
2003
0000
,
3200
0000
0000
0000
0000
0000
0320
0030
,
0020
0000
0000
0031
,
1000
0200
0300
1000
,
0010
0100
0001
0010
,
0100
1000
0002
0000
,
0003
0000
0020
0000
0000
0000
0000
0030
,
0200
0000
0000
0000
0000
0000
0020
0300
,
0000
0000
0000
0100
,
0130
0000
2000
0000
3002
0003
1000
0000
,
0200
0000
0310
0010
,
0002
2000
3003
0000
0220
0000
0000
0000
,
0000
0330
0000
0000
,
1001
0001
0001
0001
,
0010
0100
1000
1000
,
1000
0010
0010
0010
,
0010
0000
1000
0001
,
0000
0100
0010
0000
,
0010
0100
0000
0000
0100
0000
0000
0000
0000
0000
0000
0000
0000
0000
0000
0000
,
1001
0010
0100
0010
,
0000
1000
0001
0000
,
0010
0100
0000
0110
,
0110
0000
0000
1000
,
0010
0000
0100
0000
0001
0000
1000
0001
,
1000
1000
0001
1000
,
0001
1000
0001
1000
0001
1000
0001
0100
,
0010
0100
0010
0100
0010
1000
0010
1000
,
0010
1000
0010
0100
0010
0100
0010
0100
,
0010
0100
0001
0100
0002
0000
2003
0000
,
0000
3010
0020
0000
,
0130
0101
0001
0010
,
0200
0000
0000
2300
,
0000
0000
3002
0000
,
0000
0023
0230
2300
,
3010
0100
0010
0200
,
0000
0310
0020
0000
,
0000
0200
0030
0000
,
0302
1000
0010
1000
,
0010
0000
1000
0000
0010
0003
1000
0000
,
0100
0000
0010
0000
0100
0000
0010
0100
,
0010
0100
0020
0000
0000
0000
0000
0000
,
0000
0000
0031
1000
,
0001
0000
0100
0000
0010
0100
0010
0100
,
0010
1000
0002
0000
1000
0000
1003
0000
,
1000
0010
0200
0000
,
0310
0100
0010
1000
,
0002
1000
0100
1000
,
0100
0000
1000
0000
0100
0000
1003
0010
,
0100
0001
0100
0000
0010
0000
1000
0000
,
0010
0100
0000
0000
0010
0100
0000
0000
0010
0100
0000
0000
0010
0100
0000
0000
,
0001
1000
0000
0000
0001
1000
0000
0000
0001
1000
0000
0000
0001
1000
0000
0000
,
0001
1000
0000
0000
0010
0000
0000
0000
0100
0000
0000
0000
0001
0000
1000
0000
,
0001
1000
0002
0000
0000
0000
0000
0000
,
0103
0000
0010
0000
0100
0010
0200
0000
,
0000
0300
0000
0000
0010
0000
0100
0000
,
0020
0000
0030
0200
,
0000
0000
0310
0100
0010
0000
1000
0000
,
0010
0100
0001
0100
,
0020
0000
0000
0000
,
0030
0000
0000
0000
0000
0000
0000
0000
1000
0001
1000
0001
1000
0001
1000
0001
,
1000
0001
1000
0001
1000
0000
0000
0000
0010
0000
0000
0000
0100
0000
0000
0000
,
0001
0100
0000
0000
0001
0100
0000
0000
0001
0100
0000
0000
0010
0100
0000
0000
,
0010
0100
0000
0000
0010
0100
0000
0000
0010
1000
0000
0000
0010
1000
0000
0000
,
0010
1000
0000
0000
0010
0100
0000
0000
0010
0100
0000
0000
0010
0100
0010
0000
,
0100
0010
0100
0000
0000
0000
0000
0000
,
0001
0000
1000
0000
0010
0100
0020
0000
,
0000
0030
0000
0000
1000
0000
0001
0000
,
2000
0000
0000
3020
,
0000
0000
0000
0000
0030
0000
0100
0010
0100
0000
0000
0000
0001
0000
0000
0000
,
1000
0010
0100
0001
,
0010
0100
0020
0000
0000
0000
0000
0000
,
0000
0030
0000
0000
,
0000
0000
0000
0000
0000
0000
0100
0010
,
0002
0000
0000
0000
0000
0000
2000
0000
0003
0000
3000
0001
1000
0000
0010
0000
,
0100
0000
0001
0000
1000
0000
0010
0100
0010
0100
0020
0000
0000
0000
0000
0000
,
0000
0000
0000
0000
0000
0000
0000
0000
0000
0000
0000
0000
0000
0000
0000
0030
,
M00M
0000
0000
0000
;

//---------------dance-single - ----------------
#NOTES:
     dance-single:
     :
     Easy:
     5:
     0.184390,0.584307,0.239597,0.293699,0.000000,167.000000,136.000000,31.000000,38.000000,0.000000,0.000000,0.184390,0.584307,0.239597,0.293699,0.000000,167.000000,136.000000,31.000000,38.000000,0.000000,0.000000:
0000
0000
0000
0000
,
0000
0000
0000
0000
,
0000
0000
0000
0000
,
1000
0000
0000
0000
,
0000
0000
0000
0000
,
0000
0020
0000
0030
,
0010
0000
0000
0000
,
0000
0000
0100
0000
,
0000
0020
0000
0000
,
0230
0000
0000
0302
,
0000
0000
0000
0013
,
0010
0010
0000
0100
,
0020
0000
0000
0000
,
0031
0001
0002
0000
,
0013
0020
0000
0000
,
0230
0000
0000
2300
,
0000
0000
3000
0002
,
0000
0000
0203
0000
,
0320
0000
0130
0100
,
0200
0300
0020
0000
,
0000
0200
0000
0000
,
0330
0000
0000
0000
,
0000
0000
1000
0000
,
0000
0000
0000
0000
,
0001
0000
0000
0000
,
0000
0000
1000
0000
,
0000
1002
0000
0003
,
0100
0000
0000
0000
,
0000
0000
0010
0000
,
0000
0000
0000
0000
,
0100
0000
0000
0010
,
0000
0000
0110
0000
,
0000
1000
1000
1000
,
0001
0000
0000
0000
,
0000
0000
0100
0000
,
0000
0000
0000
0000
,
0010
0100
0010
0100
,
0000
0000
0000
0000
,
0000
0220
0000
0000
,
0330
0000
0000
0001
,
0000
0000
1000
0000
,
0000
0020
0000
0000
,
0030
0000
0000
0000
,
0000
0100
0020
0000
,
0030
0100
0000
0000
,
2002
0000
0000
0000
,
0000
0000
0000
3003
,
0000
0000
0000
0000
,
0220
0000
0000
0000
,
0000
0000
0330
0000
,
0000
0000
0000
0000
,
0001
0200
0000
0300
,
0000
0001
0200
0300
,
0010
1000
0001
1000
,
0002
0000
0000
0000
,
0000
0000
0000
0003
,
0000
0010
0100
0010
,
0110
0110
0110
0110
,
1001
1001
1001
1001
,
0110
0110
0110
0010
,
0100
0020
0000
0030
,
1000
0000
0001
0000
1000
1000
0001
0000
,
0000
0000
0010
0100
,
0020
0000
0030
0200
,
0000
0300
0000
0000
,
0000
0000
0000
0000
,
2002
0000
0000
0000
,
3003
0000
0000
0000
1000
0001
1000
0001
,
1000
0001
1000
0001
1000
0000
0000
0000
,
1100
1100
1100
0110
,
0110
0110
0011
0011
,
0011
1001
1001
1001
,
0000
0020
0030
0000
,
0000
0000
0200
0000
,
0300
0000
0000
0000
,
1002
0000
0003
0120
,
0000
1030
1000
0001
,
0010
0100
1000
0010
,
0100
0010
0200
0000
0000
0000
0000
0000
,
0000
0300
0001
0001
,
1000
1000
0010
0010
,
0100
0000
0000
0010
0000
0000
0100
0000
,
0000
0000
0000
0000
1000
0002
0000
0000
,
0000
0000
0000
0000
,
0003
0000
0000
0000
;
