#TITLE:De El Mi;
#SUBTITLE:;
#ARTIST:Lilit Hovhannisyan;
#TITLETRANSLIT:;
#SUBTITLETRANSLIT:;
#ARTISTTRANSLIT:;
#GENRE:;
#CREDIT:;
#BANNER:[Round 1] - De El Mi.jpg;
#BACKGROUND:[Round 1] - De El Mi-bg.jpg;
#LYRICSPATH:;
#CDTITLE:;
#MUSIC:[Round 1] - De El Mi.mp3;
#OFFSET:-2.229556;
#SAMPLESTART:37.770000;
#SAMPLELENGTH:20.011999;
#SELECTABLE:YES;
#BPMS:0.000000=107.936996
,146.000000=110.000000
,150.000000=110.251999
,154.000000=112.750000
,158.000000=113.272003
,162.000000=113.500000
,166.000000=116.500000
,170.000000=117.125000
,174.000000=117.500000
,178.000000=118.000000
,182.000000=120.750000
,186.000000=122.000000
,190.000000=122.750000
,194.000000=124.500000
,198.000000=124.999992
,202.000000=125.999992
,204.000000=108.000000
;
#STOPS:
;
#BGCHANGES:15.500=[Round 1] - De El Mi.avi=1.000=1=0=0=StretchNoLoop==CrossFade==,
99999=-nosongbg-=1.000=0=0=0 // don't automatically add -songbackground-
;
#KEYSOUNDS:;
#ATTACKS:;

//---------------dance-single - ----------------
#NOTES:
     dance-single:
     :
     Hard:
     7:
     0.435830,0.544597,0.392003,0.127827,0.144871,358.000000,312.000000,46.000000,15.000000,0.000000,0.000000,0.435830,0.544597,0.392003,0.127827,0.144871,358.000000,312.000000,46.000000,15.000000,0.000000,0.000000:
0000
0000
0000
0000
,
0000
0000
0000
0000
,
0000
0000
0000
0000
,
0000
0000
0000
0000
,
1000
0000
0000
0000
0000
1001
0000
0000
0000
0001
0000
0000
0100
0000
0000
0000
0000
0110
0000
0000
0000
0010
0000
0000
,
1000
0000
0000
0000
0000
1010
0000
0000
0000
0010
0000
0000
1000
0000
0000
0000
0000
0000
0001
0000
0000
0000
0000
0000
,
0010
0000
0000
0000
0000
0110
0000
0000
0000
0100
0000
0000
1000
0000
0000
0000
0000
1100
0000
0000
0000
0100
0000
0000
,
1000
0000
0000
0000
0000
1001
0000
0000
0000
0001
0000
0000
0100
0000
0000
0100
0000
0000
0100
0000
0000
0100
0000
0000
,
0010
0000
0000
0000
0000
0110
0000
0000
0000
0100
0000
0000
0001
0000
0000
0000
0000
1001
0000
0000
0000
0001
0000
0000
,
0010
0000
0000
0000
0000
0110
0000
0000
0000
0100
0000
0000
1000
0000
0000
0000
0000
0000
0001
0000
0000
0000
0000
0000
,
1001
0000
0101
0000
,
1100
1001
0101
1010
,
2002
0000
0000
0000
0000
0000
3003
0000
1000
0001
0000
0000
0022
0000
0000
0000
0000
0000
0033
0000
0010
0100
0000
0000
,
0220
0000
0330
0100
2000
0000
3100
0000
,
2200
0000
0000
0000
0000
0000
3300
0000
1000
0001
0000
0000
2002
0000
0000
0000
0000
0000
3003
0000
0001
1000
0000
0000
,
1010
0110
0101
1001
,
1100
0000
0100
0010
0001
0000
0010
0001
,
1000
0000
0001
1000
0010
0000
1000
0010
,
0100
0000
0010
0100
0001
0000
0100
0001
,
0101
0000
1001
0000
1100
1100
0000
0000
,
1000
0100
0001
0100
1000
1000
0001
0001
,
1000
0010
0001
0010
1000
1000
0001
0001
,
1000
0100
0010
0001
1000
1000
0001
0001
,
1000
0010
0100
0001
1000
1000
0001
1000
,
0100
0100
0010
0010
0001
0001
0000
0000
,
2002
0000
3003
0000
0001
0100
0010
0010
,
0100
0010
1010
0000
1000
1000
0001
0001
,
1000
1001
0001
1001
1000
0100
0010
0010
,
0001
1000
0001
0000
1000
0010
0100
0001
,
0101
0000
0000
1010
0000
0000
1001
0000
0001
0000
0010
0000
1000
0000
0010
0000
,
0001
0001
1000
1000
0001
0100
1000
0100
,
0001
0001
1000
1000
0001
0100
0010
1000
,
0100
1000
0100
0000
0010
0000
0001
0000
1000
0000
0000
0000
1001
0000
0000
0000
,
0001
1001
1000
1001
0001
0000
0220
0000
,
0000
0330
1001
0000
,
0000
0000
0000
1000
0001
0000
0010
0000
,
0100
1000
0001
1000
0010
0000
0100
0000
,
0001
0100
0010
1000
0001
0001
0010
0010
,
0100
0100
0000
0010
0100
0000
1001
0000
,
0001
0100
1000
0100
0001
0000
1001
0000
,
0001
0010
1000
0010
0001
0000
1001
0000
,
1000
0100
0001
0100
1000
1000
0001
0001
,
1001
0000
1001
0000
0000
0000
1000
0000
0001
0000
0000
0000
0100
0001
0100
0001
,
0100
0000
0100
0000
0010
0000
0010
0000
1000
0000
0000
0000
0100
1000
0100
1000
,
0100
0000
0100
0000
0010
0000
0010
0000
0001
0000
0000
0000
0010
0001
0010
0001
,
1000
0001
1000
0001
0100
0000
0000
0000
0010
0000
1000
0000
0001
0000
0010
0000
,
0100
0000
1000
0000
0000
0000
0001
0000
1000
0000
0000
0000
0001
0100
0010
1000
,
0001
0000
0010
0000
1000
0000
0010
0000
0001
0000
0000
0000
1000
0010
0100
0001
,
1000
0000
0100
0000
0001
0000
0100
0000
1000
0000
0001
0000
1000
0010
1000
0010
,
1000
0001
1000
0001
0010
0001
0010
0001
0010
0000
0010
0000
0100
0000
0100
0000
,
1000
0000
0100
0000
0010
0000
0001
1000
0010
0000
0010
0000
0100
0000
0100
0000
,
0001
0001
0000
0000
0000
0000
0000
0000
;

//---------------dance-single - ----------------
#NOTES:
     dance-single:
     :
     Easy:
     3:
     0.203306,0.217306,0.076696,0.000000,0.000000,167.000000,158.000000,9.000000,0.000000,0.000000,0.000000,0.203306,0.217306,0.076696,0.000000,0.000000,167.000000,158.000000,9.000000,0.000000,0.000000,0.000000:
0000
0000
0000
0000
,
0000
0000
0000
0000
,
0000
0000
0000
0000
,
0000
0000
0000
0000
,
1000
0000
0100
0000
,
0010
0000
0001
0001
,
1000
0000
0010
0000
,
0100
0000
0001
1000
,
0001
0000
0100
0000
,
0010
0000
1000
1000
,
0001
0000
1000
0000
,
0001
0010
1000
0010
,
0001
0000
0010
0000
,
0001
0000
1000
0001
,
1000
0000
0010
0000
,
1000
0001
1000
0001
,
0010
0010
0010
0000
,
0100
0100
0100
0000
,
1000
1000
1000
0000
,
0001
1000
1001
0000
,
0001
0100
0010
0010
,
1000
0100
0010
0010
,
0001
1000
0100
0100
,
1000
0001
0100
0100
,
0010
1000
0001
0000
,
1001
0000
0001
0010
,
0100
0100
0010
0001
,
1000
1000
0001
0100
,
0100
0010
0010
1000
,
1001
0000
1000
0100
,
0010
0010
0001
1000
,
0010
0010
0100
0010
,
1000
0001
0010
0010
,
0100
1000
0001
1001
,
0000
0000
1001
0000
,
0000
0000
1000
0001
,
0010
0010
0001
1000
,
0100
0100
1000
0001
,
1001
0000
0001
1000
,
0010
0010
1000
0010
,
0100
0100
0010
0100
,
0001
0001
1000
0001
,
1001
0000
0001
0100
,
1000
1000
0100
0001
,
1000
1000
0001
0010
,
1000
1000
0010
0001
,
1001
0000
1000
0010
,
0001
0001
0010
1000
,
0001
0001
1000
0100
,
0001
0001
0100
1000
,
0001
0001
1000
0001
,
1001
0000
0000
0000
;

//---------------dance-single - ----------------
#NOTES:
     dance-single:
     :
     Medium:
     6:
     0.315307,0.370326,0.051131,0.110783,0.034087,259.000000,253.000000,6.000000,13.000000,0.000000,0.000000,0.315307,0.370326,0.051131,0.110783,0.034087,259.000000,253.000000,6.000000,13.000000,0.000000,0.000000:
0000
0000
0000
0000
,
0000
0000
0000
0000
,
0000
0000
0000
0000
,
0000
0000
0000
0000
,
0001
0000
0010
0000
,
0100
0000
0000
0000
0000
0000
0000
0000
0000
0000
0000
1000
0200
0000
0000
0000
0000
0000
0320
0000
0000
0000
0000
0000
,
0031
0000
0100
0000
,
0010
0000
0000
1000
0010
0010
0100
0100
,
0001
0000
0000
0000
0000
0000
0000
0000
0100
0001
0000
0000
1000
0000
0000
0000
0000
0000
0000
0000
0001
1000
0000
0000
,
0100
0000
0000
1000
0200
0000
0320
0000
,
0032
0003
2000
3000
,
0002
0203
2300
3200
,
0301
0000
0000
0000
0000
0100
0000
0000
0000
0001
0000
0000
1000
0000
0000
0000
0000
0001
0000
0000
0000
1000
0000
0000
,
0200
0000
0320
0000
0031
0001
0001
0000
,
1000
0000
0000
0000
0000
0100
0000
0000
0000
0001
0000
0000
0100
0000
0000
0000
0000
1000
0000
0000
0000
0001
0000
0000
,
2000
0000
3001
0001
0100
0100
1000
1000
,
0100
0001
0101
0000
,
0001
1000
1100
0000
,
0001
0010
0011
0000
,
0001
0000
1000
0000
0001
0001
0000
1000
,
1000
0000
0010
0000
1000
0010
1000
0010
,
1000
0000
0001
0000
0010
0001
0010
0001
,
0010
0000
0001
0000
1000
0001
1000
0001
,
1000
0000
0010
0000
0100
0001
1000
0000
,
0001
0000
0010
0000
0100
1000
0000
0000
,
1001
0000
0001
1000
,
0100
0010
0001
0000
1000
0000
0001
0000
,
1000
0010
0001
0010
1000
0000
0001
0000
,
0100
0010
1000
0000
0001
0010
1000
0010
,
0001
0000
0000
0001
0000
0000
0001
0000
1000
0000
0000
0000
0100
0000
0000
0000
,
1000
0100
0010
0001
1000
0000
0001
0000
,
1000
0010
0100
0001
1000
0000
0001
0000
,
1000
0001
0100
0010
1000
0000
0001
0000
,
0010
0010
0100
0100
0010
0000
0110
0000
,
0000
0000
1001
0000
,
0000
0000
0000
0001
1000
0000
0001
0000
,
1000
1000
0010
0010
1000
0000
0001
0000
,
0010
0010
0001
0001
1000
0000
0001
0000
,
1000
0001
0000
1000
0001
0000
0100
0000
,
0010
0100
0010
0100
0010
0000
1000
0000
,
0100
0010
0100
0010
0100
0000
0010
0000
,
0001
1000
0001
1000
0001
0100
0010
1000
,
0001
0001
0000
1000
0001
0000
1000
1000
,
0001
0010
1000
0010
0001
0000
1000
1000
,
0001
0100
1000
0100
0001
0000
1000
1000
,
0010
0001
1000
0100
0001
0001
1000
1000
,
0001
1000
0000
0001
1000
0000
0001
0001
,
1000
0100
0001
0100
1000
0000
0001
0001
,
1000
0010
0001
0010
1000
1000
0010
0010
,
0100
0001
1000
0001
0010
0010
0100
0100
,
1000
0100
0010
0001
1000
1000
0010
0010
,
0100
0100
0000
0000
0000
0000
0000
0000
;

//---------------dance-single - ----------------
#NOTES:
     dance-single:
     :
     Beginner:
     2:
     0.132697,0.152114,0.000000,0.000000,0.000000,109.000000,109.000000,0.000000,0.000000,0.000000,0.000000,0.132697,0.152114,0.000000,0.000000,0.000000,109.000000,109.000000,0.000000,0.000000,0.000000,0.000000:
0000
0000
0000
0000
,
0000
0000
0000
0000
,
0000
0000
0000
0000
,
0000
0000
0000
0000
,
0001
0000
0001
0000
,
0001
0000
1000
1000
,
1000
0000
1000
0000
,
1000
0000
0001
0001
,
0001
0000
0100
0000
,
0001
0000
0100
0100
,
0100
0000
0010
0000
,
0100
0100
0100
0100
,
0100
0000
0010
0000
,
1000
0000
0010
0000
,
1000
0000
0001
0000
,
1000
1000
1000
1000
,
1000
0000
0000
0000
,
0100
0000
0000
0000
,
0010
0000
0000
0000
,
0001
0001
0001
0000
,
1000
0000
1000
0000
,
0010
0000
0010
0000
,
0100
0000
0100
0000
,
0001
0001
0001
0000
,
1000
1000
1000
0000
,
0000
0000
0001
0000
,
0001
0000
1000
1000
,
1000
0000
0100
0000
,
0010
0000
0001
0001
,
0001
0000
1000
0000
,
1000
0000
0010
0010
,
0010
0000
0100
0000
,
0001
0000
1000
1000
,
1000
1000
1000
0000
,
0000
0000
0000
0000
,
0000
0000
0001
0000
,
0001
0000
1000
0000
,
1000
0000
0001
0001
,
0001
0000
0010
0000
,
0010
0000
0100
0000
,
0100
0000
0010
0000
,
0010
0000
0100
0100
,
0100
0000
1000
0000
,
1000
0000
0100
0000
,
0100
0000
1000
0000
,
1000
0000
0010
0010
,
0010
0000
0100
0000
,
0001
0000
1000
0000
,
0001
0000
1000
1000
,
1000
0000
0100
0100
,
0100
0000
0010
0010
,
0010
0000
0000
0000
;

//---------------dance-single - ----------------
#NOTES:
     dance-single:
     :
     Challenge:
     10:
     0.634266,0.740652,0.494265,0.102262,0.647657,521.000000,463.000000,58.000000,12.000000,0.000000,0.000000,0.634266,0.740652,0.494265,0.102262,0.647657,521.000000,463.000000,58.000000,12.000000,0.000000,0.000000:
// measure 0
0000
0000
0000
0000
,  // measure 1
0000
0000
0000
0000
,  // measure 2
0000
0000
0000
0000
,  // measure 3
0000
0000
0000
0000
,  // measure 4
2001
0000
0000
0000
0000
3001
0000
0000
0000
0100
0000
0000
0102
0000
0000
0000
0000
1003
0000
0000
0000
0100
0000
0000
,  // measure 5
2100
0000
0000
0000
0000
0000
0000
0000
0000
0000
0000
0000
0000
0000
0000
0000
0000
0000
0000
0000
0000
0000
0000
0000
0000
0000
0000
0000
0000
0000
0000
0000
0000
0000
0000
0000
0000
0000
0000
0000
3001
0000
0000
0000
0000
0000
0000
0000
0000
0000
0000
0000
0000
0000
0000
0000
0000
0000
0000
0000
0000
0000
0000
0000
0000
0000
0000
0000
0000
0000
0000
0000
1000
0000
0000
0000
0000
0000
0000
0000
0000
0000
0000
0000
0000
0000
0000
0000
0000
0000
0000
0000
0000
0000
0000
0000
1020
0000
0000
0000
0000
0000
0000
0000
0000
0000
0000
0000
0000
0000
0000
0000
0000
0000
0000
0000
0000
0000
0000
0000
0000
0000
0000
0000
0000
0000
0000
0000
0000
0000
0000
0000
0000
0000
0000
0000
0000
0000
0000
0000
0000
0000
0000
0000
0230
0000
0000
0000
0000
0000
0000
0000
0000
0000
0000
0000
0000
0000
0000
0000
0000
0000
0000
0000
0000
0000
0000
0000
0000
0000
0000
0000
0000
0000
0000
0000
0000
0000
0000
0000
0000
0000
0000
0000
0000
0000
0000
0000
0000
0000
0000
0300
,  // measure 6
0102
0000
0000
0000
0000
1003
0000
0000
0000
0010
0000
0000
2010
0000
0000
0000
0000
3001
0000
0000
0000
0010
0000
0000
,  // measure 7
0012
0000
0000
0000
0000
1003
0000
0000
0000
0001
0000
0000
1001
0000
0000
1000
0000
0100
1000
0000
0001
1000
0000
0000
,  // measure 8
0010
0000
0000
0000
0000
0100
0000
0000
0001
0100
0000
0000
0001
0000
0000
0000
0000
1000
0000
0000
0001
1000
0000
0000
,  // measure 9
0100
0000
0000
0000
0000
0000
0000
0000
0000
0000
0000
0000
0000
0000
0000
0000
0000
0000
0000
0000
0000
0000
0000
0000
0000
0000
0000
0000
0000
0000
0000
0000
0000
0000
0000
0000
0000
0000
0000
0000
1000
0000
0000
0000
0000
0000
0000
0000
0000
0000
0000
0000
0000
0000
0000
0000
0000
0000
0000
0000
0000
0000
0000
0000
0100
0000
0000
0000
0000
0000
0000
0000
1000
0000
0000
0000
0000
0000
0000
0000
0000
0000
0000
0000
0000
0000
0000
0000
0000
0000
0000
0000
0000
0000
0000
0000
0100
0000
0000
0000
0000
0000
0000
0000
0000
0000
0000
0000
0000
0000
0000
0000
0000
0000
0000
0000
0000
0000
0000
0000
0000
0000
0000
0000
0000
0000
0000
0000
0000
0000
0000
0000
0000
0000
0000
0000
0000
0000
0000
0000
0000
0000
0000
0000
0010
0000
0000
0000
0000
0000
0000
0000
0000
0000
0000
0000
0000
0000
0000
0000
0000
0000
0000
0000
0000
0000
0000
0000
0000
0000
0000
0000
0000
0000
0000
0000
0000
0000
0000
0000
0001
0000
0000
0000
0000
0000
0010
0000
0000
0000
0000
0000
,  // measure 10
0001
0000
0000
0000
0000
0000
0000
0000
0000
0000
0000
0000
0000
0000
1000
0001
1000
0000
0000
0000
0000
0000
0000
0000
0000
0000
0000
0000
0000
0000
0010
1000
,  // measure 11
0010
0000
0000
0000
0000
0000
0100
0010
0100
0000
0000
0000
0000
0000
0001
0100
0001
0000
0000
0000
0000
0000
1000
0001
1000
0000
0000
0000
0000
0000
0010
0100
,  // measure 12
0001
0000
0000
0001
0000
0010
0000
0000
0000
0001
0000
0000
1000
0000
0000
1000
0000
0010
0000
0000
0000
1000
0000
0000
,  // measure 13
0001
0000
0000
0000
0000
0001
1000
0000
0000
0100
0000
0000
0001
0000
0000
0100
0000
1000
0001
0000
0000
0100
0000
0000
,  // measure 14
0101
0000
0000
0001
0000
0100
0000
0000
0001
1000
0000
0000
1100
0000
0000
0100
0000
1000
0000
0000
0001
1000
0000
0000
,  // measure 15
1001
0000
1010
1000
1001
0001
0011
0001
,  // measure 16
1001
0000
0000
0000
0000
1000
0010
0000
0100
0001
0000
0000
0101
0000
0000
0000
0000
0001
0100
0000
0000
0001
0000
0000
,  // measure 17
1001
0000
0000
0000
0000
1000
0001
0000
1000
0100
0000
0000
1100
0000
0000
0000
0000
1000
0100
0000
0000
0010
0000
0000
,  // measure 18
0110
0000
0000
0000
0000
0010
0100
0000
1000
0001
0000
0000
1001
0000
0000
0000
0000
1000
0001
0000
0000
0100
0000
0000
,  // measure 19
0101
0001
0110
1000
1010
1001
0000
0001
,  // measure 20
1000
0000
0000
0010
0000
0000
0001
0000
0000
0010
0000
0000
1000
0000
0000
0001
0000
1000
0001
0000
0010
0100
0000
1000
,  // measure 21
0001
0000
0000
0010
0000
0000
1000
0000
0000
0010
0000
0000
0001
0000
0000
1000
0000
0001
1000
0000
0010
0100
0000
0001
,  // measure 22
0100
0000
0000
0010
0000
0000
1000
0000
0000
0001
0000
0000
1000
0000
0000
0100
0000
0010
0001
0000
1000
0010
0000
0100
,  // measure 23
0001
0000
0000
0100
0000
0000
1000
0000
0000
0001
0000
0000
1000
0000
0000
0100
0000
0001
1000
0000
0000
0001
0000
0000
,  // measure 24
1000
0100
0001
1000
0010
0001
0000
0000
,  // measure 25
2002
0000
0000
0000
3003
0000
0000
0000
0001
0000
0010
0100
1000
0000
0001
0000
,  // measure 26
0100
0000
0010
1000
0001
0000
1001
0000
1000
0000
0010
0100
0001
0000
0001
0000
,  // measure 27
1000
0000
1010
0000
1000
0000
1001
0000
0001
0010
1000
0010
0001
0000
0011
0000
,  // measure 28
0001
0000
0000
0100
0000
0000
1000
0000
0000
0100
0000
0000
0001
0000
0000
0000
0000
0000
0101
0000
0000
0000
0000
0000
0001
0000
0100
0000
0010
0000
1000
0000
0010
0000
0100
0000
0001
0000
0010
0000
0100
0000
1000
0000
0100
0000
0010
0000
,  // measure 29
0001
0000
0000
0000
0000
0000
0000
0000
0000
1000
0000
0000
0000
0000
0000
0000
0000
0000
1001
0000
0000
0000
0001
0000
1000
0000
0000
0000
1000
0000
0100
0000
0000
0000
0100
0000
0010
0000
0000
0000
0010
0000
0001
0000
0000
0000
0001
0000
,  // measure 30
1000
0000
0000
1001
0000
0000
0001
0000
0000
1000
0001
1000
0001
0000
0001
0100
0000
0100
0010
0000
0010
1000
0000
1000
,  // measure 31
0001
0000
0000
0000
0001
0000
1000
0000
0001
0000
1000
0000
0001
0000
0000
0000
0000
0000
1001
0000
0000
0000
0000
0000
1000
0000
0000
0000
0000
0000
0010
0000
0000
0100
0000
0000
0001
0000
0000
0000
0000
0000
1000
0000
0000
0000
0000
0000
,  // measure 32
0100
0010
0100
0010
0000
0000
0001
0000
0000
0010
0000
0000
0011
0000
0000
0000
0000
0000
1001
0000
0000
0000
0000
0000
,  // measure 33
1010
0110
0101
1001
1100
0000
0220
0000
,  // measure 34
0000
0330
1001
0000
,  // measure 35
0000
0000
0000
0000
0000
0000
0000
0000
0001
1000
0000
1000
0001
0000
0000
0100
0000
0000
0010
0000
0000
1000
0000
0000
,  // measure 36
0001
0000
0000
0010
0000
0010
0100
0000
0100
1000
0000
1000
0100
0000
0000
0010
0000
0000
0001
0000
0000
1000
0000
0000
,  // measure 37
0001
0000
0000
0100
0000
0100
0010
0000
0010
1000
0000
1000
0001
0000
0000
0010
0000
0000
1000
0000
0000
0010
0000
0000
,  // measure 38
0001
0000
0000
1001
0000
0000
0000
0000
0000
0001
0000
1000
0001
0000
0000
0010
0000
0000
0100
0000
0000
1000
0000
0000
,  // measure 39
0001
0000
0000
0100
0000
0010
1000
0000
0001
1000
0000
0001
0010
0000
0000
0100
0000
0000
1000
0000
0000
0001
0000
0000
,  // measure 40
1000
0000
0000
0001
0000
0100
0001
0000
1000
0001
0000
1000
0100
0000
0000
0010
0000
0000
0001
0000
0000
1000
0000
0000
,  // measure 41
0100
0000
0000
0010
0000
0001
0010
0000
0001
1000
0000
0010
1000
0000
0000
0010
0000
0000
0001
0000
0000
0010
0000
0000
,  // measure 42
1000
0000
0000
0000
0000
0000
1001
0000
0000
0000
0001
0000
1000
0000
0000
0000
0000
0000
1001
0000
0000
0000
0000
0000
0001
0000
0000
0000
0000
0000
1000
0000
0000
0010
0000
0000
0100
0000
0001
0000
0100
0000
0001
0000
0000
1000
0000
0000
,  // measure 43
0001
0000
0000
0010
0000
0000
0100
0000
0000
1000
0000
0000
0001
0000
0000
0000
0000
0000
1001
0000
0000
0000
0000
0000
1000
0000
0000
0000
0000
0000
0001
0000
0000
0010
0000
0000
0100
0000
1000
0000
0100
0000
1000
0000
0000
0100
0000
0000
,  // measure 44
1000
0000
0000
0010
0000
0000
0100
0000
0000
0001
0000
0000
1000
0000
0000
0000
0000
0000
1001
0000
0000
0000
0000
0000
0001
0000
0000
1000
0000
0000
0100
0000
0000
0010
0000
0000
0001
0000
1000
0000
0001
0000
1000
0000
0000
0001
0000
0000
,  // measure 45
1000
0010
0100
0001
0100
0010
1000
0001
1000
0000
1010
0000
0001
0000
1001
0000
,  // measure 46
0010
0000
0000
0000
0000
0000
0011
0000
0000
0000
0001
0000
1000
0000
0000
0000
0000
0000
1001
0000
0000
0000
0000
0000
1000
0000
0000
0000
0000
0000
0010
0000
0000
0100
0000
0000
0001
0000
0100
0000
0001
0000
0100
0000
0000
0001
0000
0000
,  // measure 47
1000
0000
0000
0100
0000
0000
1000
0000
0000
0100
0000
0000
1000
0000
0000
0000
0000
0000
1100
0000
0000
0000
0000
0000
0100
0000
0000
0000
0000
0000
0010
0000
0000
0001
0000
0000
1000
0000
0100
0000
1000
0000
0100
0000
0000
0010
0000
0000
,  // measure 48
0001
0100
0001
0100
0001
0000
0101
0000
0001
0100
0010
0100
1000
0100
0010
0100
,  // measure 49
0001
0000
0000
0010
0000
0000
0100
0000
0000
0010
0000
0000
1000
0000
0000
0010
0000
0000
0100
0000
0000
0010
0000
0000
0001
0000
0000
0000
0000
0000
0011
0000
0000
0000
0010
0000
0001
0000
0000
0000
0000
0000
1001
0000
0000
0000
1000
0000
,  // measure 50
0010
0000
0000
0100
0000
0000
0001
0000
0000
1000
0000
0100
1000
0000
0000
1100
0000
0000
0001
0000
0000
1001
0000
0000
,  // measure 51
0100
0101
0000
0000
0000
0000
0000
0000
;
