#TITLE:Clap Snap;
#SUBTITLE:;
#ARTIST:Icona Pop;
#TITLETRANSLIT:;
#SUBTITLETRANSLIT:;
#ARTISTTRANSLIT:;
#GENRE:;
#CREDIT:;
#BANNER:;
#BACKGROUND:;
#LYRICSPATH:;
#CDTITLE:;
#MUSIC:Clap Snap.ogg;
#OFFSET:-0.384470;
#SAMPLESTART:22.004410;
#SAMPLELENGTH:12.000000;
#SELECTABLE:YES;
#BPMS:0.000000=130.000000
;
#STOPS:
;
#BGCHANGES:;
#KEYSOUNDS:;
#ATTACKS:;

//---------------dance-single - ----------------
#NOTES:
     dance-single:
     :
     Beginner:
     1:
     0.101233,0.105878,0.016674,0.000000,0.000000,83.000000,2.000000,0.000000,0.000000,0.000000,0.000000,0.101233,0.105878,0.016674,0.000000,0.000000,83.000000,2.000000,0.000000,0.000000,0.000000,0.000000:
0000
0000
0000
0000
,
0000
0000
0000
0000
,
0000
0000
0000
0000
,
0000
0000
0000
0000
,
1000
0000
1000
0000
,
0001
0000
0001
0000
,
0100
0000
0100
0000
,
0010
0000
0010
0000
,
1000
0000
1000
0000
,
0100
0000
0100
0000
,
0010
0000
0010
0000
,
0001
0000
0000
1000
,
1000
0000
0000
0010
,
0010
0000
0000
0100
,
0100
0000
0000
0001
,
0001
0000
0000
1000
,
1000
0000
0100
0000
,
1000
0000
0001
0000
,
1001
0000
0000
0000
,
0000
0000
0000
0000
,
1000
0000
0000
0000
,
0000
0000
0000
0000
,
0001
0000
0000
0000
,
0000
0000
0000
0100
,
0100
0000
0000
0000
,
0000
0000
0000
0000
,
0010
0000
0000
0000
,
0000
0000
0000
0000
,
1000
0000
1000
0000
,
1000
0000
0000
0000
,
0001
0000
0001
0000
,
0001
0000
0000
0000
,
0100
0000
0100
0000
,
0100
0000
0000
0000
,
0010
0000
0010
0000
,
0010
0000
0000
0000
,
1000
0000
0000
0000
,
0100
0000
0000
0000
,
0010
0000
0000
0000
,
0001
0000
0000
0000
,
1000
0000
1000
0000
,
0010
0000
0000
0000
,
0100
0000
0100
0000
,
0001
0000
0000
0000
,
0010
0000
0010
0000
,
0100
0000
0000
0000
,
1000
0000
0000
0000
,
0001
0000
0000
0100
,
0100
0000
0000
0010
,
0010
0000
0000
1000
,
1000
0000
0000
0001
,
0001
0000
0000
0010
,
0010
0000
0100
0000
,
0010
0000
0100
0000
,
1001
0000
0000
0000
,
0100
0000
0000
0000
,
0001
0000
0000
0000
,
0000
0000
0000
0000
,
0010
0000
0000
0000
,
0000
0000
0000
0100
,
0100
0000
0000
0000
,
0000
0000
0000
0000
,
1000
0000
0000
0000
,
0000
0001
0001
0000
;

//---------------dance-single - ----------------
#NOTES:
     dance-single:
     :
     Easy:
     3:
     0.204849,0.212590,0.075032,0.016674,0.000000,161.000000,9.000000,2.000000,0.000000,0.000000,0.000000,0.204849,0.212590,0.075032,0.016674,0.000000,161.000000,9.000000,2.000000,0.000000,0.000000,0.000000:
0000
0000
0000
0000
,
0000
0000
0000
0000
,
0000
0000
0000
0000
,
0000
0000
0000
0000
,
1000
1000
1000
0000
,
0001
0001
0001
0000
,
1000
0001
0100
0100
,
0001
1000
0100
0000
,
1000
0001
0010
0000
,
0001
1000
0010
0000
,
1000
0010
0100
0001
,
0010
0100
1000
0001
,
0001
0000
0000
1000
,
1000
0000
0000
0010
,
0010
0000
0000
0100
,
0100
0000
0000
0001
,
0001
0000
0010
0000
,
0100
0000
1000
0000
,
1001
0000
0000
0000
,
0000
0000
0000
0000
,
0001
0000
1000
0000
,
0001
0100
0010
0000
,
1000
0000
0001
0000
,
1000
0100
0010
0100
,
1000
0000
0001
0000
,
1000
0010
0100
0000
,
0010
0000
1000
0000
,
0001
0010
0100
0010
,
0001
0001
0100
0100
,
0010
0010
1000
0000
,
0001
0010
0100
1000
,
0010
0100
0001
0000
,
1000
1000
0100
0100
,
0010
0010
0001
0000
,
1000
0010
0100
0001
,
0010
0100
1000
0000
,
0001
0000
0001
0000
,
1000
0000
1000
0000
,
0010
0000
0010
0000
,
0100
0000
0100
0000
,
0001
0001
0001
0000
,
1000
1000
1000
0000
,
0100
0010
0100
1000
,
0010
0100
0001
0000
,
1000
0100
1100
0000
,
0001
0100
0101
0000
,
1000
0010
0100
0001
,
0010
0100
1000
0010
,
0010
0000
0000
0100
,
0100
0000
0000
0001
,
0001
0000
0000
1000
,
1000
0000
0000
0001
,
0001
0000
0010
0000
,
0100
1000
0010
0000
,
0100
0000
0000
0000
,
2002
0000
0000
3003
,
1001
0000
0001
0000
,
1000
0100
0010
0000
,
1001
0000
1000
0000
,
0001
0100
0010
0010
,
1001
0000
1000
0000
,
0001
0010
0100
0000
,
1001
0000
1000
0000
,
0000
0001
0100
1010
;

//---------------dance-single - ----------------
#NOTES:
     dance-single:
     :
     Medium:
     5:
     0.329902,0.318886,0.183411,0.133390,0.000000,239.000000,22.000000,16.000000,0.000000,0.000000,0.000000,0.329902,0.318886,0.183411,0.133390,0.000000,239.000000,22.000000,16.000000,0.000000,0.000000,0.000000:
0000
0000
0000
0000
,
0000
0000
0000
0000
,
0000
0000
0000
0000
,
0000
0000
0000
0000
,
1000
0000
1000
0000
1000
0000
0000
0001
,
0100
0000
0100
0000
0100
0000
0000
0001
,
1000
1000
0010
0010
,
0100
0000
0100
0000
0100
0000
0000
0001
,
0010
0000
0010
0000
0010
0000
0000
0100
,
1000
1000
1000
0001
,
0100
0010
0010
0100
,
0010
0100
0010
1000
,
1100
0001
0001
0010
,
0011
0010
0010
0100
,
1100
1000
1000
0010
,
0110
0100
0100
0001
,
0011
0000
1100
0000
,
2000
0010
3002
0100
,
2000
0000
0000
3003
,
1000
0001
1000
0001
,
1100
0000
0001
0100
0010
0000
0100
0000
,
0001
0010
0100
0010
,
0011
0000
0001
1000
0010
0000
0100
0000
,
0010
1000
0100
0000
0010
0000
0100
0000
,
1001
0000
0001
0100
0010
0000
0100
0000
,
0001
1000
0100
0000
1000
0000
0010
0000
,
0110
0000
0010
0100
0001
0000
0010
0000
,
0100
0010
0001
0000
1000
0000
0010
0000
,
2000
0100
0010
0001
,
0010
0100
0010
3001
,
1000
0000
0010
0000
0100
0001
0001
0000
,
0001
0000
0010
0000
0100
1000
1000
0000
,
0002
0010
0100
1000
,
0100
0010
0100
1003
,
0001
0000
0100
0000
0010
1000
1000
0000
,
1000
0000
0100
0000
0010
0001
0001
0000
,
1000
0100
0020
0030
,
0001
0100
0020
0030
,
1000
0010
0200
0300
,
0001
0010
0200
0300
,
1000
0000
1000
0000
1000
0000
0000
0100
,
0010
0000
0010
0000
0010
0000
0000
0001
,
0100
0100
0010
0010
,
1000
0000
1000
0000
1000
0000
0000
0001
,
0010
0000
0010
0000
0010
0000
0000
0100
,
1000
0000
1000
0000
1000
0000
0010
0010
,
0100
0001
0010
0100
,
0001
0100
1000
0010
,
0010
1001
1001
0100
,
0100
1001
1001
1000
,
1000
1100
1100
0001
,
0001
0101
0101
0001
,
0002
0100
2003
0100
,
3002
0010
2003
0010
,
0002
0000
0000
3003
,
0200
0000
0000
0300
,
1001
0000
0001
0010
0100
0000
0100
0000
,
1000
0010
0100
0010
,
1001
0000
1000
0010
0100
0000
0100
0000
,
0010
0000
0100
0000
0001
0010
0100
0000
,
1001
0000
0001
1000
0010
0000
1000
0000
,
0001
0100
0010
0010
,
1001
0000
0001
0010
0100
0000
0020
0000
,
0000
0000
0000
0031
;

//---------------dance-single - ----------------
#NOTES:
     dance-single:
     :
     Hard:
     7:
     0.441854,0.481142,0.358486,0.083369,0.037516,318.000000,43.000000,10.000000,0.000000,0.000000,0.000000,0.441854,0.481142,0.358486,0.083369,0.037516,318.000000,43.000000,10.000000,0.000000,0.000000,0.000000:
// measure 0
0000
0000
0000
0000
,  // measure 1
0000
0000
0000
0000
,  // measure 2
0000
0000
0000
0000
,  // measure 3
0000
0000
0000
0000
,  // measure 4
1000
0000
1000
0000
1000
0000
0001
0100
,  // measure 5
0010
0000
0010
0000
0010
0000
0100
0001
,  // measure 6
0010
0100
1000
0010
0100
0010
1000
0100
,  // measure 7
0010
0000
0010
0000
0010
0000
0001
1000
,  // measure 8
0010
0000
0010
0000
0010
0000
1000
0001
,  // measure 9
0010
0000
0010
0000
0010
0000
0001
1000
,  // measure 10
0020
0100
1000
0100
,  // measure 11
1030
0000
0100
0000
0010
0000
0001
0000
0100
0000
0010
0000
1000
0100
1000
0000
,  // measure 12
0010
1100
1100
0010
,  // measure 13
0010
0101
1001
0100
,  // measure 14
0100
1010
1010
0100
,  // measure 15
0100
0011
1001
0100
,  // measure 16
1000
1100
0001
0101
,  // measure 17
1000
1010
0001
0011
,  // measure 18
2002
0000
0000
3003
,  // measure 19
1000
0000
1000
0000
0001
0000
0001
0000
0100
0000
0100
0000
0010
0100
0010
0000
,  // measure 20
1001
0000
0001
0010
0100
0000
0100
0000
,  // measure 21
0010
0001
1000
0000
0001
0000
1000
0000
,  // measure 22
1001
0000
1000
0100
0010
0000
0010
0000
,  // measure 23
0100
0000
1000
0000
0001
0000
0000
0000
1000
0000
0010
0000
0100
0001
0100
0000
,  // measure 24
1001
0000
1000
0100
0010
0000
0010
0000
,  // measure 25
0100
1000
0010
0000
0100
0000
0010
0000
,  // measure 26
1001
0000
0001
0010
0100
0000
0100
0000
,  // measure 27
0010
0000
0001
0000
0100
0000
0000
0000
0010
0000
0100
0000
0001
0010
0100
0000
,  // measure 28
2001
0100
0010
0001
,  // measure 29
0010
0100
0010
3001
,  // measure 30
1000
0010
0000
0100
1000
0100
0001
0000
,  // measure 31
0001
0010
0000
0100
0001
0100
1000
0000
,  // measure 32
1002
0010
0100
1000
,  // measure 33
0100
0010
0100
1003
,  // measure 34
1000
0100
0000
0001
0100
1000
0001
0000
,  // measure 35
0001
0100
0000
1000
0100
0001
1000
0000
,  // measure 36
1001
0001
0010
0100
1000
0100
0010
0000
,  // measure 37
1001
1000
0010
0100
0001
0100
0010
0000
,  // measure 38
1010
0010
0100
0001
0010
0100
1000
0000
,  // measure 39
0011
0000
0010
0000
0100
0000
1000
0000
0010
0000
0100
0000
0001
1000
0001
0000
,  // measure 40
1001
0000
1000
0000
1000
0000
0001
0100
,  // measure 41
0010
0000
0010
0000
0010
0000
0100
0001
,  // measure 42
0010
0100
1000
0100
0010
0100
1000
0010
,  // measure 43
0100
0000
0100
0000
0100
0000
0010
1000
,  // measure 44
1100
0000
0001
0000
0001
0000
0010
0001
,  // measure 45
0101
1000
1000
0000
0001
0000
1000
0010
,  // measure 46
0200
1000
0001
0301
,  // measure 47
1000
0000
0100
0000
0001
0000
0100
0000
1000
0000
0100
0000
0010
0100
1000
0000
,  // measure 48
0010
1010
1010
0001
,  // measure 49
0001
0011
1001
1000
,  // measure 50
0100
1100
1100
1000
,  // measure 51
0001
0101
1001
0001
,  // measure 52
0100
1010
0100
0011
,  // measure 53
0010
1100
0010
0101
,  // measure 54
2002
0000
0000
3003
,  // measure 55
1000
0000
0100
0000
0010
0000
0001
0000
0100
0000
0010
0000
0001
0010
0100
0000
,  // measure 56
1001
0000
1000
0100
0010
0000
0010
0000
,  // measure 57
0100
1000
0001
0000
0100
0000
0010
0000
,  // measure 58
1001
0000
0001
0100
0010
0000
0010
0000
,  // measure 59
0100
0000
0001
0000
1000
0000
0000
0000
0001
0000
0010
0000
0100
0010
0100
0000
,  // measure 60
1001
0000
1000
0010
0100
0000
0010
0000
,  // measure 61
0100
0001
1000
0000
0001
0000
0010
0000
,  // measure 62
0110
0000
0010
0001
0100
0000
0020
0000
,  // measure 63
0000
0000
0000
0000
0000
0000
0000
0000
0000
0000
0000
0000
1030
0100
0020
0000
,  // measure 64
0000
0030
0000
0000
0000
0000
0000
0000
;
