#TITLE:Arabian Rave Night;
#SUBTITLE:;
#ARTIST:dj MAX STEROID;
#TITLETRANSLIT:;
#SUBTITLETRANSLIT:;
#ARTISTTRANSLIT:;
#GENRE:;
#CREDIT:;
#MENUCOLOR:;
#METERTYPE:DDR;
#BANNER:[Round 1] - Arabian Rave Night.png;
#BACKGROUND:[Round 1] - Arabian Rave Night-bg.png;
#LYRICSPATH:;
#CDTITLE:./CDTITLES/BEATMANIA IIDX.PNG;
#MUSIC:[Round 1] - Arabian Rave Night.ogg;
#OFFSET:0.000;
#SAMPLESTART:12.000;
#SAMPLELENGTH:15.000;
#SELECTABLE:YES;
#LISTSORT:;
#BPMS:0.000=180.000,196.000=90.000,212.000=180.000;
#STOPS:;
#BGCHANGES:0.000=[Round 1] - Arabian Rave Night.avi=1.000=0=0=0,
99999=-nosongbg-=1.000=0=0=0 // don't automatically add -songbackground-
;
#ATTACKS:;

//---------------dance-single - ----------------
#NOTES:
     dance-single:
     :
     Beginner:
     2:
     0.114,0.137,0.024,0.000,0.000:
0000
0000
0000
0000
,
0000
0000
0000
0000
,
0000
0000
0000
0000
,
0000
0000
0000
0000
,
0000
0000
0000
0000
,
0010
0000
0000
0000
,
0100
0000
0000
0000
,
0001
0000
0000
0000
,
1000
0000
1000
0000
,
1000
0000
0000
0000
,
0001
0000
0000
0000
,
0100
0000
0000
0000
,
0010
0000
0000
0000
,
1000
0000
0000
0000
,
0100
0000
0000
0000
,
0010
0000
0000
0000
,
0001
0000
0000
0000
,
0010
0000
0010
0000
,
0010
0000
0000
0000
,
0100
0000
0100
0000
,
0100
0000
0000
0000
,
1000
0000
1000
0000
,
1000
0000
0000
0000
,
0001
0000
0001
0000
,
0001
0000
0000
0000
,
1000
0000
0000
0000
,
0010
0000
0000
0000
,
0100
0000
0000
0000
,
0001
0000
0000
0000
,
1000
0000
0000
0000
,
0100
0000
0000
0000
,
0010
0000
0000
0000
,
0001
0000
0000
0000
,
1001
0000
0000
0000
,
0010
0000
0000
0000
,
0100
0000
0000
0000
,
0001
0000
0000
0000
,
1000
0000
0000
0000
,
0001
0000
0000
0000
,
0010
0000
0000
0000
,
0110
0000
0000
0000
,
1000
0000
0000
0000
,
0001
0000
0000
0000
,
0100
0000
0000
0000
,
0010
0000
0000
0000
,
1000
0000
0000
0000
,
0001
0000
0000
0000
,
1000
0000
0000
0000
,
0001
0000
0000
0000
,
0010
0000
0000
0000
,
0100
0000
0000
0000
,
1000
0000
0001
0000
,
1000
0000
0010
0000
,
0100
0000
0000
0000
,
0000
0000
0000
0000
,
0010
0000
0010
0000
,
0010
0000
0000
0000
,
0110
0000
0000
0000
,
0100
0000
0000
0000
,
0001
0000
0000
0000
,
1000
0000
0001
0000
,
1000
0000
0000
0000
,
0100
0000
0000
0000
,
0010
0000
0000
0000
,
0001
0000
1000
0000
,
0001
0000
0000
0000
,
1000
0000
0000
0000
,
0010
0000
0000
0000
,
0100
0000
0010
0000
,
0100
0000
0000
0000
,
0010
0000
0000
0000
,
1000
0000
0000
0000
,
0010
0000
0100
0000
,
0010
0000
0000
0000
,
1000
0000
0000
0000
,
0001
0000
0000
0000
,
0010
0000
0000
0000
,
0100
0000
0000
0000
,
1000
0000
0000
0000
,
0100
0000
0000
0000
,
0010
0000
0010
0000
,
0010
0000
0000
0000
,
0100
0000
0000
0000
,
0001
0000
1000
0000
,
0001
0000
0001
0001
,
0001
0000
0000
0000
;

//---------------dance-single - ----------------
#NOTES:
     dance-single:
     :
     Easy:
     5:
     0.302,0.411,0.097,0.169,0.000:
0000
0000
0000
0000
,
0000
0000
0000
0000
,
0000
0000
0000
0000
,
0000
0000
0000
0000
,
0000
0000
0000
0000
,
0010
0000
0010
0000
,
0100
0000
0100
0000
,
0001
0000
0000
0000
,
1000
0000
0001
1000
,
1001
0000
0010
0000
,
1000
0000
0001
0000
,
1000
0000
0100
0000
,
0010
0000
0200
0300
,
1000
0000
0010
0000
,
0100
0000
0001
0000
,
1000
0000
0100
0000
,
1000
1000
0001
0001
,
1000
0010
1000
0000
,
0001
0010
0001
0000
,
1000
0100
1000
0000
,
0001
0100
0010
0100
,
0001
0010
0001
0000
,
1000
0100
1000
0000
,
0001
0000
0000
0000
,
1001
0000
0000
0110
0000
0000
1001
0000
,
0010
1000
0010
1000
,
0001
0100
0001
0100
,
0010
1000
0010
1000
,
0001
0100
0001
0100
,
0001
0010
0001
0010
,
0100
1000
0100
1000
,
0001
0010
0100
1000
,
0001
0000
0000
0000
,
1000
0010
1000
1000
,
0020
0000
0000
0030
,
1000
0002
0000
1003
,
0200
0000
0000
0300
,
0020
0000
0031
0010
,
0200
0000
0000
0300
,
1000
1000
0001
0001
,
0220
0000
0000
0330
,
0010
0000
0010
0000
,
1000
0100
1000
0000
,
0010
0000
0010
0000
,
0100
0001
0100
0000
,
0001
0000
0001
0000
,
0010
0100
0010
0000
,
0001
0000
1000
0000
,
0010
0010
0120
0000
,
1030
0000
0002
0003
,
0010
0000
0200
0300
,
2000
3010
0002
0103
,
0002
0013
2000
3100
,
1001
0000
0000
0000
,
0010
0000
0000
0100
,
0100
0000
0010
0000
,
1000
0001
1000
1001
,
0010
0000
0100
0000
,
1000
0100
0010
0001
,
1000
1000
0010
0000
,
1000
0010
0100
0001
,
1000
0000
0001
0000
,
0010
0010
0100
1000
,
0010
0000
0100
0000
,
0001
0001
0010
0100
,
0010
0000
0001
0000
,
1000
1000
0100
0010
,
0001
0000
1000
0000
,
0001
0001
0001
0000
0110
0000
0000
0000
,
0010
0000
0100
0000
,
0010
0010
1000
0001
,
1000
0000
0100
0000
,
1000
1000
0010
0100
,
1002
0010
0000
0013
,
2000
0010
0000
3010
,
0002
0100
0000
0103
,
2000
0100
0000
3100
,
0020
0100
1000
0130
,
2000
0001
0010
3001
,
0100
0000
0010
0010
0010
0000
1000
1000
,
1000
0001
1000
0001
,
1001
0000
0000
0010
,
0010
0000
0000
1000
,
1000
0001
0010
0100
,
1000
0100
0001
0100
,
1001
0000
0000
0000
;

//---------------dance-single - ----------------
#NOTES:
     dance-single:
     :
     Medium:
     7:
     0.492,0.583,0.218,0.226,0.044:
0000
0000
0000
0000
,
0000
0000
0000
0000
,
0000
0000
0000
0000
,
0000
0000
0000
0000
,
0000
0000
0000
0000
,
0001
0010
0100
1000
,
0001
0100
0010
1000
,
0010
0000
0010
0000
,
1000
0100
0010
1001
,
0010
0000
1000
0100
0000
0000
1000
0000
,
0001
0000
0100
0001
0000
0000
0010
0000
,
0001
0000
1000
0001
0000
0000
1000
0000
,
0010
0100
0000
0100
0020
0000
0030
0000
,
1000
0000
0100
1000
0000
0000
0100
0000
,
0010
0001
1000
0010
,
0100
0001
1000
0000
0001
1000
0010
0000
,
1000
0000
0001
0000
0100
0010
0100
0010
,
1000
0000
0100
0000
1000
0010
0000
0010
,
1000
0001
0100
0010
,
1000
0001
0010
0000
0001
1000
0100
0000
,
2000
0000
0001
3001
,
1000
0000
0010
0100
0000
0000
0010
0000
,
1000
0000
0100
0010
0000
0000
0001
0000
,
2000
0000
0000
3001
,
1000
0000
0000
0010
0000
0000
0100
0000
0000
0001
0000
0000
1000
0000
0100
0000
,
1000
0000
0100
0000
1000
0010
1000
0000
,
0001
0000
0100
0000
0001
0010
0001
0000
,
1000
0001
1000
0000
0010
0000
0100
0000
,
0001
0000
0010
0000
0100
1000
0100
0000
,
1000
0010
0100
0000
0010
1000
0100
0000
,
1000
0000
0100
0000
0010
0001
0100
0000
,
0001
0010
0100
0000
0100
0000
0100
1000
,
0020
0000
0000
1030
,
1001
1010
1001
0011
,
2200
0000
0000
3300
,
1010
0220
0330
1010
,
2002
0000
0000
3003
,
0022
0033
0110
1100
,
0220
0000
0000
0330
,
1001
0000
0110
0000
0001
1000
0001
1000
,
0020
0000
0000
0030
,
1000
0100
1000
0000
,
0001
0000
1000
0000
0001
0000
0000
0001
0000
0000
0000
0000
1000
0000
0000
0000
,
0010
0100
0010
0000
,
0100
0000
0001
0000
0100
0000
0000
0100
0000
0000
0000
0000
0010
0000
0000
0000
,
1000
0000
0100
0000
1000
0000
0000
0001
0000
0000
0000
0000
1000
0000
0000
0000
,
0010
0000
1000
0000
0010
0000
0000
0100
0000
0000
0000
0000
0010
0000
0000
0000
,
1000
0000
0100
0000
0010
0000
0000
0100
0000
0000
0000
0000
1000
0000
0000
0000
,
0001
0100
0001
1000
0000
0000
0220
0000
0000
0330
0000
0000
,
0020
1030
0002
0013
,
2000
3100
0002
0103
,
2000
0000
0100
3010
0002
0000
0010
0103
,
2000
0000
0000
3001
0200
0000
0310
0000
2000
0000
0000
3001
0020
0000
0130
0000
,
0010
0000
0000
0000
0000
0001
1000
0001
,
1000
0000
0000
0000
0000
0010
0100
0010
,
0100
0000
0000
0100
0010
0000
0000
0010
,
1000
0001
1000
1001
,
0011
0000
1000
0100
0000
0100
0010
0000
,
0100
1000
0100
0000
1000
0000
1000
0000
,
1010
0000
0100
0001
0100
0000
0100
0000
,
0010
1000
0010
1000
0001
0000
1000
0000
,
0001
0000
0010
0000
0100
1000
0100
0010
,
0000
0010
0100
1000
0100
0000
1000
0000
,
0010
0000
0100
0000
0001
0100
0010
0100
,
0000
0100
0001
0100
0010
0000
1000
0000
,
0001
0000
0010
0000
0001
0010
0100
1000
,
0000
1000
0100
0010
0001
0000
1000
0000
,
0010
0000
1000
0000
0010
1000
0010
1000
,
0001
0001
0001
0001
1000
0000
0001
0000
,
1000
0000
0100
0000
1000
0010
0100
0001
,
0000
0001
0100
0010
1000
0000
0010
0000
,
1000
0000
0001
0000
0100
0010
1000
0001
,
0000
1100
0000
1001
0000
0010
0100
0010
,
0100
0001
0100
0000
0001
0010
0001
0000
,
0100
0010
0100
0000
0010
1000
0010
0000
,
1000
0100
1000
0000
0001
0010
0001
0000
,
1000
0100
0001
0000
0001
0100
1000
0000
,
0010
1000
0100
0000
0010
0001
0100
0000
,
0010
1000
0001
0000
0010
0001
1000
0000
,
0101
0000
0010
0010
2000
0000
3001
0001
,
0010
0000
0100
0000
0110
0000
0001
1000
,
0010
0000
0000
0000
0000
1000
0100
1000
,
0100
1000
0000
0000
0000
0001
0100
0001
,
0100
0000
0010
0100
0001
0000
0010
0100
,
1000
1001
0001
1001
,
0110
0000
0000
0000
;

//---------------dance-single - ----------------
#NOTES:
     dance-single:
     :
     Hard:
     9:
     0.673,0.891,0.331,0.153,0.226: // measure 1
0000
0000
0000
0000
,  // measure 2
0000
0000
0000
0000
,  // measure 3
0000
0000
0000
0000
,  // measure 4
0000
0000
0000
0000
,  // measure 5
0000
0000
0000
0000
,  // measure 6
0001
0100
1000
0100
,  // measure 7
0001
0010
0100
1000
,  // measure 8
1000
0100
0001
0100
,  // measure 9
1000
0010
0100
1001
,  // measure 10
1010
0000
0001
0100
0000
0001
0010
0100
,  // measure 11
1000
0000
0010
1000
0000
0001
1000
0100
,  // measure 12
0010
0000
0100
1000
0000
0010
1000
0001
,  // measure 13
0100
0001
0000
0001
2000
0000
3010
0000
,  // measure 14
1000
0000
0100
1000
0000
0001
0010
0100
,  // measure 15
0010
0000
0001
0100
0000
0010
1000
0000
,  // measure 16
0010
0100
0001
0000
0100
0010
1000
0000
,  // measure 17
0001
0010
0100
0000
1000
0001
1000
1000
,  // measure 18
0010
1000
0100
0000
1000
0010
0000
0010
,  // measure 19
0100
0001
0010
0000
0001
0010
0000
0010
,  // measure 20
0100
1000
0001
0000
1000
0010
1000
0000
,  // measure 21
0001
1000
0100
0000
1000
0001
0010
0001
,  // measure 22
1000
0001
0100
0000
0001
0100
0000
0100
,  // measure 23
0010
0100
0001
0000
0010
0100
0000
0100
,  // measure 24
1000
0110
0000
0001
,  // measure 25
1001
0000
0000
1001
0000
0000
0101
0000
0000
1100
0000
0000
0001
0000
0010
0000
,  // measure 26
0001
0100
0001
0100
1000
0100
0001
0010
,  // measure 27
0001
0100
0001
0100
1000
0100
0001
0010
,  // measure 28
0001
1000
0001
1000
0010
0100
0010
1000
,  // measure 29
0100
0010
0100
1000
0001
0100
0010
0000
,  // measure 30
1000
0100
1000
0100
0001
0100
1000
0010
,  // measure 31
1000
0100
1000
0100
0001
0100
1000
0010
,  // measure 32
1000
0100
0001
0100
1000
0010
0001
0010
,  // measure 33
2000
0001
0000
3001
,  // measure 34
1001
0110
1001
0101
,  // measure 35
1100
0000
1100
0000
0011
0000
0001
0010
,  // measure 36
0100
0011
1001
0101
,  // measure 37
1010
0000
0001
1000
0000
1000
0001
0100
,  // measure 38
0010
0110
1001
0101
,  // measure 39
1100
0000
0011
0000
1001
0000
1000
0010
,  // measure 40
0100
0100
0010
0010
1000
1000
0001
0001
,  // measure 41
2002
0000
0000
3003
,  // measure 42
1000
0000
0000
0000
0200
0000
0000
1300
0000
0000
0001
0000
0100
0000
0001
0000
,  // measure 43
0010
0000
0010
0000
0002
0000
0000
1003
0000
0000
0001
0000
1000
0000
0001
0000
,  // measure 44
0100
0000
0000
0000
0020
0000
0000
1030
0000
0000
0001
0000
0010
0000
0001
0000
,  // measure 45
1000
0000
0010
0000
0200
0000
0000
0310
0000
0000
1000
0000
0100
0000
0010
0000
,  // measure 46
0100
0000
1000
0000
0100
0000
0000
1100
0000
0000
1000
0000
0010
0000
0100
0000
,  // measure 47
0001
0000
0001
0000
0010
0000
0000
0011
0000
0000
0001
0000
1000
0000
0010
0000
,  // measure 48
1000
0000
0001
0000
0100
0000
0000
0110
0000
0000
0010
0000
1000
0000
0001
0000
,  // measure 49
1000
0100
1000
0001
0100
0001
2000
0000
0000
0000
0000
0000
,  // measure 50
3010
0000
0000
1000
0100
2000
0000
0000
3010
0000
0100
0002
0000
0013
0001
0010
,  // measure 51
0100
0000
0000
1000
0010
0200
0000
0000
0310
0000
1000
0002
0000
0013
0001
1000
,  // measure 52
0020
0000
0000
0000
0130
0002
0000
0000
2003
0000
3001
0020
0000
0031
0100
0010
,  // measure 53
0100
0000
0010
1000
0100
0000
1000
0000
0001
0000
1000
0001
0100
0000
0010
0000
,  // measure 54
0110
0000
0000
0000
0000
0000
0000
0000
0000
0000
0000
0010
1000
0000
0010
0000
,  // measure 55
0100
0000
0001
0000
0000
0000
0000
0000
0000
0000
0000
1000
0100
0000
1000
0000
,  // measure 56
0001
0000
0000
0001
0100
0000
0001
0000
0010
0000
0000
0010
0001
0000
1000
0000
,  // measure 57
0001
0100
1000
0100
0001
0010
1000
0010
,  // measure 58
1001
0000
0010
0100
0000
0100
0001
0010
,  // measure 59
0001
0100
0001
0100
1000
0100
1000
0100
,  // measure 60
0001
0000
0000
0001
0010
0000
0100
0000
1000
0000
0100
0000
1000
0000
0100
0000
,  // measure 61
0000
1000
0010
0100
0001
1000
0001
0000
,  // measure 62
1100
0000
0000
0100
1000
0000
0100
0000
1000
0000
0010
0000
0100
0000
0010
0000
,  // measure 63
0000
0010
1000
0001
0100
0001
0010
0001
,  // measure 64
0100
0000
0000
0100
0001
0000
1000
0000
0001
0000
0010
0000
0100
0000
0010
0000
,  // measure 65
0000
0010
0001
1000
0001
0100
0010
0000
,  // measure 66
1000
0000
0000
1000
0100
0000
0010
0000
0100
0000
1000
0000
0100
0000
0001
0000
,  // measure 67
0000
0100
1000
0010
0001
0010
0100
0000
,  // measure 68
0010
0000
0000
0010
1000
0000
0001
0000
0010
0000
0100
0000
1000
0000
0100
0000
,  // measure 69
1001
0000
1001
0000
1001
0000
1001
0000
0010
0100
0010
0100
0010
0000
0000
0000
,  // measure 70
1000
0000
0000
1000
0010
0000
0100
0000
0001
0000
0010
0000
1000
0000
0010
0000
,  // measure 71
0000
0010
0001
0100
0010
1000
0100
0010
,  // measure 72
0100
0000
0000
0100
1000
0000
0001
0000
0100
0000
0010
0000
0100
0000
0001
0000
,  // measure 73
0000
1001
0000
0110
0010
0010
0100
0100
,  // measure 74
0001
0000
0010
0000
0001
0000
0010
0000
1000
0000
0010
0000
0001
0000
0000
1000
,  // measure 75
0100
0000
1000
0000
0100
0000
1000
0000
0001
0000
0010
0000
1000
0000
0000
0010
,  // measure 76
0001
0000
0100
0000
0001
0000
0100
0000
1000
0000
0100
0000
0001
0000
0000
1000
,  // measure 77
0100
0000
1000
0000
0100
0000
0010
0000
0001
0000
0000
1001
0000
0000
0110
0000
,  // measure 78
0020
0000
1000
0000
0100
0000
1030
0001
,  // measure 79
0200
0000
0001
0000
0010
0000
0301
1000
,  // measure 80
0001
0000
0001
0000
1000
0001
1000
0001
1000
0000
1000
0000
0001
1000
0001
1000
,  // measure 81
0010
0000
0000
0000
0100
0000
0000
0000
0110
0000
0000
0010
0100
0000
0001
0000
,  // measure 82
1000
0000
0000
0000
0000
0000
0000
0000
0000
0000
0000
0001
0100
0000
0001
0000
,  // measure 83
0010
0000
0001
0000
0000
0000
0000
0000
0000
0000
0000
1000
0100
0000
1000
0000
,  // measure 84
0010
1000
0100
0001
0100
1000
0010
0100
,  // measure 85
0010
0000
0000
0010
1000
0000
0000
1000
0001
0000
0000
0001
0100
0000
0001
0000
,  // measure 86
1001
0000
0000
0000
;

//---------------dance-single - ----------------
#NOTES:
     dance-single:
     :
     Challenge:
     10:
     0.912,1.000,0.298,0.105,0.871: // measure 1
0000
0000
0000
0000
,  // measure 2
0000
0000
0000
0000
,  // measure 3
0000
0000
0000
0000
,  // measure 4
0000
0000
0000
0000
,  // measure 5
0000
0000
0000
0000
,  // measure 6
0001
0000
0100
0000
0001
0000
0010
0000
0001
0000
0100
0001
0100
0000
0001
0000
,  // measure 7
1000
0000
0100
0000
1000
0000
0010
0000
1000
0000
0100
1000
0100
0000
1000
0000
,  // measure 8
0001
0000
0100
0001
1000
0000
0001
0000
0010
0000
0100
1000
0001
0000
1000
0100
,  // measure 9
0010
0100
0010
0100
1000
0000
0000
0000
0010
0100
0010
0100
0001
0000
1000
0000
,  // measure 10
1010
0000
0000
0000
0100
0000
0001
0000
0000
0000
1000
0000
0100
0000
0010
0100
,  // measure 11
1000
0000
0001
0000
0000
0000
0010
0000
0001
0000
0100
0000
0010
0100
0000
0000
,  // measure 12
0101
0000
0000
0000
0010
0000
1000
0000
0000
0000
0001
0010
0100
0000
0010
0000
,  // measure 13
0001
1000
0000
1000
0020
0000
1030
0000
,  // measure 14
1100
0000
0000
0000
0010
0000
0001
0000
0000
0000
1000
0000
0100
0000
0010
0100
,  // measure 15
1000
0000
0010
0000
0000
0000
0100
0000
0001
0000
1000
0000
0001
0010
0000
0001
,  // measure 16
0100
0001
0010
0000
0100
1000
0010
0000
,  // measure 17
0100
0000
0100
0000
0010
0000
0100
0000
1001
0000
0010
0000
0100
1000
0100
1000
,  // measure 18
0010
0000
0100
0001
0100
0000
0010
0000
1000
0010
0000
1000
0001
0000
1000
0000
,  // measure 19
0100
0000
1000
0010
1000
0000
0001
0000
0100
0001
0000
0010
0001
0000
1000
0000
,  // measure 20
0001
0000
0010
0001
0010
0000
0001
0000
1000
0100
0000
1000
0010
0000
0100
0000
,  // measure 21
0010
0000
1000
0001
1000
0000
0100
0000
0010
0000
0100
1000
0001
0000
0100
0000
,  // measure 22
0010
0000
0100
0001
0100
0000
0001
0000
0010
0001
0000
1000
0001
0000
1000
0000
,  // measure 23
0100
0000
1000
0010
1000
0000
0100
0000
1000
0010
0000
1000
0001
0000
0100
0000
,  // measure 24
0010
0000
0000
0000
0110
0000
0000
0000
0000
0000
0000
0000
0100
0000
0010
0100
,  // measure 25
0001
0000
0000
1001
0000
0000
1100
0000
0000
1001
0000
0000
1010
0000
1000
0000
,  // measure 26
1001
0100
0001
0100
1000
0100
0001
0100
,  // measure 27
1000
0000
0100
1000
0100
0000
1000
0000
0001
0000
0100
0001
0100
0000
0001
0000
,  // measure 28
1000
0010
0001
0010
1000
0010
0001
0010
,  // measure 29
1000
0000
0001
0100
0001
0000
1000
0000
0001
0000
0100
0000
0101
0000
0000
0000
,  // measure 30
1000
0000
0010
1000
0010
0000
1000
0000
0001
0010
0001
0010
0001
0000
0000
0000
,  // measure 31
1000
0100
0001
0100
1000
0100
1100
0000
,  // measure 32
1010
0010
0110
0100
0101
0001
0011
0001
,  // measure 33
1002
0000
0000
0000
0000
0000
1000
0000
0000
0000
1000
0000
0003
0000
0001
1000
,  // measure 34
0001
0000
0100
0001
0100
0000
0001
0010
0001
0000
1000
0010
1000
0000
0001
1000
,  // measure 35
0200
0000
0000
0000
0010
0000
0000
0000
1000
0000
0000
0000
0301
0000
1000
0100
,  // measure 36
0020
0000
0000
0000
0100
0000
0000
0000
1000
0000
0000
0000
0031
0000
0100
0001
,  // measure 37
0200
0000
0000
0000
0010
0000
0010
0000
0000
0000
1000
0000
1300
0000
0100
0001
,  // measure 38
1000
0000
0010
1000
0010
0000
0100
0001
0100
0000
0001
0010
0001
0000
1000
0100
,  // measure 39
0020
0000
0000
0000
0001
0000
0000
0000
1000
0000
0000
0000
0031
0000
1000
0100
,  // measure 40
0010
0000
0100
0000
0110
0000
0100
0000
1100
0000
1000
0000
1010
0000
0100
0001
,  // measure 41
2000
0000
0000
3000
,  // measure 42
0010
0000
1000
0000
0100
0000
1000
0100
0000
0100
1000
0000
0010
0000
0100
0001
,  // measure 43
0100
0000
0001
0000
0010
0001
0000
1000
0000
0001
0010
0000
0001
0000
1000
0010
,  // measure 44
0100
0000
0001
0000
0010
0000
0001
0010
0000
0010
0001
0000
0100
0000
0010
1000
,  // measure 45
0010
0000
1000
0000
0100
1000
0000
0001
0000
1000
0100
0000
1000
0000
0001
1000
,  // measure 46
0001
0000
0100
0000
0010
0000
1000
0100
0000
0100
1000
0000
0001
0000
1000
0001
,  // measure 47
0100
0000
0010
0000
0100
0001
0000
1000
0000
0001
0010
0000
0001
0000
0100
0010
,  // measure 48
0100
0000
0010
0000
1000
0000
0001
1000
0000
1000
0001
0000
1000
0000
0001
0010
,  // measure 49
0001
0100
1000
0100
0001
0010
2000
0000
0000
0000
0000
0000
,  // measure 50
3010
0000
0000
0001
0100
0001
0000
0001
0100
0000
0010
1000
0000
1000
0010
0100
,  // measure 51
0001
0000
0000
1000
0100
1000
0000
1000
0010
0000
1000
0100
0000
0100
0010
0001
,  // measure 52
2000
0000
0000
3010
1000
0010
0000
1000
0002
0000
0013
0001
0000
0001
0010
0100
,  // measure 53
1001
0000
0000
0000
0010
0000
2000
0000
0000
0000
3001
0000
2000
0000
0000
0000
3001
0000
0000
0000
1000
0000
0002
0000
0000
0000
0103
0001
0100
0000
0010
0000
,  // measure 54
1001
0000
0000
0000
0000
0000
0000
0000
0000
0000
0000
0010
0100
0000
0010
0000
,  // measure 55
0001
0000
1000
0000
0000
0000
0000
0000
0000
0000
0000
0010
1000
0000
0010
0000
,  // measure 56
0100
0000
0001
1000
0100
0000
1000
0000
0001
0000
1000
0001
0010
0000
0001
0000
,  // measure 57
1000
0000
0001
0100
0001
0000
1000
0010
1000
0000
0001
0010
0100
0000
0010
0000
,  // measure 58
1001
0000
0010
1000
0010
0000
1000
0000
0001
0010
0001
0010
0001
0000
1000
0100
,  // measure 59
0000
0100
1000
0000
0010
0000
1000
0001
1000
0001
1000
0000
0001
0000
0100
0001
,  // measure 60
0100
0000
0010
1000
0010
0000
1000
0000
0100
0010
0100
0010
0100
0000
1000
0100
,  // measure 61
0000
0100
0010
0000
0100
0000
1000
0000
0001
0100
0001
0100
0001
1000
0001
1000
,  // measure 62
0001
0000
1000
0010
1000
0000
0001
0000
1000
0000
0010
0100
0000
0100
0010
0000
,  // measure 63
1000
0000
0100
1000
0100
0000
1000
0000
0001
0000
0010
0001
1000
0001
0000
0100
,  // measure 64
0001
0000
1000
0100
1000
0000
0001
0000
0010
0000
0100
1000
0100
1000
0100
0000
,  // measure 65
1000
0000
0010
1000
0010
0000
0100
0000
0001
1000
0000
0010
0100
0010
0100
0010
,  // measure 66
1000
0000
0001
0010
0100
0000
0010
0000
0001
0000
0010
0100
1000
0100
0010
0100
,  // measure 67
1000
0000
0010
1000
0010
0000
0100
0000
0001
0100
0000
0010
1000
0010
0000
0010
,  // measure 68
1000
0000
0001
1000
0100
0000
1000
0000
0010
0000
0100
0001
0100
0010
1000
0001
,  // measure 69
1000
0000
1001
0000
1001
0000
1001
0000
0010
0100
0010
0100
0010
1000
0100
0010
,  // measure 70
0001
0000
0100
0001
1000
0000
0001
0010
0001
0100
0010
1000
0010
0100
0001
1000
,  // measure 71
0100
0000
1000
0100
1000
0000
0001
0000
0010
0001
0000
1000
0001
1000
0001
1000
,  // measure 72
0010
0000
0100
0001
0100
0000
0010
1000
0001
0000
1000
0100
0010
0000
1100
0000
,  // measure 73
0000
0000
0101
0000
0000
0000
1010
0000
0101
0000
0101
0000
1000
0100
1000
0100
,  // measure 74
0010
0000
0100
1000
0001
0000
1000
0000
0100
0000
0001
0000
0100
0000
1000
0001
,  // measure 75
0100
0000
0001
1000
0010
0000
1000
0000
0100
0000
0001
0000
0100
0000
1000
0001
,  // measure 76
0100
0000
0001
1000
0100
0000
1000
0000
0010
0000
0001
0000
0010
0000
1000
0001
,  // measure 77
0010
0000
0001
1000
0010
0000
1000
0000
0101
0000
0000
1100
0000
0000
1000
0100
,  // measure 78
0010
0000
0001
0010
0100
0000
1000
0001
0100
0001
0000
0100
0001
0000
1000
0001
,  // measure 79
0010
0000
0001
0010
0100
0000
1000
0010
0100
0010
0000
0100
0010
0000
1000
0100
,  // measure 80
1000
0000
1100
0000
0001
0100
1000
0100
0001
0000
0101
0000
1000
0010
0001
0010
,  // measure 81
1000
0000
0000
0010
0100
0000
0000
0001
0010
0000
0000
0100
1000
0000
0001
0000
,  // measure 82
0110
0000
0000
0000
0000
0000
0000
0000
0000
0000
0000
0010
0100
0000
0010
0000
,  // measure 83
1000
0000
0001
0000
0000
0000
0000
0000
0000
0000
0000
1000
0100
0000
1000
0000
,  // measure 84
0001
0000
1000
0100
1000
0000
0001
0100
0001
0000
1000
0010
1000
0000
0001
0010
,  // measure 85
0100
0000
0010
0001
1000
0000
0001
1000
0010
0000
1000
0001
0100
0000
0001
0000
,  // measure 86
1001
0000
0000
0000
;
