#TITLE:太陽SUNSUNボンジュールアバンチュール;
#SUBTITLE:;
#ARTIST:Project B-;
#TITLETRANSLIT:Taiyou SUNSUN bonjour aventure;
#SUBTITLETRANSLIT:;
#ARTISTTRANSLIT:;
#GENRE:;
#CREDIT:;
#BANNER:[Qualifier] - Taiyou SUNSUN bonjour aventure.png;
#BACKGROUND:[Qualifier] - Taiyou SUNSUN bonjour aventure-bg.png;
#LYRICSPATH:;
#CDTITLE:;
#MUSIC:Taiyou SUNSUN bonjour aventure.mp3;
#OFFSET:-1.067000;
#SAMPLESTART:30.191858;
#SAMPLELENGTH:13.714285;
#SELECTABLE:YES;
#BPMS:0.000000=140.000000
,67.000000=560.000000
,69.000000=140.000000
,108.000000=560.000000
,111.000000=140.000000
,157.000000=560.000000
,159.000000=140.000000
,254.000000=70.000000
,258.000000=140.000000
,258.500000=560.000000
,258.833344=140.000000
,259.500000=560.000000
,264.000000=140.000000
;
#STOPS:68.000000=0.214000,
110.000000=0.107000,
157.000000=0.321000,
158.000000=0.321000,
253.000000=0.429000,
258.000000=0.500000,
258.166656=0.500000,
258.333344=0.500000,
258.500000=0.911000,
258.666656=0.768000,
258.833344=0.500000,
259.000000=0.500000,
259.166656=0.500000
;
#BGCHANGES:;
#KEYSOUNDS:;
#ATTACKS:;

//---------------dance-single - ----------------
#NOTES:
     dance-single:
     :
     Hard:
     9:
     0.516490,0.840945,0.238905,0.286686,0.167233,454.000000,424.000000,30.000000,36.000000,0.000000,0.000000,0.516490,0.840945,0.238905,0.286686,0.167233,454.000000,424.000000,30.000000,36.000000,0.000000,0.000000:
0000
0000
0000
0000
,
1000
1010
0001
0011
,
1000
1010
0001
0011
,
1000
1100
0001
0101
,
1000
0000
1100
0000
0001
1000
0001
0000
,
0010
0110
0100
0110
,
1000
1001
0001
1001
,
0001
0011
0010
0110
,
0100
0000
0000
0010
0000
0000
0001
0000
0000
1000
0000
0000
0010
0000
0100
0000
0001
0000
1000
0000
0000
0000
0000
0000
,
0001
0000
0010
0000
0100
1000
0100
0000
,
1000
0010
0100
0001
0010
0100
0010
0000
,
0100
0000
1000
0000
0001
0100
0001
0000
,
1000
0001
0010
0001
1000
0100
1000
0000
,
0001
0000
0100
0000
0010
1000
0010
0100
,
0001
0010
0001
1000
0100
1000
0001
0010
,
0001
0000
0000
0000
1000
0000
0000
0010
0000
0000
0100
0000
0000
0001
0000
0000
,
0001
0000
1000
0000
0001
0100
0000
0010
1000
0000
1000
0000
0020
0000
0000
0000
,
0030
0000
0100
1000
0100
0001
0010
0100
,
0010
0000
0100
1000
0100
0001
0100
0010
,
0100
0000
1000
0100
0001
0100
0010
0001
,
1000
0000
0001
0100
1000
0100
0010
1000
,
0001
0000
1000
0010
0001
0010
0100
0001
,
0010
1000
0010
0100
1000
0001
0010
1000
,
0010
0001
1000
0100
0010
0001
1000
0100
,
0010
0000
0000
0001
0000
0000
1000
0000
0000
0010
0000
0000
0100
0000
0000
0001
0000
0000
0010
0000
0100
0000
0010
0000
,
0100
0000
0100
1000
0020
0000
0130
0001
,
0020
0000
0000
0000
0130
0000
0010
0000
0001
0010
0000
0010
0001
0000
1000
0000
,
0020
0000
0000
0000
0000
0000
0000
0000
0000
0000
0000
0000
0000
0000
0000
0000
0000
0000
0000
0000
0000
0000
0000
0000
0000
0000
0000
0000
0000
0000
0000
0000
0000
0000
0000
0000
0000
0000
0000
0000
0000
0000
0000
0000
0000
0000
0000
0000
0000
0000
0000
0000
0000
0000
0000
0000
0000
0000
0000
0000
0000
0000
0000
0000
0000
0000
0000
0000
0000
0000
0000
0000
0000
0000
0000
0000
0000
0000
0000
0000
0000
0000
0000
0000
0000
0000
0000
0000
0000
0000
0000
0000
0000
0000
0000
0000
0000
0030
0000
0000
0000
0000
0000
0000
0000
0000
0000
0000
0000
0000
0000
0000
0000
0000
0000
0000
0000
0000
0000
0000
0000
0000
0000
0000
0000
0000
0000
0000
0000
0000
0000
0000
0000
0000
0000
0000
0000
0000
0000
0000
0000
0000
0000
0000
0200
0000
0000
0000
0000
0000
0000
0000
0000
0000
0000
0000
0000
0000
0000
0000
0000
0000
0000
0000
0000
0000
0000
0000
0000
0000
0000
0000
0000
0000
0000
0000
0000
0000
0000
0000
0000
0000
0000
0000
0000
0000
0000
0000
0000
0000
0000
0000
,
0301
0100
0010
1000
0001
0000
2000
0000
,
3100
0010
0001
1000
0001
0000
0020
0000
,
0130
0010
0001
1000
0001
0000
0200
0000
,
0302
2000
3003
0002
,
0013
0100
1000
0001
1000
0000
0020
0000
,
0130
0010
1000
0001
1000
0000
0200
0000
,
0310
0100
1000
0001
1000
0000
0002
0000
,
2003
0000
0000
0000
3200
0000
0000
0000
0300
0000
0000
0000
0010
0000
0000
0001
,
0000
0000
0000
0010
0000
0000
0100
0000
0000
0000
0000
0000
0210
0000
0000
0000
0000
0000
0000
0000
0000
0000
0000
0000
1300
0000
0000
0000
0000
0000
0000
0000
0000
0000
0000
0000
1000
0000
0000
0000
0010
0000
0000
0000
0100
0000
0000
0000
,
0001
0000
0000
0000
0010
0000
0000
0000
0100
0000
0000
0000
1000
0000
0000
0000
0000
0000
0001
0000
0000
0000
0000
0000
0100
0000
0000
0000
0000
0000
1000
0000
0000
0000
0000
0000
0100
0000
0000
0000
0000
0000
0000
0000
0000
0001
0000
0000
,
0000
0000
0000
0010
0000
0000
0100
0000
0000
0000
0000
0000
1200
0000
0000
0000
0000
0000
0000
0000
0000
0000
0000
0000
0310
0000
0000
0000
0000
0000
0001
0000
0000
0000
0000
0000
0100
0000
0000
0000
0010
0000
0000
0000
1000
0000
0000
0000
,
0001
0000
0000
0000
0010
0000
0000
0000
0001
0000
0000
0000
2000
0000
0000
0000
0000
0000
0000
0000
0000
0000
0000
0000
3000
0000
0000
0000
0000
0000
0000
0000
0000
0000
0000
0000
0020
0000
0000
0000
0000
0000
0000
0000
0000
0130
0000
0000
,
0000
0000
0001
0000
2000
0000
0000
3100
0000
0000
0001
0000
0200
0000
0000
0310
,
0000
0000
0001
0000
2000
0000
0000
3010
0000
0000
0100
0000
0001
0000
0100
0000
,
0010
0000
1000
0000
0001
0000
0100
0000
0010
0000
1000
0000
0002
0000
0000
0023
,
0000
0000
0230
0000
0000
2300
0000
0000
3100
0000
0010
0000
0021
0000
0000
0000
,
0030
0000
0100
1000
0001
0000
0100
0000
1000
0000
0100
0000
0010
0000
1000
0010
,
1000
0000
0001
0100
0001
0000
1000
0000
0002
0000
0000
0000
1003
0000
0010
0000
,
1000
0000
0010
1000
0100
0000
1000
0100
,
0010
0100
1000
0001
0010
0100
0010
0001
,
0100
0000
0010
1000
0001
0000
0100
0010
,
1000
0100
0010
0100
1000
0001
0010
1000
,
0010
0000
0100
1000
0010
0000
0100
0010
,
0100
0001
1000
0100
0010
0100
1000
0001
,
0010
0000
0100
1000
0001
0000
1000
0001
,
0100
0000
0000
0010
0000
0000
1000
0000
0001
0000
1000
0000
0001
0000
0000
0000
0000
0000
0010
0000
0000
0001
0000
0000
,
1000
0010
1000
0001
0100
0010
1000
0100
,
0010
0001
0100
0001
0010
0100
1000
0100
,
0010
0100
0010
0001
1000
0010
0100
0001
,
0010
0100
1000
0001
1000
0010
1000
0001
,
0100
0001
1000
0010
0100
0001
0100
0010
,
1000
0001
0010
0100
0010
0100
0010
0001
,
1000
0010
1000
0001
0010
0100
1000
0001
,
1000
0000
0000
0001
0000
0000
1000
0000
0001
0000
0010
0000
0100
0000
0000
0000
0000
0000
1000
0000
0000
0001
0000
0000
,
0010
0000
0000
0010
0000
0000
0001
0000
0000
1000
0000
0000
0010
0000
0000
0100
0000
0000
0101
0000
0000
0000
0011
0000
,
0000
0000
1100
0000
0000
0000
1001
0000
0000
0000
0000
0000
0201
0000
0000
0310
0000
0000
2000
0000
0000
3100
0000
0000
,
0012
0000
0000
0103
0000
0000
0010
0000
0000
1000
0000
0000
1001
0101
0101
2002
3003
1010
1100
1100
2002
0000
0000
0000
,
0000
0000
0000
0000
,
3003
0000
0000
0000
;

//---------------dance-single - ----------------
#NOTES:
     dance-single:
     :
     Easy:
     4:
     0.233217,0.341634,0.111489,0.111489,0.003982,205.000000,191.000000,14.000000,14.000000,0.000000,0.000000,0.233217,0.341634,0.111489,0.111489,0.003982,205.000000,191.000000,14.000000,14.000000,0.000000,0.000000:
0000
0000
0000
0000
,
0000
1000
0000
1000
,
0000
0001
0000
0001
,
0000
0100
0000
0100
,
0000
0010
1000
0001
,
0000
0010
0000
0010
,
0000
0100
0000
0100
,
0000
1000
0000
1000
,
0001
0100
0010
0000
,
1000
0000
0001
0000
,
0100
0001
0100
0000
,
0010
0000
1000
0000
,
0001
0010
0001
0000
,
1000
0000
0001
0000
,
0100
0001
0100
0000
,
0010
0000
1000
0000
,
0001
1000
0010
1001
,
0000
0001
1000
0100
,
0100
1000
0010
0100
,
0100
0001
1000
0010
,
0010
1000
0100
0010
,
0010
0001
0010
0001
,
0010
0100
1000
0100
,
1000
0010
0100
0001
,
1000
0010
0100
0220
,
0330
2000
3000
0002
,
0003
1000
0001
0100
,
0010
0000
0000
0100
,
0001
1000
0000
0100
,
1000
0010
0000
0100
,
0001
0010
0000
0100
,
1000
0002
0003
1000
,
0001
0010
0000
0001
,
1000
0010
0000
1000
,
0001
0100
0000
0001
,
1000
0200
0300
1000
,
0000
0101
0000
0001
,
0001
1001
0000
1000
,
0000
0011
0000
0010
,
0010
0100
0000
1000
,
0000
0100
0000
0010
,
0000
0001
0000
1000
,
0100
0010
0001
1001
,
0110
1001
0110
0002
,
0000
1003
0100
1001
,
0110
0000
0001
1000
0001
0000
1000
0000
,
0010
0000
1000
0000
,
0100
0000
1000
0000
,
0001
0000
0100
0000
,
0010
0000
1000
0001
,
0010
0000
0100
0000
,
1000
0000
0100
0000
,
1000
0000
0010
0000
,
0100
0001
0001
1000
,
0010
1000
0100
1000
,
0010
1000
0001
0010
,
0001
0100
0001
0010
,
0001
0100
0001
1000
,
0010
1000
0100
1000
,
0001
0100
0001
0010
,
0001
1000
0100
0010
,
0010
2002
3003
1000
,
0100
1000
0010
0200
,
0000
0300
0001
0010
,
0001
0000
0000
0000
0000
0000
1000
0000
0000
0000
0000
0000
2002
0000
0000
3003
0000
0220
0000
0000
0000
0000
0000
0000
,
0000
0000
0000
0000
,
0330
0000
0000
0000
;

//---------------dance-single - ----------------
#NOTES:
     dance-single:
     :
     Medium:
     6:
     0.399312,0.499311,0.294649,0.135379,0.055744,351.000000,314.000000,37.000000,17.000000,0.000000,0.000000,0.399312,0.499311,0.294649,0.135379,0.055744,351.000000,314.000000,37.000000,17.000000,0.000000,0.000000:
0000
0000
0000
0000
,
1000
0010
1000
0100
,
1000
0010
1000
0100
,
1000
0010
1000
0100
,
1000
0000
0010
0000
0100
0010
0100
0000
,
0001
0010
0001
0100
,
0001
0010
0001
0100
,
0001
0010
0001
0100
,
0001
0000
0000
1000
0000
0000
0001
1000
0001
1000
0000
0000
,
1000
0000
0010
0000
0100
0001
0100
0000
,
0001
0000
0010
0000
0100
0100
0100
0000
,
1000
0000
0010
0000
0100
0010
0100
0000
,
0010
0000
1000
0000
0001
0001
0001
0000
,
0010
0000
0100
0000
1000
0100
1000
0000
,
0010
0100
0001
0010
,
0100
0010
0001
1000
,
0001
0000
0100
0000
0010
0100
1001
0000
,
0000
0000
0001
0000
0100
0000
0010
1000
,
1000
0000
0010
0000
0100
0000
0001
0001
,
0001
0000
0010
0000
0100
0000
1000
0100
,
0100
0000
1000
0000
0010
0000
0100
0100
,
0100
0000
0010
0000
1000
0000
0001
1000
,
1000
0001
0010
0100
,
0010
0011
0001
0101
,
0100
0000
0000
0110
0000
0000
1001
0000
0000
0001
1000
0001
,
1000
0001
0020
0130
,
0020
0000
0031
0000
1000
0000
0001
1000
,
0100
0000
0000
0020
,
0031
0000
0100
0010
0100
0000
0020
0000
,
1030
0000
0100
0010
0100
0000
0020
0000
,
0031
0000
0100
0010
0100
0000
0002
0000
,
2003
0200
3300
2000
,
3010
0000
0100
0001
0100
0000
0002
0000
,
0013
0000
0100
1000
0100
0000
2000
0000
,
3001
0000
0100
0010
0100
0000
0020
0000
,
0230
0302
0003
1000
,
0001
0101
1010
1001
,
0110
0000
1001
0000
0001
0100
0010
0000
,
1010
0011
0110
1100
,
0011
2002
3003
1010
,
1000
0011
0001
1001
,
0010
1001
0001
1000
,
0100
0000
0010
0000
0001
0000
1000
0100
,
0010
0001
1000
0100
0010
0001
0010
0000
,
0000
0100
0010
0001
0100
0010
1000
0100
,
0010
0001
1000
0001
1000
0000
0001
0000
,
0011
0010
0110
0100
,
1100
1000
1010
0010
,
0110
0100
0101
0001
,
0011
0010
0110
0100
,
0011
0100
1010
1000
,
0011
0001
1100
1000
,
1010
0010
0110
0100
,
0101
0000
0000
0000
0000
0000
0001
0000
1000
0000
0001
0000
1000
0000
0000
0000
0000
0000
0001
0000
0000
0100
0000
0000
,
0001
0000
0100
0010
0100
0000
0010
1000
,
0010
0000
1000
0100
1000
0000
0100
0010
,
0100
0000
0010
0001
0010
0000
0001
1000
,
0001
0000
1000
0010
1000
0000
0100
0010
,
0001
0000
0010
0100
1000
0000
0100
0010
,
0001
0000
0010
0100
1000
0000
0100
0010
,
0100
0000
0010
0001
0010
0000
0001
0010
,
0100
0000
0000
1000
0000
0000
0001
0000
1000
0000
0001
0000
1000
0000
0000
0000
0000
0000
0001
0000
0000
0000
0000
0000
,
1001
0000
0000
0000
1000
0000
0000
0000
1001
0000
0000
0000
0001
0000
0000
0100
,
0000
0100
0010
0000
0010
1000
0100
1000
,
0010
0000
0000
0100
0000
0000
0001
0000
0000
0010
0000
0000
0100
1000
1000
0010
0000
0100
0001
0001
0020
0000
0000
0000
,
0000
0000
0000
0000
,
0030
0000
0000
0000
;

//---------------dance-single - ----------------
#NOTES:
     dance-single:
     :
     Beginner:
     2:
     0.119452,0.315354,0.119452,0.015927,0.000000,105.000000,90.000000,15.000000,2.000000,0.000000,0.000000,0.119452,0.315354,0.119452,0.015927,0.000000,105.000000,90.000000,15.000000,2.000000,0.000000,0.000000:
// measure 0
0000
0000
0000
0000
,  // measure 1
0000
0000
0000
0000
,  // measure 2
0000
0000
0000
0000
,  // measure 3
0000
0000
0000
0000
,  // measure 4
0000
0000
0000
0000
,  // measure 5
1000
0000
0000
0000
,  // measure 6
0001
0000
0000
0000
,  // measure 7
0100
0000
0000
0000
,  // measure 8
0010
0000
1001
0000
,  // measure 9
0001
0000
0000
0000
,  // measure 10
0010
0000
0000
0000
,  // measure 11
0001
0000
0000
0000
,  // measure 12
1000
0000
0000
0000
,  // measure 13
0010
0000
0000
0000
,  // measure 14
0100
0000
0000
0000
,  // measure 15
0010
0000
0100
0000
,  // measure 16
0001
0000
1000
1001
,  // measure 17
0000
0001
0000
0000
,  // measure 18
0000
0010
0000
0000
,  // measure 19
0000
0100
0000
0000
,  // measure 20
0000
0010
0000
0000
,  // measure 21
0000
0001
0000
0000
,  // measure 22
0000
1000
0000
0000
,  // measure 23
0000
0010
0000
0100
,  // measure 24
0000
0001
1000
1001
,  // measure 25
1001
0000
0000
0000
,  // measure 26
0000
0000
0000
0000
,  // measure 27
0000
0000
0000
0010
,  // measure 28
0000
0000
0000
0100
,  // measure 29
0000
0000
0000
0001
,  // measure 30
0000
0000
0000
1000
,  // measure 31
0001
1000
0000
0010
,  // measure 32
0000
0000
0000
0100
,  // measure 33
0000
0000
0000
0010
,  // measure 34
0000
0000
0000
1000
,  // measure 35
0001
1000
0000
0010
,  // measure 36
0000
1001
0000
0001
,  // measure 37
0001
0001
0000
0100
,  // measure 38
0000
1001
0000
1000
,  // measure 39
1000
1000
0000
0010
,  // measure 40
0000
0000
0000
0100
,  // measure 41
0000
0000
0000
0001
,  // measure 42
0000
1000
0000
0001
,  // measure 43
0001
1000
1000
1001
,  // measure 44
0000
0010
0000
1001
,  // measure 45
1001
0110
0110
0010
,  // measure 46
0000
0000
0000
1000
,  // measure 47
0000
0000
0000
0001
,  // measure 48
0000
0000
0000
0100
,  // measure 49
0000
0000
0000
0010
,  // measure 50
0000
0000
0000
1000
,  // measure 51
0000
0000
0000
0001
,  // measure 52
0000
0000
0000
1000
,  // measure 53
0000
1001
0000
0010
,  // measure 54
0000
0000
0000
0100
,  // measure 55
0000
0000
0000
0001
,  // measure 56
0000
0000
0000
0010
,  // measure 57
0000
0000
0000
0100
,  // measure 58
0000
0000
0000
1000
,  // measure 59
0000
0000
0000
0010
,  // measure 60
0000
0100
0000
0001
,  // measure 61
1000
1001
0000
0010
,  // measure 62
0000
0100
0000
1001
,  // measure 63
0000
0000
1000
0000
,  // measure 64
0001
0000
2002
0000
,  // measure 65
0000
0000
0000
0000
,  // measure 66
3003
0000
0000
0000
;
