#TITLE:THE DETONATOR;
#SUBTITLE:;
#ARTIST:teranoid vs. L.E.D.-G;
#TITLETRANSLIT:;
#SUBTITLETRANSLIT:;
#ARTISTTRANSLIT:;
#GENRE:;
#CREDIT:;
#BANNER:[Qualifier] - THE DETONATOR.jpg;
#BACKGROUND:[Qualifier] - THE DETONATOR-bg.jpg;
#LYRICSPATH:;
#CDTITLE:cdtitle.png;
#MUSIC:THE DETONATOR.ogg;
#OFFSET:-0.554000;
#SAMPLESTART:24.145924;
#SAMPLELENGTH:12.000000;
#SELECTABLE:YES;
#BPMS:0.000000=173.000000
;
#STOPS:
;
#BGCHANGES:;
#KEYSOUNDS:;
#ATTACKS:;

//---------------dance-single - ----------------
#NOTES:
     dance-single:
     :
     Hard:
     10:
     0.641527,0.812469,0.131266,0.262532,0.207262,593.000000,19.000000,38.000000,0.000000,0.000000,0.000000,0.641527,0.812469,0.131266,0.262532,0.207262,593.000000,19.000000,38.000000,0.000000,0.000000,0.000000:
0000
0000
0000
0000
,
0000
0000
0000
0000
,
0000
0000
0000
0000
,
0000
0000
0000
0000
,
0000
0000
0000
0000
,
0000
0000
0000
0000
,
1001
0001
1000
1000
,
0001
1000
0010
0100
0001
0010
0100
1000
,
0010
0010
0100
0100
,
0010
0100
0001
1000
0100
0010
0100
1000
,
1001
0000
0001
1000
0001
1000
0010
0100
,
0001
0000
0001
1000
0100
0010
0100
1000
,
0010
0000
0010
1000
0100
1000
0010
0100
,
0001
0000
0001
1000
0100
0010
0100
0010
,
0001
1000
0001
1000
0001
1000
0001
1000
,
0010
0100
0010
0100
0010
0100
0010
1000
,
0200
0000
0000
0000
,
0300
0000
0000
0000
,
1010
0000
0010
0100
0001
0100
0010
0100
,
0001
0000
0000
0000
0001
0000
0010
0000
0100
0000
0010
0000
0001
0000
0010
0100
,
0010
0000
0100
1000
0100
0010
0100
1000
,
0001
0000
0000
0000
0001
0000
1000
0000
0100
0010
0100
0000
0100
1000
0100
0000
,
1000
0000
0001
1000
0010
1000
0001
1000
,
0010
0000
0000
0000
0100
0000
0001
0000
0100
0000
0010
0000
0100
0000
0001
0010
,
0001
0000
0100
0010
0100
0001
0100
0010
,
1000
0000
0000
0000
0000
0000
0010
0000
0000
1000
0000
0000
0100
0000
0000
0000
0010
0000
0100
0000
0000
0000
1000
0000
,
0001
0010
0001
0100
0001
0010
0001
0100
,
0010
1000
0010
0100
0010
1000
0010
0100
,
0100
0001
0100
0010
0100
0001
0100
0010
,
1000
0000
0001
0000
1000
0000
0010
0000
1000
0001
1000
0000
1000
0100
1000
0000
,
0010
0100
0010
1000
0010
0100
0010
1000
,
0001
0000
0010
0000
0001
0000
0100
0000
0001
0000
0010
0000
0001
0000
0100
0010
,
0100
0001
0100
0010
0100
0001
0100
0010
,
1000
0000
0000
0000
,
1001
0000
0001
0100
0001
0000
1000
0000
1000
0000
0010
0100
0010
0000
1000
0000
,
1000
0000
0001
0010
0001
0000
1000
0000
1000
0000
0200
0000
0301
0000
0200
0000
,
1300
0000
0010
0100
0010
0000
1000
0000
1000
0000
0001
0010
0001
0000
1000
0000
,
1000
0100
0010
0001
1000
0000
0001
0000
0100
0000
0001
0000
1000
0000
0100
0000
,
0100
0000
1000
0010
1000
0000
0001
0000
0001
0000
0100
0010
0200
0000
0002
0000
,
0303
0000
1000
0010
1000
0000
0001
0000
0001
0000
0020
0000
1030
0000
0020
0000
,
0031
0000
0000
0000
0000
0000
1000
0000
0000
0100
0000
0000
1000
0000
0000
0000
0000
0000
0001
0000
0000
0000
0000
0000
0001
0000
0000
0000
0100
0000
0000
0000
0001
0000
0000
0000
0100
0000
0000
0000
0010
0000
0000
0000
0100
0000
0000
0000
,
0020
0000
1030
0001
1000
0100
0010
0001
,
1000
0000
2002
3003
,
1001
0000
1000
0100
1000
0000
0010
0000
0010
0000
0200
0000
1300
0000
0200
0000
,
0310
0000
1000
0100
1000
0000
0010
0000
0010
0000
0100
0001
0100
0000
0010
0000
,
0010
0100
0001
1000
0010
0000
0100
0000
0010
0000
1000
0000
0010
0000
0100
0000
,
0100
0000
0001
0010
0001
0000
0100
0000
0100
0000
0010
1000
0010
0000
0100
0000
,
0100
0000
0001
1000
0001
0000
0100
0000
0100
0000
0020
0000
0031
0000
0020
0000
,
0130
0000
0001
0010
0001
0000
0100
0000
0100
0000
0001
1000
0001
0000
0100
0000
,
0100
0000
0001
0100
0001
0000
0001
1000
0001
0010
0000
0010
0100
0010
0100
1000
,
0001
0001
0001
0100
0001
0010
0001
1000
,
0100
0010
0100
1000
0100
0010
0100
1000
,
0010
0100
0010
1000
0010
0001
0010
1000
,
0100
0010
0100
1000
2001
0000
0001
0000
,
3010
0100
0010
1000
0010
0001
0010
0100
,
0002
0000
0000
2003
0000
0000
3200
0000
,
0310
0000
0010
0000
0100
0000
0100
0000
1000
0001
1000
0001
0100
0001
0100
0001
,
0200
0000
0010
0000
0301
0001
1000
0000
,
2100
0001
0100
3010
,
0210
0001
1000
0301
,
0021
0100
1000
0130
,
2001
3020
0230
0000
,
0301
0100
1000
0100
,
0010
0100
1000
0100
,
0010
1000
0100
0010
,
0002
1000
0100
1000
,
2003
0000
0000
0000
,
0000
0000
0000
0000
,
3020
0000
0000
0000
,
0000
0000
0000
0000
,
0230
0000
0000
0000
,
0000
0000
0000
0000
,
0302
0000
0000
0000
,
0000
0000
0000
0000
,
1003
0000
0000
0000
0000
0000
0000
0001
,
0101
0000
0000
0000
0000
0000
0000
0000
0000
0000
0000
0000
0100
0010
0100
0010
,
0100
0000
0000
0000
0000
0000
0000
1010
,
0000
0000
0101
0000
0000
0000
1001
0000
1001
0000
0000
0000
0000
0000
1000
0001
,
1000
1000
0001
0001
1000
1000
0001
0001
,
0100
0100
0010
0010
0100
0100
0010
0010
,
0100
0001
0100
0001
0100
0001
0100
0001
2000
0000
0000
0000
0002
0000
0000
0000
,
3003
0000
0000
0000
,
1000
0100
0010
0100
1000
0100
0010
0100
,
1000
0010
0001
0010
1000
0010
0001
0010
,
0100
0001
0010
0001
0100
0001
0010
0001
,
1000
0100
0001
0100
2000
0010
0000
3010
,
0100
0001
1000
0001
0100
0001
1000
0001
,
1000
0010
0100
0010
1000
0010
0100
0010
,
0010
1000
0001
1000
0010
1000
0001
0000
,
0101
0000
0000
0001
2000
0000
0010
0000
3010
0000
0100
0000
0001
0000
1000
0000
,
0100
1000
0010
1000
0100
1000
0010
1000
,
0100
0010
0001
0010
0100
0010
0001
0010
,
0001
0100
1000
0100
0001
0100
1000
0100
,
0001
0010
1000
0010
0002
0100
0000
0103
,
0010
0010
0100
0100
0010
0010
0100
0100
,
0001
1000
0001
1000
0001
1000
0001
1000
0001
0100
0001
0100
0001
0100
0001
0100
,
0002
0000
2003
3020
,
0130
0000
0000
0110
,
1001
0000
0000
0000
;

//---------------dance-single - ----------------
#NOTES:
     dance-single:
     :
     Medium:
     7:
     0.537896,0.575499,0.089814,0.172719,0.013817,507.000000,13.000000,25.000000,0.000000,0.000000,0.000000,0.537896,0.575499,0.089814,0.172719,0.013817,507.000000,13.000000,25.000000,0.000000,0.000000,0.000000:
0000
0000
0000
0000
,
0000
0000
0000
0000
,
0000
0000
0000
0000
,
0000
0000
0000
0000
,
0000
0000
0000
0000
,
0000
0000
0000
0000
,
1001
0001
1000
1000
,
0010
0010
0100
0100
,
0001
0001
0010
0010
,
0100
0100
1000
1000
,
0001
0000
0100
0001
0100
0001
0100
0001
,
1000
0000
0010
1000
0010
1000
0010
1000
,
0001
0000
0010
0100
0010
0100
0010
0100
,
1000
0000
0001
1000
0001
0100
0010
1000
,
0001
0010
0001
0010
0100
1000
0100
1000
,
0010
0100
0010
0100
0001
1000
0001
1000
,
0200
0000
0000
0000
,
0300
0000
0000
0000
,
1100
0000
0100
0010
0100
0010
0001
1000
,
0001
0000
0100
0001
0100
0001
1000
0100
,
1000
0000
0010
1000
0010
1000
0001
0010
,
0001
0000
0100
0001
0100
0100
0001
0001
,
1000
0000
0010
0100
0010
0100
0001
0010
,
0001
0000
1000
0100
1000
0100
0010
0001
,
0010
0000
0100
1000
0100
1000
0010
0100
,
0010
0000
0000
0000
0000
0000
0100
0000
0000
0001
0000
0000
1000
0000
0000
0000
0100
0000
0010
0000
0000
0000
0010
0000
,
0001
0000
1000
0001
1000
0001
0100
0010
,
0100
0000
0010
1000
0010
1000
0001
0100
,
0001
0000
0010
0100
0010
0100
1000
0001
,
1000
0000
0001
0100
0001
0001
0100
0100
,
0010
0000
1000
0100
1000
0100
0010
0001
,
0010
0000
0100
0010
0100
0010
0001
1000
,
0001
0000
0100
0001
0100
0001
1000
0010
,
1000
0000
0000
0000
,
1001
1000
0100
0010
0010
0001
0100
0010
,
0010
1000
0100
0010
0010
0100
1000
0001
,
0100
0001
1000
0010
0010
0100
0001
0010
,
0010
0100
1000
0001
0100
0010
1000
0001
,
0100
0001
0010
0100
0100
1000
0010
0100
,
0100
0001
0010
0100
0100
1000
0010
1000
,
0001
1000
0010
0100
0100
0001
1000
0100
,
0100
1000
0010
0100
0001
0010
0100
1000
,
0001
0000
2020
3030
,
1001
0001
0100
0010
0010
1000
0001
1000
,
0010
0100
0001
0010
0010
0100
1000
0010
,
0010
0100
0001
0010
0010
0100
1000
0010
,
1000
0001
0010
0100
0100
1000
0010
0100
,
0100
0001
0010
0100
0100
1000
0001
0100
,
0010
1000
0001
0100
0100
0010
1000
0100
,
0100
1000
0010
0100
0001
1000
0100
0010
,
0001
0001
1000
0100
1000
0100
0010
0001
,
0100
0000
0010
1000
0010
1000
0001
0010
,
0100
0000
1000
0001
1000
0001
0100
0010
,
1000
0000
0001
0100
0002
0000
2003
0000
,
3010
0000
0100
0010
0100
0010
1000
0001
,
0200
0000
0000
0320
0000
0000
2030
0000
,
3001
0100
0001
0100
0001
0010
0100
1000
,
0010
0100
0001
0010
0100
1000
0100
0000
,
2001
0001
0010
0010
,
0001
0001
0100
3100
,
0020
0001
0100
0130
,
0020
0230
2300
0000
,
3001
0100
0010
1000
,
1000
0100
0010
0001
,
0100
0010
1000
0001
,
0001
0010
0100
1000
,
1002
0000
0000
0000
,
0000
0000
0000
0000
,
0203
0000
0000
0000
,
0000
0000
0000
0000
,
0320
0000
0000
0000
,
0000
0000
0000
0000
,
2030
0000
0000
0000
,
0000
0000
0000
0000
,
3001
0000
0000
0000
0000
0000
0000
0100
,
0100
0000
0000
0000
0000
0000
0010
1000
,
1010
0000
0000
0000
0000
0000
0000
0011
,
0000
1001
0000
0001
0100
0000
0000
0100
,
0001
0010
0001
0010
0001
0010
0001
0010
,
0100
1000
0100
1000
0100
1000
0100
1000
,
0010
0100
0001
1000
0200
0000
0020
0000
,
0330
0000
0000
0000
,
1100
1000
0001
0000
0001
1000
0000
1000
,
0010
0100
0001
0000
0001
0100
0000
0100
,
0010
1000
0100
0000
0100
1000
0000
1000
,
0100
0010
0001
0000
0001
0010
0100
1000
,
0010
0100
0100
0000
0001
0100
0000
0100
,
0010
1000
0001
0000
0001
1000
0000
1000
,
0010
0100
0001
0000
0001
0100
0000
0100
,
0002
0000
0000
0000
2000
0000
0003
0000
3020
0000
0000
0000
0130
0000
0000
0010
0000
0000
1000
0000
0000
0001
0000
0000
,
1000
0100
0010
0000
0010
0100
0000
0100
,
1000
0001
0010
0000
0010
0001
1000
0001
,
0100
0010
1000
0000
1000
0010
0100
0000
,
0100
0010
1000
0000
1000
0100
0010
0001
,
0100
0001
0100
0001
0100
0001
0100
0001
,
1000
0010
0100
0001
0010
0100
1000
0010
,
0200
0000
0302
0023
,
0130
0000
0000
0110
,
1001
0000
0000
0000
;

//---------------dance-single - ----------------
#NOTES:
     dance-single:
     :
     Easy:
     4:
     0.381955,0.406234,0.027635,0.151992,0.000000,361.000000,4.000000,22.000000,0.000000,0.000000,0.000000,0.381955,0.406234,0.027635,0.151992,0.000000,361.000000,4.000000,22.000000,0.000000,0.000000,0.000000:
// measure 0
0000
0000
0000
0000
,  // measure 1
0000
0000
0000
0000
,  // measure 2
0000
0000
0000
0000
,  // measure 3
0000
0000
0000
0000
,  // measure 4
0000
0000
0000
0000
,  // measure 5
0000
0000
0000
0000
,  // measure 6
1001
0001
0001
0001
,  // measure 7
0100
0100
0100
0100
,  // measure 8
0010
0010
0010
0010
,  // measure 9
1000
1000
1000
1000
,  // measure 10
0100
0010
0100
0010
,  // measure 11
0001
1000
0001
1000
,  // measure 12
0010
0100
0001
1000
,  // measure 13
0100
0010
0001
1000
,  // measure 14
0001
0100
0010
1000
,  // measure 15
0100
0010
0001
0100
,  // measure 16
0002
0000
2000
0000
,  // measure 17
3003
0000
0000
0000
,  // measure 18
1001
0000
0001
0000
0100
0000
0010
1000
,  // measure 19
0010
0000
0100
0000
0001
0000
0010
0100
,  // measure 20
0010
0000
0100
0000
1000
0000
0001
0100
,  // measure 21
0001
0000
1000
0000
0010
0100
0010
0100
,  // measure 22
0001
0000
0010
0000
0100
0000
1000
0010
,  // measure 23
1000
0000
0001
0000
0100
0000
0001
0010
,  // measure 24
0001
0000
1000
0000
0010
0000
0100
0001
,  // measure 25
0100
0010
1000
1000
,  // measure 26
1000
0000
0100
0000
0010
0000
0001
1000
,  // measure 27
0001
0000
0010
0000
0100
0000
1000
0010
,  // measure 28
1000
0000
0001
0000
0100
0000
0010
1000
,  // measure 29
0010
0000
0100
0000
0001
1000
0001
1000
,  // measure 30
0100
0000
0010
0000
0001
0000
0100
0010
,  // measure 31
0100
0000
0001
0000
1000
0000
0100
0010
,  // measure 32
0100
0000
1000
0000
0001
0000
0100
0010
,  // measure 33
0100
0000
0000
0000
,  // measure 34
1000
0001
0100
0001
0000
0001
0100
0001
,  // measure 35
0000
0001
0100
0001
0010
0000
0100
0000
,  // measure 36
1000
0010
0100
0010
0000
0010
0100
0010
,  // measure 37
1000
0001
0100
0001
,  // measure 38
0010
0100
1000
0100
0000
0100
1000
0100
,  // measure 39
0000
0100
1000
0100
0010
0000
0001
0000
,  // measure 40
1000
0001
0010
0001
0000
0001
0010
0001
,  // measure 41
0200
0000
0000
0000
,  // measure 42
0300
0000
2002
3003
,  // measure 43
0001
1000
0010
1000
0100
0000
0010
0000
,  // measure 44
0001
0100
0010
0100
0000
0100
0010
0100
,  // measure 45
0001
1000
0010
0100
,  // measure 46
0001
1000
0100
1000
0000
1000
0100
1000
,  // measure 47
0000
1000
0100
1000
0010
0000
0100
0000
,  // measure 48
0001
0010
0100
0010
0000
0010
0100
0010
,  // measure 49
0001
1000
0001
1000
,  // measure 50
0001
0000
0100
0000
0010
0000
1000
0001
,  // measure 51
1000
0000
0100
0000
0010
0000
0001
0100
,  // measure 52
0001
0000
1000
0000
0010
0000
0100
0010
,  // measure 53
0100
0000
0001
0000
1000
0010
1000
0010
,  // measure 54
0100
0000
0001
0000
1000
0000
0010
0100
,  // measure 55
0002
0000
0000
2003
0000
0000
3020
0000
,  // measure 56
0130
0100
0100
0100
,  // measure 57
0001
0001
0002
1003
,  // measure 58
1000
0100
0010
0001
,  // measure 59
1000
0010
0100
0001
,  // measure 60
1000
0001
0100
0010
,  // measure 61
2000
3002
0023
0000
,  // measure 62
0130
1000
0100
1000
,  // measure 63
0010
0100
0010
0100
,  // measure 64
0001
0010
0001
0010
,  // measure 65
0100
1000
0010
0100
,  // measure 66
0002
0000
0000
0000
,  // measure 67
0000
0000
0000
0000
,  // measure 68
0203
0000
0000
0000
,  // measure 69
0000
0000
0000
0000
,  // measure 70
0320
0000
0000
0000
,  // measure 71
0000
0000
0000
0000
,  // measure 72
2030
0000
0000
0000
,  // measure 73
0000
0000
0000
0000
,  // measure 74
3001
0000
0000
0000
0000
0000
0000
1000
,  // measure 75
0001
0000
0000
0000
0000
0000
0100
0001
,  // measure 76
0100
0000
0000
0000
0000
0000
0000
0010
,  // measure 77
0000
0010
0000
1000
0001
0000
0000
0010
,  // measure 78
0100
0100
0100
0100
,  // measure 79
1000
1000
1000
1000
,  // measure 80
0001
0010
0200
2000
,  // measure 81
3300
0000
0000
0000
,  // measure 82
1001
0001
0001
0001
,  // measure 83
0100
0000
0100
0000
0100
0000
0100
0010
,  // measure 84
1000
1000
1000
1000
,  // measure 85
0001
0001
0002
0103
,  // measure 86
0010
0100
0010
0000
0010
0000
0010
0000
,  // measure 87
1000
0000
1000
0000
1000
0000
1000
0001
,  // measure 88
0100
0100
0100
0100
,  // measure 89
0020
0000
0000
0000
2000
3030
0000
0000
,  // measure 90
0001
0001
0001
0001
,  // measure 91
1000
1000
1000
1000
,  // measure 92
0010
0010
0010
0010
,  // measure 93
0100
0100
0200
0300
,  // measure 94
0001
0001
1000
1000
,  // measure 95
0001
0001
0100
0100
,  // measure 96
0010
1000
0001
0010
,  // measure 97
0100
0000
0000
1000
,  // measure 98
0001
0000
0000
0000
;
