#TITLE:Squid Melody;
#SUBTITLE:[Blue Version];
#ARTIST:The Living Tombstone;
#TITLETRANSLIT:;
#SUBTITLETRANSLIT:;
#ARTISTTRANSLIT:;
#GENRE:;
#CREDIT:vincentw;
#BANNER:[Qualifier] - Squid Melody [Blue Version].png;
#BACKGROUND:[Qualifier] - Squid Melody [Blue Version]-bg.png;
#LYRICSPATH:[Qualifier] - Squid Melody [Blue Version].lrc;
#CDTITLE:cdtitle.png;
#MUSIC:[Qualifier] - Squid Melody [Blue Version].ogg;
#OFFSET:0.000000;
#SAMPLESTART:92.539017;
#SAMPLELENGTH:12.549019;
#SELECTABLE:YES;
#BPMS:0.000000=153.000000
,136.000000=76.500000
,152.000000=153.000000
;
#STOPS:114.000000=0.392000,
121.000000=0.392000,
128.000000=0.392000,
135.000000=0.393000,
286.000000=0.392000,
293.000000=0.392000,
300.000000=0.392000,
307.000000=0.392000
;
#BGCHANGES:;
#KEYSOUNDS:;
#ATTACKS:;

//---------------dance-single - ----------------
#NOTES:
     dance-single:
     C 01 X 02:
     Beginner:
     1:
     0.097918,0.144523,0.015064,0.195836,0.000000,91.000000,89.000000,2.000000,26.000000,0.000000,0.000000,0.097918,0.144523,0.015064,0.195836,0.000000,91.000000,89.000000,2.000000,26.000000,0.000000,0.000000:
// measure 0
0000
0000
0000
0000
,  // measure 1
0000
0000
0000
0000
,  // measure 2
0000
0000
0000
0000
,  // measure 3
1000
0000
0000
0000
,  // measure 4
0000
0000
0000
0000
,  // measure 5
0010
0000
0000
0000
,  // measure 6
0000
0000
0000
0000
,  // measure 7
0100
0000
0000
0000
,  // measure 8
0000
0000
0000
0000
,  // measure 9
0001
0000
0000
0000
,  // measure 10
0000
0000
0000
0000
,  // measure 11
1000
0000
0000
0000
,  // measure 12
1000
0000
0000
0000
,  // measure 13
0001
0000
0000
0000
,  // measure 14
0001
0000
0000
0000
,  // measure 15
0100
0000
0000
0000
,  // measure 16
0100
0000
0000
0000
,  // measure 17
0010
0000
0000
0000
,  // measure 18
0010
0000
0000
0000
,  // measure 19
0110
0000
0000
0000
,  // measure 20
0000
0000
0000
0000
,  // measure 21
0001
0000
0000
0000
,  // measure 22
1000
0000
0000
0000
,  // measure 23
0002
0000
0000
0000
,  // measure 24
0003
0000
0000
0000
,  // measure 25
0010
0000
0000
0000
,  // measure 26
0100
0000
0000
0000
,  // measure 27
2000
0000
0000
0000
,  // measure 28
0000
0000
3000
0020
,  // measure 29
0000
0000
0000
0000
,  // measure 30
0000
0030
0200
0000
,  // measure 31
0000
0000
0000
0000
,  // measure 32
0300
0002
0000
0000
,  // measure 33
0000
0000
0000
0003
,  // measure 34
0010
0000
0020
0030
,  // measure 35
0100
0000
0200
0300
,  // measure 36
1000
0000
0002
0003
,  // measure 37
0001
0000
2000
3000
,  // measure 38
0001
0000
0001
0000
,  // measure 39
0002
0000
0003
0000
,  // measure 40
1000
0000
1000
0000
,  // measure 41
2000
0000
3000
0000
,  // measure 42
0010
0000
0010
0000
,  // measure 43
0200
0000
0300
0000
,  // measure 44
0100
0000
0100
0000
,  // measure 45
0020
0000
0030
0000
,  // measure 46
1000
0000
1000
0000
,  // measure 47
0001
0000
0001
0000
,  // measure 48
1000
0000
1000
0000
,  // measure 49
0001
0000
1000
0000
,  // measure 50
0010
0000
0010
0000
,  // measure 51
0100
0000
0100
0000
,  // measure 52
0010
0000
0100
0000
,  // measure 53
0020
0000
0000
0030
,  // measure 54
0110
0000
0100
0000
,  // measure 55
0200
0000
0000
0300
0000
0000
0000
0000
,  // measure 56
0001
0000
0001
0000
,  // measure 57
0002
0000
0003
0000
,  // measure 58
1000
0000
1000
0000
,  // measure 59
2000
0000
0000
3000
0000
0000
0000
0000
,  // measure 60
0010
0000
0010
0000
,  // measure 61
0020
0000
0030
0000
,  // measure 62
1000
0000
1000
0000
,  // measure 63
0200
0000
0000
0300
0000
0000
0000
0000
,  // measure 64
0010
0000
0010
0000
,  // measure 65
0002
0000
0003
0000
,  // measure 66
1000
0000
0010
0000
,  // measure 67
2000
0000
0000
3000
0000
0000
0000
0000
,  // measure 68
0001
0000
0100
0000
,  // measure 69
0002
0000
0003
0000
,  // measure 70
2000
0000
0000
0000
,  // measure 71
3000
0000
1000
0200
,  // measure 72
0000
0000
0000
0300
,  // measure 73
0000
0100
0020
0000
,  // measure 74
0000
0000
0030
0000
,  // measure 75
0010
0002
0000
0000
,  // measure 76
0000
0003
0000
0001
;

//---------------dance-single - ----------------
#NOTES:
     dance-single:
     C 03 X 04:
     Easy:
     3:
     0.216281,0.317951,0.067789,0.203368,0.000000,201.000000,192.000000,9.000000,27.000000,0.000000,0.000000,0.216281,0.317951,0.067789,0.203368,0.000000,201.000000,192.000000,9.000000,27.000000,0.000000,0.000000:
// measure 0
0000
0000
0000
0000
,  // measure 1
0000
0000
0000
0000
,  // measure 2
0000
0000
0000
0000
,  // measure 3
1000
0000
0000
0000
,  // measure 4
0100
0000
0000
0000
,  // measure 5
0010
0000
0000
0000
,  // measure 6
0001
0000
1001
0000
,  // measure 7
1000
0000
0000
0000
,  // measure 8
0001
0000
0000
0000
,  // measure 9
0010
0000
0000
0000
,  // measure 10
0100
0000
0110
0000
,  // measure 11
0010
0000
0010
0000
,  // measure 12
0001
0000
0001
0000
,  // measure 13
1000
0000
1000
0000
,  // measure 14
0100
0000
0110
0000
,  // measure 15
0001
0000
0100
0000
,  // measure 16
0010
0000
1000
0000
,  // measure 17
0001
0000
0010
0000
,  // measure 18
0100
0100
0200
0300
,  // measure 19
1001
0000
1000
0000
,  // measure 20
0020
0000
0000
0030
0000
0000
0000
0000
,  // measure 21
0100
0000
0001
0000
,  // measure 22
0020
0000
0031
0000
,  // measure 23
1000
0000
0010
0000
,  // measure 24
0200
0000
0000
0300
0000
0000
0000
0000
,  // measure 25
0010
0000
1000
0000
,  // measure 26
0001
0001
0100
0000
,  // measure 27
0002
0000
0023
0000
,  // measure 28
0230
0000
1300
2000
,  // measure 29
0000
3200
0000
0320
,  // measure 30
0000
0031
0002
0000
,  // measure 31
0203
0000
0320
0000
,  // measure 32
1030
2000
0000
3020
,  // measure 33
0000
0230
0000
0301
,  // measure 34
0001
0000
1000
0000
0001
1000
0001
0000
,  // measure 35
0010
0000
0100
0000
0010
0100
0010
0000
,  // measure 36
0001
0000
0010
0000
0001
0100
0001
0000
,  // measure 37
1000
0000
0100
0000
1000
0010
1000
0000
,  // measure 38
0001
1000
0001
0000
,  // measure 39
0100
0010
0100
0000
,  // measure 40
0001
1000
0001
0000
,  // measure 41
0010
0000
0022
0033
,  // measure 42
0001
0100
0001
0000
,  // measure 43
1000
0100
1000
0000
,  // measure 44
0001
0010
0001
0000
,  // measure 45
0100
0000
0202
0303
,  // measure 46
0001
1000
0010
0000
,  // measure 47
0010
1000
0001
0000
,  // measure 48
0100
0001
1000
0000
,  // measure 49
0100
0000
2200
3300
,  // measure 50
1000
0010
1000
0000
,  // measure 51
0010
0100
0001
0000
,  // measure 52
0010
0001
0100
0000
,  // measure 53
0001
1000
0010
0010
,  // measure 54
1010
0000
1000
0000
,  // measure 55
0002
0000
0000
1003
0000
0000
0000
0000
,  // measure 56
0001
0000
0010
0000
,  // measure 57
0100
1000
0200
0000
,  // measure 58
1300
0000
0001
0000
,  // measure 59
2000
0000
0000
3010
0000
0000
0000
0000
,  // measure 60
0010
0000
1000
0000
,  // measure 61
0100
0010
0001
0000
,  // measure 62
0001
0010
0001
0000
,  // measure 63
0020
0000
0000
0130
0000
0000
0000
0000
,  // measure 64
0100
1000
0001
0000
,  // measure 65
0100
0001
1000
0000
,  // measure 66
0010
1000
0010
0000
,  // measure 67
0200
0000
0000
0310
0000
0000
0000
0000
,  // measure 68
1000
0001
0010
0000
,  // measure 69
0001
1000
0010
0000
,  // measure 70
1000
0100
0010
0001
,  // measure 71
0010
0100
1000
0001
,  // measure 72
0100
0010
1000
0010
,  // measure 73
0100
0001
1000
0010
,  // measure 74
0100
0010
1000
0001
,  // measure 75
0010
0001
0010
0100
,  // measure 76
0010
0001
1000
1001
;

//---------------dance-single - ----------------
#NOTES:
     dance-single:
     C 06 X 09:
     Medium:
     6:
     0.376608,0.433570,0.060257,0.143111,0.090386,350.000000,342.000000,8.000000,19.000000,0.000000,0.000000,0.376608,0.433570,0.060257,0.143111,0.090386,350.000000,342.000000,8.000000,19.000000,0.000000,0.000000:
// measure 0
0000
0000
0000
0000
,  // measure 1
0000
0000
0000
0000
,  // measure 2
0000
0000
0000
0000
,  // measure 3
0001
0100
0001
0000
,  // measure 4
1000
0100
1000
0000
,  // measure 5
0001
1000
0001
0000
,  // measure 6
0100
0010
0110
0110
,  // measure 7
1000
0010
1000
0000
,  // measure 8
0001
0010
0001
0000
,  // measure 9
0100
0010
1000
0001
,  // measure 10
0010
0100
1001
1001
,  // measure 11
0001
0010
0100
0100
,  // measure 12
1000
0010
0100
0100
,  // measure 13
0001
0010
0100
1000
,  // measure 14
0010
1000
1010
0011
,  // measure 15
0001
0010
1000
0010
,  // measure 16
0001
1000
0010
0100
,  // measure 17
0001
0100
1000
0100
,  // measure 18
0001
0100
0001
0100
0002
0000
2003
0000
,  // measure 19
3001
1000
0010
0100
,  // measure 20
0002
0000
0000
0103
0000
0010
0000
0010
,  // measure 21
1000
0001
0010
0100
,  // measure 22
1000
0010
1000
1000
,  // measure 23
0001
0010
0100
1000
,  // measure 24
0020
0000
0000
0130
0000
0001
0000
0001
,  // measure 25
1000
0100
1000
0001
,  // measure 26
1000
0000
0010
0100
0010
0000
1000
0000
,  // measure 27
0001
0000
0000
0001
0000
0000
0000
0000
0010
0000
0000
0010
0000
0000
0000
0000
,  // measure 28
0100
0000
0000
0100
0000
0000
0000
0000
1000
0000
0000
0000
0001
0000
0000
0001
,  // measure 29
0000
0000
0000
0000
0100
0000
0000
0100
0000
0000
0000
0000
0010
0000
0000
0010
,  // measure 30
0000
0000
0000
0000
1000
0000
0000
0000
0010
0000
0000
0100
0000
0000
0000
0000
,  // measure 31
0001
0000
0000
1000
0000
0000
0000
0000
0100
0000
0000
0010
0000
0000
0000
0000
,  // measure 32
0001
0000
0000
0000
1000
0000
0000
0010
0000
0000
0000
0000
0001
0000
0000
0010
,  // measure 33
0000
0000
0000
0000
1000
0000
0000
0100
0000
0000
1000
0000
0001
0000
0000
0000
,  // measure 34
1000
0100
0010
0000
0001
0100
0010
0000
,  // measure 35
1000
0001
0010
0000
0001
0010
0100
1000
,  // measure 36
0010
0100
0010
0000
1000
0001
1000
0000
,  // measure 37
0010
0100
0001
0010
1000
0010
0002
0000
,  // measure 38
0003
1000
0000
1000
0000
0100
0000
0100
,  // measure 39
0000
0010
0000
0010
0000
0100
0000
0100
,  // measure 40
0000
1000
0000
1000
0000
0010
0000
0010
,  // measure 41
0000
0100
0000
0001
0200
0000
0302
0000
,  // measure 42
0003
0010
0000
0010
0000
0100
0000
0010
,  // measure 43
0000
0001
0000
0001
0000
1000
0000
0010
,  // measure 44
0000
1000
0000
0100
0000
0010
0000
0100
,  // measure 45
0000
1000
0000
0010
2000
0000
3020
0000
,  // measure 46
1030
0000
0100
0000
1000
0010
1000
0000
,  // measure 47
0001
0000
0010
0100
0010
0000
0001
0000
,  // measure 48
1000
0000
0001
0000
1000
0100
0001
0000
,  // measure 49
0100
1000
1100
0101
,  // measure 50
0001
0000
0010
0000
0100
1000
0100
0000
,  // measure 51
1000
0000
0010
0100
0001
0000
1000
0000
,  // measure 52
0001
0000
0010
0000
1000
0010
0001
0000
,  // measure 53
1000
0100
1000
0100
2000
0000
3020
0000
,  // measure 54
1030
0010
1000
0100
,  // measure 55
1000
0010
1000
0100
0000
0010
0000
0010
,  // measure 56
0001
0100
0010
0100
,  // measure 57
0001
0100
0001
0100
0020
0000
2030
0000
,  // measure 58
3100
0010
0001
0010
,  // measure 59
0100
0010
0001
0010
0000
0001
0000
0001
,  // measure 60
1000
0010
0100
0001
,  // measure 61
1000
0010
1000
0010
0200
0000
0302
0000
,  // measure 62
1003
0100
0010
0001
,  // measure 63
1000
0100
0010
0001
0000
1000
0000
1000
,  // measure 64
0001
0100
0010
1000
,  // measure 65
0001
0100
0010
1000
0002
0000
2003
0000
,  // measure 66
3100
0001
0100
0010
,  // measure 67
0001
1000
0010
1000
0000
0100
0000
0100
,  // measure 68
1000
0000
0010
0000
0100
0000
0001
0010
,  // measure 69
0100
1000
0001
0100
0020
0000
0230
0000
,  // measure 70
0301
0000
0000
1000
0000
0000
0001
0000
0100
0000
0000
0010
0000
0000
0100
0000
,  // measure 71
0001
0000
0000
1000
0000
0000
0001
0000
0100
0000
0000
0000
0001
0000
0000
0010
,  // measure 72
0000
0000
0001
0000
0100
0000
0000
0001
0000
0000
0100
0000
0010
0000
0000
1000
,  // measure 73
0000
0000
0010
0000
1000
0000
0000
0000
0100
0000
0000
1000
0000
0000
0010
0000
,  // measure 74
0100
0000
0000
0001
0000
0000
0010
0000
0100
0000
0000
1000
0000
0000
0001
0000
,  // measure 75
0010
0000
0000
0000
0100
0000
0000
1000
0000
0000
0001
0000
0100
0000
0000
0001
,  // measure 76
0000
0000
1000
0000
0010
0000
0000
0001
0000
0000
0010
0000
1000
0000
0000
0000
;

//---------------dance-single - ----------------
#NOTES:
     dance-single:
     C 09 X 13:
     Hard:
     9:
     0.597193,0.838235,0.354012,0.030129,0.214667,555.000000,508.000000,47.000000,4.000000,0.000000,0.000000,0.597193,0.838235,0.354012,0.030129,0.214667,555.000000,508.000000,47.000000,4.000000,0.000000,0.000000:
// measure 0
0000
0000
0000
0000
,  // measure 1
0000
0000
0000
0000
,  // measure 2
0000
0000
0000
0000
,  // measure 3
1000
0100
0010
0100
,  // measure 4
1000
0001
0010
0001
,  // measure 5
1000
0010
0100
0001
,  // measure 6
0010
0100
0110
1001
,  // measure 7
0001
0100
0010
0100
,  // measure 8
0001
0010
1000
0010
,  // measure 9
0100
1000
0010
0100
,  // measure 10
0001
0000
0010
0000
0101
0000
1010
1000
,  // measure 11
0010
0100
0010
0000
1000
0001
1000
0000
,  // measure 12
0001
0010
0100
0000
1000
0010
0100
0000
,  // measure 13
0001
1000
0100
0000
0010
0001
1000
0000
,  // measure 14
0010
1000
0001
0100
0011
0000
1100
0000
,  // measure 15
0001
0100
1000
0000
1000
0100
0001
0000
,  // measure 16
1000
0100
0001
0100
1000
0000
0010
0000
,  // measure 17
0100
0001
0010
1000
0010
0001
0100
0100
,  // measure 18
0001
0001
0001
0001
1100
0000
1001
0000
,  // measure 19
0110
0001
1000
0000
0110
1000
0001
0000
,  // measure 20
1000
0100
0010
0001
0000
1010
0000
0101
,  // measure 21
0001
0010
1000
0000
0001
0100
1000
0000
,  // measure 22
0001
0100
0010
0100
0001
1000
1000
0001
,  // measure 23
1000
0010
0200
0000
0301
0010
0200
0000
,  // measure 24
0301
1000
0010
0001
0000
0011
0000
1100
,  // measure 25
1000
0010
0100
0001
0020
0000
1030
0010
,  // measure 26
0100
0000
0010
0000
0001
0000
1000
0000
0020
0000
0000
0000
1030
0100
1000
0100
,  // measure 27
1000
0000
0000
0010
0000
0000
0100
0000
1000
0000
0000
0100
0000
0000
0010
0000
,  // measure 28
1000
0000
0000
0100
0000
0000
0010
0000
0001
0000
0000
0000
0001
0000
0000
0100
,  // measure 29
0000
0000
0010
0000
0001
0000
0000
0010
0000
0000
0100
0000
0001
0000
0000
0010
,  // measure 30
0000
0000
0100
0000
1000
0000
0000
0000
1000
0000
0000
0010
0000
0000
0100
0000
,  // measure 31
0001
0000
0000
0010
0000
0000
1000
0000
0001
0000
0000
0100
0000
0000
1000
0000
,  // measure 32
0001
0000
0000
0000
0001
0000
0000
0100
0000
0000
0010
0000
1000
0000
0000
0100
,  // measure 33
0000
0000
0001
0000
1000
0000
0000
0010
0000
0000
0001
0000
1000
0000
0000
0000
,  // measure 34
1000
0000
0000
0100
0000
0000
0010
0000
0001
0000
0000
0000
0100
0000
0000
0000
0001
0000
0000
0010
0000
0000
0100
0000
1000
0000
0000
0000
0010
0000
0000
0000
,  // measure 35
1000
0000
0000
0010
0000
0000
0100
0000
0001
0000
0000
0000
0010
0000
0000
0000
1000
0000
0010
0000
0100
0000
0000
0000
1000
0000
0010
0000
0100
0000
0000
0000
,  // measure 36
1000
0000
0000
0100
0000
0000
0010
0000
0100
0000
0001
0000
0100
0000
0000
0000
0001
0000
0000
0010
0000
0000
0100
0000
0010
0000
1000
0000
0010
0000
0000
0000
,  // measure 37
0100
0000
0100
0000
0010
0000
0001
0000
1000
0000
0010
0000
0100
0000
1000
0000
0001
0000
1000
0000
0001
0000
0010
0000
1000
0000
0000
0000
0001
0000
0010
0100
,  // measure 38
1000
0001
0001
0100
0010
0010
1000
0001
,  // measure 39
1000
0010
1000
0100
0001
0100
1000
0000
,  // measure 40
0001
1000
1000
0010
0100
0100
1000
0100
,  // measure 41
0001
1000
0100
0001
0101
0000
1100
0000
,  // measure 42
1000
0010
0010
0100
0001
0001
1000
0100
,  // measure 43
0001
1000
0010
0001
1000
1000
0100
0000
,  // measure 44
0010
0001
0001
0100
1000
1000
0001
0010
,  // measure 45
0100
0001
0010
0100
0110
0000
1001
1001
,  // measure 46
1000
0000
0010
0000
0100
0000
0001
0000
0010
0000
0100
0000
1000
0000
0100
0010
,  // measure 47
0100
1000
0010
0001
0010
1000
0001
0000
,  // measure 48
1000
0000
0010
0000
0100
0000
1000
0000
0100
0000
0100
0000
0001
0000
0100
0010
,  // measure 49
1000
0100
0010
1000
1010
0000
0011
0000
,  // measure 50
0001
0000
0010
0000
0001
0000
1000
0001
1000
0000
0100
0000
1000
0000
0100
0000
,  // measure 51
1000
0000
0010
0000
1000
0000
0010
0100
0010
0000
0100
0000
0001
0000
0000
0000
,  // measure 52
1000
0100
0100
0010
0001
0001
0010
0100
,  // measure 53
1000
0010
0100
0001
1010
0010
0101
0001
,  // measure 54
1001
0100
0010
0000
1001
0010
0100
0000
,  // measure 55
1001
1000
0100
0010
0000
0101
0000
0011
,  // measure 56
0010
0001
0100
0100
0010
0010
1000
0010
,  // measure 57
0001
0000
0010
0000
0100
0000
0010
0000
1000
0000
0001
0000
0001
0000
1000
0010
,  // measure 58
0100
0001
1000
0001
0010
1000
0001
1000
,  // measure 59
0010
0100
1000
0010
0000
1010
0000
1100
,  // measure 60
0100
0001
0100
0001
0100
1000
0100
1000
,  // measure 61
0001
0010
0100
1000
0001
0001
0100
0100
,  // measure 62
0101
0010
1000
0000
1010
0100
0001
0000
,  // measure 63
0010
0100
1000
0001
0000
0110
0000
1000
,  // measure 64
1100
0010
0001
0000
0011
0100
1000
0000
,  // measure 65
0010
0000
0100
0000
0001
0000
0010
0000
0100
0000
1000
0000
1000
0000
0100
1000
,  // measure 66
0001
0100
0010
0100
1000
0100
0010
0100
,  // measure 67
0001
0010
1000
0010
0000
1001
0000
0110
,  // measure 68
1000
0010
0010
0100
0010
0010
0001
0010
,  // measure 69
1000
0000
0100
0000
0001
0000
0100
0000
1000
0000
0010
1000
0010
1000
0010
1000
,  // measure 70
0010
0000
0000
0100
0000
0000
1000
0000
0100
0000
0000
0001
0000
0000
0010
0000
,  // measure 71
1000
0000
0000
0001
0000
0000
0100
0000
1100
0000
0000
0000
0100
0000
0000
0010
,  // measure 72
0000
0000
0001
0000
0100
0000
0000
1000
0000
0000
0100
0000
0001
0000
0000
1000
,  // measure 73
0000
0000
0010
0000
0110
0000
0000
0000
0010
0000
0000
1010
0000
0000
1000
0000
,  // measure 74
0001
0000
0000
0101
0000
0000
0100
0000
0001
0000
0000
1100
0000
0000
1000
0000
,  // measure 75
0101
0000
0000
0000
1000
0000
0000
1100
0000
0000
0100
0000
0010
0000
0000
0011
,  // measure 76
0000
0000
0001
0000
1001
0000
0000
0110
0000
0000
0001
0000
1000
0000
0000
0000
;
