#TITLE:Sonata;
#SUBTITLE:(Sanxion7 Remix);
#ARTIST:Penny;
#TITLETRANSLIT:;
#SUBTITLETRANSLIT:;
#ARTISTTRANSLIT:;
#GENRE:;
#CREDIT:Axis;
#BANNER:Sonata (Sanxion7 Remix)-bn.png;
#BACKGROUND:Sonata (Sanxion7 Remix)-bg.png;
#LYRICSPATH:;
#CDTITLE:;
#MUSIC:Sonata (Sanxion7 Remix).ogg;
#OFFSET:-0.040;
#SAMPLESTART:30.262;
#SAMPLELENGTH:14.222;
#SELECTABLE:YES;
#BPMS:0.000=135.000;
#STOPS:;
#TIMESIGNATURES:0.000=4=4
;
#BGCHANGES:;
#KEYSOUNDS:;

//---------------dance-single - ----------------
#NOTES:
     dance-single:
     :
     Beginner:
     1:
     0.102,0.131,0.062,0.049,0.000,87.000,9.000,7.000,0.000,0.000,0.000,0.102,0.131,0.062,0.049,0.000,87.000,9.000,7.000,0.000,0.000,0.000:
0000
0000
0000
0000
,
1001
0000
0000
0000
,
0000
0000
0000
0000
,
0010
0000
0000
0000
,
0000
0000
0000
0000
,
0100
0000
0000
0000
,
0100
0000
0000
0000
,
0001
0000
0000
0000
,
0002
0000
0003
0000
,
1000
0000
0000
0000
,
1000
0000
0000
0000
,
0001
0000
0000
0000
,
0001
0000
0000
0000
,
0100
0000
0000
0000
,
0100
0000
0000
0000
,
0010
0000
0000
0000
,
0010
0000
0000
0000
,
1000
0000
1000
0000
,
1000
0000
0000
0000
,
0100
0000
0100
0000
,
0100
0000
0000
0000
,
0010
0000
0010
0000
,
0010
0000
0000
0000
,
0001
0000
0001
0000
,
0001
0000
0000
0000
,
1000
0000
0000
0000
,
1001
0000
0000
0000
,
0010
0000
0000
0000
,
0110
0000
0000
0000
,
1000
0000
0000
0000
,
1001
0000
0000
0000
,
0100
0000
0000
0000
,
0110
0000
0000
0000
,
0002
0000
0000
0000
,
0003
0000
0000
0000
,
2000
0000
0000
0000
,
3000
0000
0000
0000
,
0020
0000
0000
0000
,
0030
0000
0000
0000
,
0200
0000
0000
0000
,
0300
0000
0000
0000
,
0001
0000
0001
0000
,
0001
0000
0000
0000
,
1000
0000
1000
0000
,
1000
0000
0000
0000
,
0100
0000
0100
0000
,
0100
0000
0000
0000
,
0010
0000
0010
0000
,
0010
0000
0010
0000
,
0001
0000
0000
0000
,
1000
0000
1000
0000
,
1000
0000
0000
0000
,
0001
0000
0001
0000
,
0001
0000
0000
0000
,
0100
0000
0100
0000
,
0100
0000
0000
0000
,
0010
0000
0010
0000
,
0010
0000
0100
0000
,
0010
0000
0000
0000
,
1000
0000
0001
0000
,
1000
0000
0000
0000
,
0100
0000
0010
0000
,
0100
0000
0000
0000
,
1000
0000
0001
0000
,
1000
0000
0000
0000
,
0010
0000
0000
0000
,
0110
0000
0000
0000
,
1000
0000
0000
0000
,
1001
0000
0000
0000
,
0100
0000
0000
0000
,
0110
0000
0000
0000
,
1000
0000
0000
0000
,
1001
0000
0000
0000
,
0001
0002
0000
0003
,
0000
0000
0000
0000
,
1000
2000
0000
3000
;

//---------------dance-single - ----------------
#NOTES:
     dance-single:
     :
     Easy:
     3:
     0.160,0.131,0.021,0.076,0.000,147.000,3.000,11.000,0.000,0.000,0.000,0.160,0.131,0.021,0.076,0.000,147.000,3.000,11.000,0.000,0.000,0.000:
0000
0000
0000
0000
,
1001
0000
0001
0000
,
1000
0000
0000
0000
,
0100
0000
0010
0000
,
0100
0000
0000
0000
,
1000
0000
0001
0000
,
1000
0000
0000
0000
,
0010
0000
0100
0000
,
0020
0000
0000
0000
,
1030
0000
1000
0000
,
1000
0000
0000
0000
,
0001
0000
0001
0000
,
0001
0000
0000
0000
,
0100
0000
0100
0000
,
0100
0000
0000
0000
,
0010
0000
0010
0000
,
0010
0000
0000
0000
,
1000
0001
1000
0000
,
0001
0000
0100
0000
,
0001
1000
0001
0000
,
1000
0000
0100
0000
,
1000
0001
1000
0000
,
0001
0000
0010
0000
,
0001
1000
0001
0000
,
1000
0000
0010
0000
,
0100
0100
0000
0100
,
0000
0100
0000
0100
,
0001
0001
0000
0001
,
0000
0001
0000
0001
,
1000
1000
0000
1000
,
0000
1000
0000
1000
,
0010
0010
0000
0010
,
0000
0010
0000
0010
,
0210
0000
0000
0000
,
0300
0000
0000
0000
,
0002
0000
0000
0000
,
0003
0000
0000
0000
,
2001
0000
0000
0000
,
3000
0000
0000
0000
,
0020
0000
0000
0000
,
0030
0000
0010
0010
,
0020
0000
0100
0000
,
0130
0000
0000
0000
,
0002
0000
1000
0000
,
1003
0000
0000
0000
,
0200
0000
0010
0000
,
0310
0000
0000
0000
,
0002
0000
0010
0000
,
0013
0000
0000
0000
,
0001
1000
0001
0000
,
0100
0000
0100
0000
,
0001
1000
0001
0000
,
0010
0000
0010
0000
,
0100
1000
0100
0000
,
0010
0000
0010
0000
,
0001
0100
0001
0000
,
0010
0000
0010
0000
,
0001
1000
0100
0000
,
0010
0000
0010
0000
,
0001
1000
0010
0000
,
0100
0000
0100
0000
,
0001
0010
0100
0000
,
1000
0000
1000
0000
,
0001
0100
0010
0000
,
1000
0000
1000
0000
,
0001
0001
0000
0001
,
0000
0001
0000
0001
,
1000
1000
0000
1000
,
0000
1000
0000
1000
,
0010
0010
0000
0010
,
0000
0010
0000
0010
,
0100
0100
0000
0100
,
0000
0100
0000
0100
,
0001
2000
0000
3000
,
0000
0000
0000
0000
0000
0000
0000
0001
,
0001
2000
0000
3000
;

//---------------dance-single - ----------------
#NOTES:
     dance-single:
     :
     Medium:
     5:
     0.270,0.345,0.042,0.132,0.000,247.000,6.000,19.000,0.000,0.000,0.000,0.270,0.345,0.042,0.132,0.000,247.000,6.000,19.000,0.000,0.000,0.000:
0000
0000
0000
0000
,
1001
0001
1000
0000
,
0001
0000
0001
0000
,
0100
0010
0100
0000
,
0010
0000
0010
0000
,
1000
0001
1000
0001
,
0100
0000
0100
0000
,
0001
1000
0001
1000
,
0200
0000
0000
0000
,
0310
0001
0010
0000
,
0001
0000
0001
0000
,
1000
0100
1000
0000
,
0100
0000
0100
0000
,
1000
0010
1000
0000
,
0010
0000
0010
0000
,
0100
0001
0100
0000
,
0001
0000
0001
0000
,
0010
0000
0001
0010
0001
0000
0000
0000
,
0010
0000
0010
0000
,
0100
0000
1000
0100
1000
0000
0000
0000
,
0100
0000
0100
0000
,
1000
0000
0010
1000
0010
0000
0000
0000
,
1000
0000
1000
0000
,
0001
0000
0100
0001
0100
0000
0000
0000
,
0001
0000
0001
0000
,
1000
0001
1000
0000
0001
1000
0001
1000
,
0002
0000
0003
0000
,
0100
0010
0100
0000
0010
0100
0010
0100
,
0020
0000
0030
0000
,
1000
0001
1000
0000
0001
1000
0001
1000
,
0002
0000
0003
0000
,
0100
0010
0100
0000
0010
0100
0010
0100
,
0020
0000
0030
0000
,
0010
0001
0100
0010
,
0200
0000
0300
0000
,
0010
1000
0100
0010
,
0200
0000
0300
0000
,
0010
0001
1000
0010
,
2000
0000
3000
0000
,
0010
1000
0001
0010
,
0002
0000
0003
0000
,
1000
0010
0001
0010
,
2000
0000
0001
0000
,
3001
0010
1000
0010
,
0002
0000
1000
0000
,
1003
0100
0001
0100
,
2000
0000
0001
0000
,
3001
0100
1000
0100
,
0002
0000
1000
1000
,
1003
0000
0100
1000
0100
0000
0000
0000
,
1000
0000
1100
0000
,
0001
0000
0100
0001
0100
0000
0000
0000
,
0001
0000
0101
0000
,
1000
0000
0010
1000
0010
0000
0000
0000
,
1000
0000
1010
0000
,
0001
0000
0010
0001
0010
0000
0000
0000
,
0001
0000
0011
0000
,
0001
0000
0010
0001
0010
0001
0000
0000
,
0010
0000
0010
0000
,
0100
0000
1000
0100
1000
0100
0000
0000
,
1000
0000
1000
0000
,
0010
0000
1000
0010
1000
0010
0000
0000
,
1000
0000
1000
0000
,
0001
0000
0100
0001
0100
0001
0000
0000
,
0100
0000
0100
0000
,
0001
1000
0001
0000
0100
0010
0100
0010
,
0200
0000
0010
0000
,
0301
1000
0001
0000
0010
0100
0010
0100
,
0020
0000
0100
0000
,
0031
1000
0001
0000
0100
0010
0100
0010
,
0200
0010
0010
0010
,
0301
1000
0001
0000
0010
0100
0010
0100
,
0020
0100
0100
0130
,
0110
0000
0010
0100
0010
0100
0000
0200
,
0000
0000
0000
0000
0300
0000
0000
1000
,
0001
0000
1000
0001
1000
0001
0000
0002
,
0000
0000
0003
0000
;

//---------------dance-single - ----------------
#NOTES:
     dance-single:
     :
     Hard:
     8:
     0.492,0.451,0.035,0.021,0.305,488.000,5.000,3.000,0.000,0.000,0.000,0.492,0.451,0.035,0.021,0.305,488.000,5.000,3.000,0.000,0.000,0.000:
0000
0000
0000
0000
,
1001
0000
0001
0000
0001
0100
0001
0100
,
0000
0001
0000
0001
1000
0001
0000
0000
,
1000
0000
1000
0000
1000
0100
1000
0100
,
0000
1000
0000
1000
0001
1000
0000
0000
,
0010
0000
0010
0000
0010
0100
0001
0100
,
0010
1000
0100
0010
,
0100
0000
0100
0000
0100
0010
0001
0010
,
0200
0000
0000
0000
,
1300
0000
0001
0010
0100
1000
0000
0001
,
1000
0000
0001
0000
1000
0010
1000
0000
,
0001
0000
1000
0010
0100
0001
0000
1000
,
0001
0000
1000
0000
0001
0010
0001
0000
,
1000
0000
0001
0010
0100
1000
0000
0001
,
1000
0000
0001
0000
1000
0010
1000
0000
,
0001
0000
1000
0010
0100
0001
0000
1000
,
0001
0000
1000
0000
0001
0010
0001
0000
,
1000
0000
0001
0000
0010
0001
0010
0000
0001
0000
1000
0000
0000
0000
0010
0000
,
1000
0000
0010
0000
0000
0000
1000
0000
0001
0010
0001
0000
1000
0000
0000
0000
,
0001
0000
1000
0000
0010
1000
0010
0000
1000
0000
0001
0000
0000
0000
0010
0000
,
0001
0000
0010
0000
0000
0000
0001
0000
1000
0010
1000
0000
0001
0000
0000
0000
,
1000
0000
0001
0000
0100
0001
0100
0000
0001
0000
1000
0000
0000
0000
0100
0000
,
1000
0000
0100
0000
0000
0000
1000
0000
0001
0100
0001
0000
1000
0000
0000
0000
,
0001
0000
1000
0000
0100
1000
0100
0000
1000
0000
0001
0000
0000
0000
0100
0000
,
0001
0000
0100
0000
0000
0000
0001
0000
1000
0100
1000
0000
0001
0000
0000
0000
,
1000
0000
0000
0100
1000
0000
0000
0000
0001
0000
0000
0010
0001
0000
0001
0000
,
1000
0000
0010
0000
0100
0010
0000
0000
0100
0000
0010
0000
0100
0000
0010
0000
,
1000
0000
0000
0100
1000
0000
0000
0000
0001
0000
0000
0010
0001
0000
0001
0000
,
1000
0000
0100
0000
0010
0100
0000
0000
0010
0000
0100
0000
0010
0000
0100
0000
,
0010
0000
0000
0001
0100
0000
0000
0000
0010
0000
0000
1000
0100
0000
0100
0000
,
0010
0000
0001
0000
1000
0010
0000
0000
1000
0000
0100
0000
0010
0000
0001
0000
,
0010
0000
0000
0001
0100
0000
0000
0000
0010
0000
0000
1000
0100
0000
0100
0000
,
0010
0000
0001
0000
1000
0100
0000
0000
1000
0000
0010
0000
0100
0000
0001
0000
,
0100
0000
0000
0010
0100
0000
0000
0010
0100
0000
0000
0010
0100
0000
0000
0010
,
0100
0001
0010
0100
,
1000
0000
0000
0100
0010
0000
0000
0100
0010
0000
0000
0100
0010
0000
0000
0100
,
0010
0001
0100
0010
,
0100
0000
0000
0010
0100
0000
0000
0010
0100
0000
0000
0010
0100
0000
0000
0010
,
0100
0001
0010
0100
,
1000
0000
0000
0100
0010
0000
0000
0100
0010
0000
0000
0100
0010
0000
0000
0100
,
0010
0000
0000
0000
0001
0000
0000
0000
0100
0000
0000
0000
0001
1000
0001
1000
,
0001
0000
0000
0001
0010
0000
0000
0010
0100
0000
0000
0100
1000
0000
0000
1000
,
0010
0100
0001
1000
,
0001
0000
0000
0001
0010
0000
0000
0010
0100
0000
0000
0100
1000
0000
0000
1000
,
0010
0100
0001
1000
,
0001
0000
0000
0001
0100
0000
0000
0100
0010
0000
0000
0010
1000
0000
0000
1000
,
0100
0010
0001
1000
,
0001
0000
0000
0001
0100
0000
0000
0100
0010
0000
0000
0010
1000
0000
0000
1000
,
0100
0000
0000
0000
0010
0000
0000
0000
0001
0000
0000
0000
1000
0100
1000
0100
,
1000
0000
0001
0000
1000
0100
1000
0000
0001
0000
0010
0000
0000
0000
0000
0000
,
0001
0000
0001
0000
0000
0000
0000
0000
1000
0010
0000
0000
1010
0000
0000
0000
,
0001
0000
1000
0000
0001
0100
0001
0000
1000
0000
0010
0000
0000
0000
0000
0000
,
1000
0000
1000
0000
0000
0000
0000
0000
0001
0010
0000
0000
0011
0000
0000
0000
,
1000
0000
0001
0000
1000
0010
1000
0000
0001
0000
0100
0000
0000
0000
0000
0000
,
0001
0000
0001
0000
0000
0000
0000
0000
1000
0100
0000
0000
1100
0000
0000
0000
,
0001
0000
1000
0000
0001
0010
0001
0000
1000
0000
0100
0000
0000
0000
0000
0000
,
1000
0000
1000
0000
0000
0000
0000
0000
0001
0100
0000
0000
0101
0000
0000
0000
,
0001
0000
1000
0000
0100
0010
0001
0000
1000
0000
0001
0000
0000
0000
0100
0000
,
0010
0000
0100
0000
0000
0000
0001
0000
1000
0010
0100
0000
0001
0000
0000
0000
,
1000
0000
0001
0000
0100
0010
1000
0000
0001
0000
1000
0000
0000
0000
0100
0000
,
0010
0000
0100
0000
0000
0000
1000
0000
0001
0010
0100
0000
1000
0000
0000
0000
,
0001
0000
1000
0000
0010
0100
0001
0000
1000
0000
0001
0000
0000
0000
0010
0000
,
0100
0000
0010
0000
0000
0000
0001
0000
1000
0100
0010
0000
0001
0000
0000
0000
,
1000
0000
0001
0000
0010
0100
1000
0000
0001
0000
1000
0000
0000
0000
0010
0000
,
0100
0000
0010
0000
0000
0000
1000
0000
0001
0100
0010
0000
1000
0000
0000
0000
,
0001
0000
0000
1000
0100
0000
0000
0000
1000
0000
0000
0001
0100
0000
0100
0000
,
0001
0000
1000
0000
0001
0010
0000
0000
0001
0000
0100
0000
0001
0000
0100
0000
,
0001
0000
0000
1000
0010
0000
0000
0000
1000
0000
0000
0001
0010
0000
0010
0000
,
0001
0000
1000
0000
0001
0100
0000
0000
0001
0000
0010
0000
0001
0000
0010
0000
,
0100
0000
0000
1000
0010
0000
0000
0000
0100
0000
0000
0001
0010
0000
0010
0000
,
0100
0000
1000
0000
0001
0100
0000
0000
0001
0000
0010
0000
0100
0000
1000
0000
,
0100
0000
0000
1000
0010
0000
0000
0000
0100
0000
0000
0001
0010
0000
0010
0000
,
0100
0000
1000
0000
0001
0010
0000
0000
0001
0000
0100
0000
0010
0000
1000
0000
,
0001
0000
0000
0000
1000
0100
1000
0100
1000
0000
0100
0000
0000
0000
0200
0000
,
0000
0000
0000
0000
0300
0000
0000
1000
,
1000
0000
0000
0000
0001
0100
0001
0100
0001
0000
0100
0000
0000
0000
0200
0000
,
0000
0000
0300
0000
;

//---------------dance-single - ----------------
#NOTES:
     dance-single:
     :
     Challenge:
     9:
     0.646,0.558,0.021,0.021,0.573,645.000,3.000,3.000,0.000,0.000,0.000,0.646,0.558,0.021,0.021,0.573,645.000,3.000,3.000,0.000,0.000,0.000: // measure 1
0000
0000
0000
0000
,  // measure 2
1001
0000
0001
0000
0001
0100
0001
0010
,  // measure 3
0000
0010
0000
0010
0100
0010
0000
0010
,  // measure 4
0001
0000
0001
0000
0001
0010
0001
0100
,  // measure 5
0000
0100
0000
0100
0010
0100
0000
0100
,  // measure 6
0001
0000
1000
0000
0100
0010
0001
0010
,  // measure 7
0100
0000
1000
0001
0100
0001
1000
0000
,  // measure 8
0001
0000
1000
0000
0010
1000
0001
1000
,  // measure 9
0020
0000
0000
0000
0100
0000
0000
0100
0000
0000
0130
0000
0010
0100
0010
0100
,  // measure 10
0010
0000
1000
0001
1000
0100
0000
0010
,  // measure 11
0001
1000
0000
0001
0100
0010
1000
0000
,  // measure 12
0100
0000
1000
0001
1000
0010
0000
0100
,  // measure 13
0001
1000
0000
0001
0010
0100
1000
0000
,  // measure 14
0001
0000
0010
0001
1000
0001
0000
0100
,  // measure 15
0010
1000
0000
0001
0010
0100
1000
0000
,  // measure 16
0001
0000
0100
0001
1000
0001
0000
0010
,  // measure 17
0100
1000
0000
0001
0100
0010
1000
0000
,  // measure 18
0001
0000
1000
0000
0100
0010
0100
0010
0100
0000
1000
0000
0000
0001
0100
0000
,  // measure 19
0010
0000
0100
0000
0000
0000
0001
0000
0010
0100
0010
0100
0010
0000
0001
0000
,  // measure 20
1000
0000
0001
0000
0100
0010
0100
0010
0100
0000
0001
0000
0000
1000
0100
0000
,  // measure 21
0010
0000
0100
0000
0000
0000
1000
0000
0010
0100
0010
0100
0010
0000
1000
0000
,  // measure 22
0001
0000
0100
0000
0010
1000
0010
1000
0010
0000
0100
0000
0000
0001
1000
0000
,  // measure 23
0100
0000
1000
0000
0000
0000
0001
0000
1000
0100
1000
0100
1000
0000
0001
0000
,  // measure 24
1000
0000
0010
0000
0100
0001
0100
0001
0100
0000
0010
0000
0000
1000
0001
0000
,  // measure 25
0010
0000
0001
0000
0000
0000
1000
0000
0001
0010
0001
0010
0001
0000
1000
0000
,  // measure 26
0010
0000
1000
0001
1000
0000
0001
0000
0010
0000
0001
1000
0001
0000
0100
0000
,  // measure 27
0100
0000
0010
0000
0100
0010
1000
0000
0001
0000
0001
0000
0001
0000
0001
0010
,  // measure 28
0001
0000
1000
0001
1000
0000
0001
0000
0100
0000
0001
1000
0001
0000
0010
0000
,  // measure 29
0010
0000
0100
0000
0010
0100
1000
0000
0001
0000
0001
0000
0001
0000
0001
1000
,  // measure 30
0010
0000
1000
0100
1000
0000
0001
0000
0010
0000
0001
0100
0001
0000
1000
0000
,  // measure 31
1000
0000
0001
0000
1000
0100
0010
0000
0001
0000
0001
0000
0001
0000
0001
1000
,  // measure 32
0100
0000
1000
0010
1000
0000
0001
0000
0100
0000
0001
0010
0001
0000
1000
0000
,  // measure 33
1000
0000
0001
0000
1000
0010
0100
0000
0001
0000
0001
0000
0001
1000
0001
1000
,  // measure 34
0001
0000
0000
1000
0100
0000
0000
0010
0100
0000
0000
1000
0100
0000
0000
0010
,  // measure 35
0100
0000
0000
1000
0001
1000
0001
0000
0100
0001
0100
0000
0010
0100
0010
0000
,  // measure 36
1000
0000
0000
0001
0100
0000
0000
0010
0100
0000
0000
0001
0100
0000
0000
0010
,  // measure 37
0100
0000
0000
0001
1000
0001
1000
0000
0100
1000
0100
0000
0010
0100
0010
0000
,  // measure 38
0011
0000
0000
0001
0010
0000
0000
0100
0010
0000
0000
0001
0010
0000
0000
0100
,  // measure 39
0010
0000
0000
0001
1000
0001
1000
0000
0010
1000
0010
0000
0100
0010
0100
0000
,  // measure 40
0001
0000
0000
1000
0010
0000
0000
0100
0010
0000
0000
1000
0010
0000
0000
0100
,  // measure 41
0010
0000
0000
1000
0001
1000
0001
0000
1000
0100
1000
0100
1000
0100
1000
0100
,  // measure 42
1000
0000
0000
1000
0001
0000
0000
0001
0100
0000
0000
0100
0010
0000
0000
0010
,  // measure 43
1000
0000
0000
1000
0100
1000
0100
0000
0010
0100
0010
0000
0001
0010
0001
0000
,  // measure 44
1000
0000
0000
1000
0001
0000
0000
0001
0010
0000
0000
0010
0100
0000
0000
0100
,  // measure 45
1000
0000
0000
1000
0010
1000
0010
0000
0100
0010
0100
0000
0001
0100
0001
0000
,  // measure 46
1000
0000
0000
1000
0001
0000
0000
0001
0010
0000
0000
0010
0100
0000
0000
0100
,  // measure 47
1000
0000
0000
1000
0100
1000
0100
0000
0010
0100
0010
0000
0001
0010
0001
0000
,  // measure 48
1000
0000
0000
1000
0001
0000
0000
0001
0100
0000
0000
0100
0010
0000
0000
0010
,  // measure 49
1000
0000
0000
1000
0010
1000
0010
0000
0100
0001
0100
0001
0100
0001
0100
0001
,  // measure 50
0100
0000
0001
0000
1000
0100
1000
0100
1000
0000
0001
0000
0000
0000
0000
0000
,  // measure 51
0010
0000
0001
0000
0000
0100
0000
0000
0001
0010
0001
0000
0100
0000
0000
0000
,  // measure 52
0010
0000
1000
0000
0001
0010
0001
0010
0001
0000
1000
0000
0000
0000
0000
0000
,  // measure 53
0100
0000
1000
0000
0000
0010
0000
0000
1000
0100
1000
0000
0010
0000
0000
0000
,  // measure 54
0100
0000
0001
0000
1000
0010
1000
0010
1000
0000
0001
0000
0000
0000
0000
0000
,  // measure 55
0100
0000
0001
0000
0000
0010
0000
0000
0001
0100
0001
0000
0010
0000
0000
0000
,  // measure 56
0100
0000
1000
0000
0001
0100
0001
0100
0001
0000
1000
0000
0000
0000
0000
0000
,  // measure 57
0010
0000
1000
0000
0000
0100
0000
0000
1000
0010
1000
0000
0001
0000
0000
0000
,  // measure 58
1001
0000
0001
0000
0100
0010
1000
0010
0100
0000
0001
0000
0000
1000
0100
0000
,  // measure 59
0010
0000
0100
0000
0000
0000
1000
0000
0010
0100
0001
0100
0010
0000
1000
0000
,  // measure 60
0001
0000
1000
0000
0100
0010
0001
0010
0100
0000
1000
0000
0000
0001
0100
0000
,  // measure 61
0010
0000
0100
0000
0000
0000
0001
0000
0010
0100
1000
0100
0010
0000
0001
0000
,  // measure 62
1000
0000
0100
0000
0010
0001
1000
0001
0010
0000
0100
0000
0000
1000
0001
0000
,  // measure 63
0100
0000
0001
0000
0000
0000
1000
0000
0001
0100
0010
0100
0001
0000
1000
0000
,  // measure 64
0001
0000
0010
0000
0100
1000
0001
1000
0100
0000
0010
0000
0000
0001
1000
0000
,  // measure 65
0010
0000
1000
0000
0000
0000
0001
0000
1000
0010
0100
0010
1000
0000
0001
0000
,  // measure 66
0010
0000
0001
1000
0010
0000
1000
0000
0100
0000
1000
0001
0100
0000
0010
0000
,  // measure 67
0010
0000
0100
0000
0010
0100
0001
0000
0010
0000
0010
0000
0010
0000
0010
0100
,  // measure 68
0010
0000
0001
1000
0100
0000
1000
0000
0010
0000
1000
0001
0010
0000
0100
0000
,  // measure 69
0100
0000
0010
0000
0100
0010
0001
0000
0010
0000
0010
0000
0010
0000
0010
0001
,  // measure 70
1000
0000
0001
0010
0100
0000
1000
0000
0100
0000
1000
0010
0100
0000
0001
0000
,  // measure 71
0001
0000
1000
0000
0001
0010
0100
0000
1000
0000
1000
0000
1000
0000
1000
0001
,  // measure 72
0010
0000
0001
0100
0010
0000
1000
0000
0010
0000
1000
0100
0010
0000
0001
0000
,  // measure 73
0001
0000
1000
0000
0001
0100
0010
0000
1000
0000
1000
0000
1000
0001
1000
0001
,  // measure 74
1000
0000
0010
0000
0100
0001
0100
0001
0100
0000
0010
0000
0000
0000
0020
0000
,  // measure 75
0000
0000
0000
0000
0000
0000
0000
1000
,  // measure 76
1030
0000
0100
0000
0010
0001
0010
0001
0010
0000
0100
0000
0000
0000
0200
0000
,  // measure 77
0000
0000
0300
0000
;
