#TITLE:Slluuddggee;
#SUBTITLE:;
#ARTIST:Hommarju;
#TITLETRANSLIT:;
#SUBTITLETRANSLIT:;
#ARTISTTRANSLIT:;
#GENRE:;
#CREDIT:;
#BANNER:Slluuddggee.png;
#BACKGROUND:Slluuddggee-bg.png;
#LYRICSPATH:;
#CDTITLE:;
#MUSIC:Slluuddggee.ogg;
#OFFSET:-0.080000;
#SAMPLESTART:23.359138;
#SAMPLELENGTH:10.689651;
#SELECTABLE:YES;
#DISPLAYBPM:83.000000:174.000000;
#BPMS:0.000000=83.000000
,1.000000=85.000000
,2.000000=100.000000
,3.000000=107.000000
,4.000000=112.000000
,5.000000=117.000000
,6.000000=122.000000
,7.000000=124.999992
,8.000000=135.000000
,9.000000=140.000000
,10.000000=145.000000
,11.000000=147.500000
,12.000000=150.000000
,14.000000=152.500000
,16.000000=155.000000
,18.000000=160.000000
,20.000000=165.000000
,22.000000=170.000000
,24.000000=171.000000
,26.000000=172.000000
,28.000000=173.000000
,30.000000=174.000000
,154.000000=83.000000
,155.000000=90.000000
,156.000000=100.000000
,157.000000=105.000000
,158.000000=110.000000
,159.000000=120.000000
,160.000000=124.999992
,161.000000=130.000000
,162.000000=135.000000
,163.000000=140.000000
,164.000000=145.000000
,166.000000=150.000000
,170.000000=155.000000
,172.000000=160.000000
,173.000000=165.000000
,174.000000=166.000000
,175.000000=167.000000
,176.000000=168.000000
,177.000000=169.000000
,178.000000=170.000000
,180.000000=171.000000
,182.000000=172.000000
,184.000000=173.000000
,186.000000=174.000000
;
#STOPS:60.000000=1.034000,
121.000000=1.034000,
188.000000=0.345000,
191.000000=0.345000,
194.000000=0.345000,
211.000000=1.034000
;
#BGCHANGES:;
#KEYSOUNDS:;
#ATTACKS:;

//---------------dance-single - ----------------
#NOTES:
     dance-single:
     :
     Hard:
     9:
     0.735669,0.884809,0.697973,0.051071,0.297915,605.000000,523.000000,82.000000,6.000000,0.000000,0.000000,0.735669,0.884809,0.697973,0.051071,0.297915,605.000000,523.000000,82.000000,6.000000,0.000000,0.000000:
// measure 0
0100
0000
0010
0000
1000
0010
0100
0001
,  // measure 1
1000
0100
0010
0100
0010
0001
0100
0010
,  // measure 2
1000
0000
0010
0000
0100
0001
1000
0001
,  // measure 3
0010
0100
1000
0100
0010
0001
0100
0010
,  // measure 4
1000
0000
0010
0000
0100
0010
1000
0001
,  // measure 5
0100
0001
0010
0100
1000
0100
0010
0001
,  // measure 6
0010
0000
0001
0000
0100
0010
1000
0010
,  // measure 7
0100
0001
1000
0001
0010
0100
1000
0100
,  // measure 8
0010
0001
0010
0000
0100
1000
0010
0000
,  // measure 9
1000
0000
0010
0000
0100
0000
0000
0000
0001
0000
0000
0100
0001
0000
1000
0000
,  // measure 10
0001
0010
0100
0000
1000
0100
0010
0000
,  // measure 11
0001
0000
0010
0000
0100
0000
0000
0000
1000
0000
0000
0100
0010
0000
0100
0000
,  // measure 12
1000
0000
0000
0010
1000
0000
0010
0000
0100
0000
0000
0001
0100
0000
0001
0000
,  // measure 13
0010
0000
0000
0100
0010
0000
0001
0000
1000
0000
0000
0010
1000
0000
0001
0000
,  // measure 14
1000
0010
0100
0010
1000
0001
0100
0001
,  // measure 15
0021
0000
0130
0000
0011
0000
0100
0001
,  // measure 16
1000
0100
0010
0100
1000
0010
0100
0010
,  // measure 17
1000
0001
0100
0000
0101
0000
1000
0010
,  // measure 18
0100
0000
0001
0000
1000
0000
0000
0001
0010
0000
0100
0000
1000
0000
0100
0000
,  // measure 19
0010
0001
1000
0000
1010
0000
0010
1000
,  // measure 20
0001
0100
0001
0010
0100
1000
0100
0010
,  // measure 21
0001
0100
0001
0000
0101
0000
0100
0010
,  // measure 22
1000
0000
0001
0000
0100
0000
0000
0001
0010
0000
0100
0000
1000
0000
0100
0000
,  // measure 23
0010
0000
0011
0000
1000
0010
1010
0000
,  // measure 24
0001
0100
0101
0000
1000
0001
1001
0000
,  // measure 25
0100
0010
0110
0000
0011
0000
0110
0000
,  // measure 26
1100
2002
0000
3000
,  // measure 27
1003
0000
0000
0000
1000
0000
0000
0010
0100
0000
0001
0000
0010
0000
0000
0100
,  // measure 28
0010
0000
0001
0000
0100
0000
0000
0010
1000
0000
0010
0000
0100
0000
0000
0001
,  // measure 29
0010
0100
1000
0100
0010
0001
0100
0010
,  // measure 30
1000
0000
0001
0000
1001
0000
0000
0000
1001
0000
0000
0000
1100
0000
0000
1100
,  // measure 31
0000
0000
0110
0000
0000
0110
0000
0000
0011
0000
0000
0011
0000
0000
0101
0000
,  // measure 32
0000
0101
0000
0000
0001
0000
1000
0000
0001
0000
0000
0000
1010
0000
0000
1010
,  // measure 33
0000
0000
0110
0000
0000
0110
0000
0000
0101
0000
0000
0101
0000
0000
0011
0000
,  // measure 34
0000
0011
0000
0000
0010
0000
0100
0000
0010
0000
0000
0000
0110
0000
0000
0110
,  // measure 35
0000
0000
1100
0000
0000
1100
0000
0000
1001
0000
0000
1001
0000
0000
0101
0000
,  // measure 36
0000
0101
0000
0000
0100
0000
0010
0000
1000
0000
0000
0000
1010
0000
0000
1010
,  // measure 37
0000
0000
0101
0000
0000
0101
0000
0000
0011
0000
0000
0011
0000
0000
0110
0000
,  // measure 38
0000
0110
0000
0000
0010
0000
0001
0000
1000
0000
0000
0000
0001
0000
0100
0000
,  // measure 39
0010
1000
0100
0010
0001
0100
0010
1000
,  // measure 40
0100
1000
0010
0100
0001
0000
0100
0001
,  // measure 41
1000
0001
0010
0100
1000
0100
0010
0001
,  // measure 42
0100
0001
0010
0100
1000
0000
0100
1000
,  // measure 43
0010
0100
0010
1000
0001
0100
0001
0010
,  // measure 44
0100
1000
0100
0010
0100
0000
0010
0001
,  // measure 45
0100
0001
1000
0001
0100
0010
1000
0010
,  // measure 46
0100
0000
0001
0000
0010
0000
0100
0000
1000
0100
1000
0100
1000
0100
1000
0100
,  // measure 47
1000
0000
0000
0000
0001
1000
0001
1000
0001
1000
0001
1000
0001
0000
0000
0000
,  // measure 48
0100
0001
0100
0001
0100
0001
0100
0001
0100
0000
0000
0000
0010
0100
0010
0100
,  // measure 49
0010
0100
0010
0100
0010
0000
0000
0000
0000
0000
0000
0000
0100
0000
0000
0001
,  // measure 50
0100
0000
0001
0000
1000
0000
0000
0100
1000
0000
0100
0000
0010
0000
0000
0001
,  // measure 51
0010
0000
0100
0000
1000
0000
0000
0100
0010
0000
0001
0000
0010
0000
0001
0000
,  // measure 52
0100
0010
1000
0001
0100
0001
1002
0000
,  // measure 53
0103
0000
0010
1000
0010
0100
0001
0010
,  // measure 54
0100
1000
0100
0010
0001
0100
0001
0010
,  // measure 55
0100
0000
0010
0100
1000
0001
0100
0010
,  // measure 56
1000
0000
0000
0010
0100
0000
0001
0000
0010
0000
0100
0000
1000
0000
0100
0000
,  // measure 57
0010
0000
0001
0100
0010
1000
0010
0100
,  // measure 58
0001
1000
0001
0010
0100
1000
0100
0010
,  // measure 59
0001
0000
0100
0010
1000
0010
0100
0001
,  // measure 60
0010
0000
0000
0100
1000
0000
0010
0000
0100
0000
0010
0000
1000
0000
0001
0000
,  // measure 61
0100
0000
0000
0000
0101
0000
0000
0101
0000
0000
0110
0000
0000
0110
0000
0000
,  // measure 62
1010
0000
0000
1010
0000
0000
1100
0000
0000
1100
0000
0000
1000
0000
0001
0000
,  // measure 63
1000
0000
0000
0000
0101
0000
0000
0101
0000
0000
0011
0000
0000
0011
0000
0000
,  // measure 64
0110
0000
0000
0110
0000
0000
1100
0000
0000
1100
0000
0000
1000
0000
0010
0000
,  // measure 65
1000
0000
0000
0000
1010
0000
0000
1010
0000
0000
0110
0000
0000
0110
0000
0000
,  // measure 66
0101
0000
0000
0101
0000
0000
0011
0000
0000
0011
0000
0000
0010
0000
0100
0000
,  // measure 67
1000
0000
0000
0000
1100
0000
0000
1100
0000
0000
0110
0000
0000
0110
0000
0000
,  // measure 68
0011
0000
0000
0011
0000
0000
1001
0000
0000
1001
0000
0000
0100
0000
0010
0000
,  // measure 69
2000
0001
0001
0001
,  // measure 70
0001
0001
0001
3001
,  // measure 71
0200
0010
0010
0010
,  // measure 72
0010
0010
0010
0310
,  // measure 73
0100
0000
0000
0001
1000
0000
0001
0000
0010
0000
0000
0100
0010
0000
0100
0000
,  // measure 74
1000
0000
0000
0010
0100
0000
0010
0000
1000
0000
0000
0001
0100
0000
0001
0000
,  // measure 75
0010
0100
1000
0100
0010
0001
0100
0010
,  // measure 76
1000
0001
0100
0010
1000
0100
0010
0001
,  // measure 77
1001
0000
0000
0000
;

//---------------dance-single - ----------------
#NOTES:
     dance-single:
     :
     Easy:
     5:
     0.348987,0.327707,0.076607,0.017024,0.000000,287.000000,278.000000,9.000000,2.000000,0.000000,0.000000,0.348987,0.327707,0.076607,0.017024,0.000000,287.000000,278.000000,9.000000,2.000000,0.000000,0.000000:
// measure 0
0100
0001
1000
0100
,  // measure 1
1000
0010
0100
0001
,  // measure 2
0010
0100
0010
0001
,  // measure 3
0100
0010
1000
0100
,  // measure 4
1000
0001
0100
0010
,  // measure 5
1000
0100
1000
0100
,  // measure 6
0010
0001
0100
0010
,  // measure 7
1000
0100
0010
0001
,  // measure 8
0100
0010
1000
0100
,  // measure 9
0010
0100
0010
0001
,  // measure 10
0100
0010
1000
0100
,  // measure 11
0010
0001
0100
0010
,  // measure 12
1000
0010
0100
0001
,  // measure 13
0010
0100
1000
0100
,  // measure 14
0010
0001
1000
0010
,  // measure 15
1001
0100
0010
1000
,  // measure 16
0001
0100
0001
0010
,  // measure 17
0100
1000
0100
0010
,  // measure 18
0001
0100
0010
1000
,  // measure 19
0001
0100
0001
0010
,  // measure 20
0100
0010
0001
1000
,  // measure 21
0010
0100
0001
1000
,  // measure 22
0100
0010
0001
1000
,  // measure 23
0010
0110
0000
1001
,  // measure 24
0000
1100
0000
0011
,  // measure 25
0000
0010
0001
0100
,  // measure 26
0010
2002
0000
3003
,  // measure 27
0100
0010
1000
0010
,  // measure 28
0100
0001
1000
0100
,  // measure 29
0010
0001
0100
0010
,  // measure 30
1000
1001
0100
0001
,  // measure 31
0000
0100
0000
0000
0010
0000
0000
1000
,  // measure 32
0000
0100
1000
0010
,  // measure 33
0000
0100
0000
0000
0001
0000
0000
0010
,  // measure 34
0000
0100
0010
0001
,  // measure 35
0000
0100
0000
0000
0010
0000
0000
1000
,  // measure 36
0000
0100
1000
0010
,  // measure 37
0000
0100
0000
0000
0001
0000
0000
0010
,  // measure 38
0000
0100
1000
0100
,  // measure 39
1000
0010
0100
0001
,  // measure 40
0010
0001
0100
0010
,  // measure 41
1000
0100
1000
0010
,  // measure 42
0100
0001
0010
0100
,  // measure 43
1000
0001
0100
0010
,  // measure 44
1000
0010
0100
0001
,  // measure 45
0010
0100
1000
0100
,  // measure 46
0010
0001
0100
0100
,  // measure 47
0100
0010
0010
0010
,  // measure 48
1000
1000
1000
0001
,  // measure 49
0001
0001
0000
0100
,  // measure 50
0010
1000
0001
0100
,  // measure 51
0001
0010
0100
1000
,  // measure 52
0010
0100
0001
1001
,  // measure 53
0100
0001
0010
0100
,  // measure 54
1000
0010
0100
0010
,  // measure 55
1000
0001
0010
0100
,  // measure 56
0010
0001
0100
0001
,  // measure 57
1000
0100
1000
0010
,  // measure 58
0100
0001
0010
0001
,  // measure 59
1000
0010
0100
0001
,  // measure 60
1000
0100
0010
0001
,  // measure 61
1000
0000
0100
0000
0000
0010
0000
0000
,  // measure 62
0001
0000
0000
0100
0000
0000
0010
0000
,  // measure 63
1000
0000
0100
0000
0000
1000
0000
0000
,  // measure 64
0010
0000
0000
0100
0000
0000
0001
0000
,  // measure 65
0010
0000
0001
0000
0000
0100
0000
0000
,  // measure 66
0010
0000
0000
1000
0000
0000
0100
0000
,  // measure 67
1000
0000
0010
0000
0000
1000
0000
0000
,  // measure 68
0001
0000
0000
0100
0000
0000
0010
0000
,  // measure 69
1000
0000
0001
0000
,  // measure 70
0100
0000
0010
0000
,  // measure 71
0100
0000
0001
0000
,  // measure 72
1000
0000
0100
0000
,  // measure 73
0010
0100
0010
0001
,  // measure 74
0100
0010
1000
0100
,  // measure 75
1000
0001
0100
0010
,  // measure 76
1000
0100
0010
0001
,  // measure 77
1001
0000
0000
0000
;

//---------------dance-single - ----------------
#NOTES:
     dance-single:
     :
     Medium:
     8:
     0.589751,0.589873,0.093631,0.161726,0.170237,485.000000,474.000000,11.000000,19.000000,0.000000,0.000000,0.589751,0.589873,0.093631,0.161726,0.170237,485.000000,474.000000,11.000000,19.000000,0.000000,0.000000:
// measure 0
0100
0000
0010
0000
0100
0001
1000
0100
,  // measure 1
0010
0001
0100
0010
1000
0100
0010
0001
,  // measure 2
1000
0000
0010
0000
0100
0001
1000
0001
,  // measure 3
0010
0100
1000
0100
0010
0001
0100
0010
,  // measure 4
1000
0000
0001
0000
0100
0001
0010
0001
,  // measure 5
1000
0010
0100
0010
1000
0100
0010
0001
,  // measure 6
0100
0000
0010
0000
1000
0010
0100
0001
,  // measure 7
1000
0001
0010
0100
1000
0100
0010
0001
,  // measure 8
1000
0010
1000
0000
0010
0100
0010
0000
,  // measure 9
0100
0001
0100
0000
0001
0010
0001
0000
,  // measure 10
0010
0100
0010
0000
0100
1000
0100
0000
,  // measure 11
1000
0001
1000
0000
0001
0100
0001
0000
,  // measure 12
1000
0000
0000
0010
0000
0000
0100
0000
0001
0000
0000
1000
0000
0000
0100
0000
,  // measure 13
0010
0000
0000
0100
0000
0000
1000
0000
0010
0000
0000
0100
0000
0000
0001
0000
,  // measure 14
0010
0001
0100
0010
1000
0100
0010
0001
,  // measure 15
1000
0000
0001
0000
0100
0000
0010
1000
,  // measure 16
0010
0100
0001
1000
0001
0010
0100
1000
,  // measure 17
0100
0010
0001
0000
0100
0000
0001
0010
,  // measure 18
0001
0010
0001
0100
0010
1000
0010
0100
,  // measure 19
0001
1000
0100
0000
1000
0000
0100
1000
,  // measure 20
0100
0010
0001
1000
0010
0100
0010
1000
,  // measure 21
0001
0100
0001
0000
0100
0000
0010
1000
,  // measure 22
0010
0100
0001
1000
0001
0010
0100
1000
,  // measure 23
0100
0010
0022
0000
0033
0000
0220
0000
,  // measure 24
0330
2200
3300
2020
,  // measure 25
3030
0101
1010
1100
,  // measure 26
0011
2200
0000
3300
,  // measure 27
0001
0000
1000
0000
0010
0100
0001
0000
,  // measure 28
0010
0100
1000
0000
0100
0010
0001
0000
,  // measure 29
1000
0010
0100
0010
1000
0010
0100
0001
,  // measure 30
0010
0000
0100
0000
1000
0000
0000
0000
1001
0000
0000
0000
0001
0000
0000
0100
,  // measure 31
0000
0000
0010
0000
0000
1000
0000
0000
0100
0000
0000
0010
0000
0000
0001
0000
,  // measure 32
0000
0100
0000
0000
0010
0000
1000
0000
0100
0000
0000
0000
1000
0000
0000
0100
,  // measure 33
0000
0000
0010
0000
0000
0001
0000
0000
0100
0000
0000
0010
0000
0000
0100
0000
,  // measure 34
0000
0001
0000
0000
0010
0000
0100
0000
1000
0000
0000
0000
0100
0000
0000
1000
,  // measure 35
0000
0000
0010
0000
0000
1000
0000
0000
0100
0000
0000
0010
0000
0000
0001
0000
,  // measure 36
0000
0100
0000
0000
0001
0000
0010
0000
0100
0000
0000
0000
0010
0000
0000
0100
,  // measure 37
0000
0000
1000
0000
0000
0010
0000
0000
0100
0000
0000
0001
0000
0000
0010
0000
,  // measure 38
0000
0100
0000
0000
1000
0000
0100
0000
0010
0000
0000
0000
0001
0000
0010
0000
,  // measure 39
0100
1000
0100
0010
0001
0100
0010
1000
,  // measure 40
0001
0100
0001
0010
0100
0000
0010
0100
,  // measure 41
1000
0010
0100
0010
1000
0001
0100
0001
,  // measure 42
0010
0100
1000
0100
0010
0000
0100
0010
,  // measure 43
0001
0100
0010
1000
0010
0100
0001
1000
,  // measure 44
0001
0010
0100
1000
0100
0000
0010
0100
,  // measure 45
0010
0001
1000
0010
0100
0010
1000
0001
,  // measure 46
0100
0001
0010
0100
1000
0100
0010
0001
,  // measure 47
1000
0000
0001
1000
0010
0100
0001
0000
,  // measure 48
0100
0001
0010
0100
1000
0000
0100
1000
,  // measure 49
0010
0000
0100
0000
0002
0000
0000
0000
0000
0000
0000
0000
0103
0000
0000
0001
,  // measure 50
0000
0000
0100
0000
0010
0000
0000
1000
0000
0000
0100
0000
0010
0000
0000
0001
,  // measure 51
0000
0000
0010
0000
0100
0000
0000
1000
0000
0000
0010
0000
0100
0000
0001
0000
,  // measure 52
0010
0100
1000
0100
0010
0001
1000
0000
,  // measure 53
0001
0000
0100
0010
1000
0001
0100
0001
,  // measure 54
0010
0100
1000
0100
0010
0001
0100
0001
,  // measure 55
0010
0000
0100
1000
0100
0010
0001
1000
,  // measure 56
0010
0100
0010
1000
0001
0100
0001
0010
,  // measure 57
0100
0000
1000
0100
0010
0100
1000
0010
,  // measure 58
0100
0001
0010
0100
0010
0001
1000
0010
,  // measure 59
0100
0000
0010
0100
0001
1000
0001
0010
,  // measure 60
0100
1000
0100
0010
0001
1000
0010
0100
,  // measure 61
0001
0000
0000
0000
1000
0000
0000
0100
0000
0000
0010
0000
0000
0100
0000
0000
,  // measure 62
1000
0000
0000
0010
0000
0000
0100
0000
0000
0001
0000
0000
0010
0000
0001
0000
,  // measure 63
0100
0000
0000
0000
0010
0000
0000
0100
0000
0000
0001
0000
0000
1000
0000
0000
,  // measure 64
0100
0000
0000
0010
0000
0000
0100
0000
0000
1000
0000
0000
0010
0000
0100
0000
,  // measure 65
0001
0000
0000
0000
1000
0000
0000
0001
0000
0000
0100
0000
0000
0001
0000
0000
,  // measure 66
0010
0000
0000
0100
0000
0000
1000
0000
0000
0010
0000
0000
0100
0000
0001
0000
,  // measure 67
1000
0000
0000
0000
0100
0000
0000
1000
0000
0000
0100
0000
0000
0010
0000
0000
,  // measure 68
0001
0000
0000
0100
0000
0000
0010
0000
0000
1000
0000
0000
0010
0000
0100
0000
,  // measure 69
0002
0000
2003
0000
,  // measure 70
3020
0000
0230
0000
,  // measure 71
0302
0000
0023
0000
,  // measure 72
0230
0000
2300
0000
,  // measure 73
3001
0000
0100
0010
1000
0000
0100
1000
,  // measure 74
0010
0000
0100
0001
0010
0000
0100
0010
,  // measure 75
0001
0100
0010
1000
0010
0100
0001
0010
,  // measure 76
0100
1000
0100
0010
0001
1000
0010
0100
,  // measure 77
0110
0000
0000
0000
;

//---------------dance-single - ----------------
#NOTES:
     dance-single:
     :
     Beginner:
     2:
     0.206717,0.294936,0.042559,0.000000,0.000000,170.000000,165.000000,5.000000,0.000000,0.000000,0.000000,0.206717,0.294936,0.042559,0.000000,0.000000,170.000000,165.000000,5.000000,0.000000,0.000000,0.000000:
0010
0000
0100
0000
,
0001
0000
1000
0000
,
0100
0000
1000
0000
,
0010
0000
1000
0000
,
0001
0000
0100
0000
,
0001
0000
0010
0000
,
0100
0000
0010
0000
,
0001
0000
1000
0000
,
0010
0000
0100
0000
,
0001
0000
1000
0000
,
0100
0000
0010
0000
,
0001
0000
1000
0000
,
0010
0000
0100
0000
,
0001
0000
1000
0000
,
0100
0100
0100
0100
,
0100
0100
0000
0010
,
0000
0001
0000
0100
,
0000
0010
0000
1000
,
0000
0100
0000
1000
,
0000
0001
0000
0100
,
0000
0001
0000
0010
,
0000
0100
0000
0010
,
0000
0001
0000
1000
,
0000
0110
0000
1100
,
0000
0011
0000
1001
,
0000
0100
0100
0100
,
0100
0100
0000
0000
,
0000
0010
0000
1000
,
0000
0001
0000
0100
,
0000
0001
0001
0001
,
0001
0001
0001
0001
,
0000
0000
0100
0000
,
0000
0010
0010
0010
,
0000
0000
0100
0000
,
0000
0001
0001
0001
,
0000
0000
1000
0000
,
0000
0100
0100
0100
,
0000
0000
1000
0000
,
0000
0010
0010
0000
,
0100
0000
0001
0000
,
1000
0000
0100
0000
,
1000
0000
0010
0000
,
0100
0000
0001
0000
,
1000
0000
0100
0000
,
0010
0000
0001
0000
,
0100
0000
0010
0000
,
1000
0000
0100
0100
,
0100
0010
0010
0010
,
0001
0001
0001
1000
,
1000
1000
0000
0001
,
0000
0100
0000
0010
,
0000
1000
0000
0100
,
0100
0100
0100
0100
,
0100
0000
0010
0000
,
0001
0000
0100
0000
,
0010
0000
1000
0000
,
0100
0000
1000
0000
,
0001
0000
0100
0000
,
0001
0000
0010
0000
,
0001
0000
0100
0000
,
0010
0000
1000
0000
,
0100
0100
0000
0000
,
0010
0000
0000
0001
,
0001
0001
0000
0000
,
1000
0000
0000
0010
,
0010
0010
0000
0000
,
0100
0000
0000
0001
,
0001
0001
0000
0000
,
1000
0000
0000
0100
,
0100
0000
0000
0000
,
0010
0000
0000
0000
,
0001
0000
0000
0000
,
1000
0000
0000
0000
,
0010
0000
0100
0000
,
0001
0000
1000
0000
,
0100
0000
0010
0000
,
0001
0000
0010
0000
,
1001
0000
0000
0000
;
