#VERSION:0.81;
#TITLE:Skytoucher;
#SUBTITLE:;
#ARTIST:The Glitch Mob;
#TITLETRANSLIT:;
#SUBTITLETRANSLIT:;
#ARTISTTRANSLIT:;
#GENRE:;
#ORIGIN:;
#CREDIT:;
#BANNER:Skytoucher - The Glitch Mobbn.png;
#BACKGROUND:Skytoucher - The Glitch Mobbg.png;
#PREVIEWVID:;
#JACKET:Skytoucher - The Glitch Mobjacket.png;
#CDIMAGE:;
#DISCIMAGE:;
#LYRICSPATH:Skytoucher - The Glitch Mob.lrc;
#CDTITLE:encorerebirth.png;
#MUSIC:Skytoucher - The Glitch Mob.ogg;
#OFFSET:0.000;
#SAMPLESTART:54.218;
#SAMPLELENGTH:25.600;
#SELECTABLE:YES;
#BPMS:0.000=150.000;
#STOPS:;
#DELAYS:;
#WARPS:;
#TIMESIGNATURES:0.000=4=4;
#TICKCOUNTS:0.000=4;
#COMBOS:0.000=1;
#SPEEDS:0.000=1.000=0.000=0;
#SCROLLS:0.000=1.000;
#FAKES:;
#LABELS:0.000=Song Start;
#BGCHANGES:;
#KEYSOUNDS:;
#ATTACKS:
;

//---------------dance-single - Spork!----------------
#NOTEDATA:;
#CHARTNAME:Spork! - Beginner;
#STEPSTYPE:dance-single;
#DESCRIPTION:Spork!;
#CHARTSTYLE:;
#DIFFICULTY:Beginner;
#METER:1;
#RADARVALUES:0.112,0.174,0.137,0.152,0.000,65.000,18.000,20.000,0.000,0.000,0.000,0.000,0.000,0.112,0.174,0.137,0.152,0.000,65.000,18.000,20.000,0.000,0.000,0.000,0.000,0.000;
#CREDIT:Spork!;
#NOTES:
0000
0000
0000
0000
,
0000
0000
0000
0000
,
0000
0000
0000
0000
,
0000
0000
0000
0000
,
0000
0000
0000
0000
,
0000
0000
0000
0000
,
1000
0000
0000
0000
,
0001
0000
0000
0000
,
1000
0000
1000
0000
,
0001
0000
0001
0000
,
2002
0000
0000
0000
,
0000
0000
0000
0000
,
3000
0000
0000
0000
,
0003
0000
0000
0000
,
0220
0000
0000
0000
,
0000
0000
0000
0000
,
0030
0000
0000
0000
,
0300
0000
0000
0000
,
0010
2002
0000
0000
,
0000
0000
0000
0000
,
0003
0000
0000
0000
,
3000
0000
0000
0000
,
0010
0000
0220
0000
,
0000
0000
0000
0000
,
0300
0000
0000
0000
,
0030
0000
0000
0000
,
1000
1000
2000
0000
,
0000
0000
0000
0000
,
3010
0000
0000
0000
,
1000
0000
0000
0000
,
0001
0001
0001
0002
,
0000
0000
0000
0000
,
0103
0000
0000
0000
,
0001
0000
0000
0000
,
1001
0000
0000
0000
,
1001
0000
0000
0000
,
0110
0000
0000
0000
,
0100
0000
0010
0000
,
0110
0000
0000
0000
,
0110
0000
0000
0000
,
2002
0000
0000
0000
,
3003
0000
0000
0000
,
1001
0000
0000
0000
,
0110
0000
0000
0000
,
1001
0000
0000
0000
,
0100
0000
0000
0000
,
0110
0000
0000
0000
,
1001
0000
0000
0000
,
0220
0000
0000
0000
,
0330
0000
0000
0000
,
1000
0000
0000
0000
,
0000
0000
0000
0000
,
0001
0000
0010
0000
,
0100
0000
0100
0000
,
1000
0000
0010
0000
,
0100
0000
0100
0000
,
0001
0000
1000
0000
,
0001
0000
0001
0000
,
0010
0010
0010
0000
,
0100
0100
0100
0000
,
2002
0000
0000
0000
,
0000
0000
0000
0000
,
3003
0000
0000
0000
,
0000
0000
0000
0000
,
2002
0000
0000
0000
,
0000
0000
0000
0000
,
3003
0000
0000
0000
,
0000
0000
0000
0000
,
0200
0000
0000
0000
,
0000
0000
0000
0000
,
0310
0000
0000
0000
,
0000
0000
0000
0000
,
0020
0000
0000
0000
,
0000
0000
0000
0000
,
0130
0000
0000
0000
,
0100
0000
0000
0000
,
0100
0000
0000
0000
;

//---------------dance-single - Spork!----------------
#NOTEDATA:;
#CHARTNAME:Spork! - Expert;
#STEPSTYPE:dance-single;
#DESCRIPTION:Spork!;
#CHARTSTYLE:;
#DIFFICULTY:Challenge;
#METER:10;
#RADARVALUES:0.581,0.952,0.252,0.442,0.435,442.000,33.000,58.000,45.000,2.000,10.000,0.000,0.000,0.581,0.952,0.252,0.442,0.435,442.000,33.000,58.000,45.000,2.000,10.000,0.000,0.000;
#CREDIT:Spork!;
#NOTES:
// measure 0
0000
0000
0000
0000
,  // measure 1
0000
0000
0000
0000
,  // measure 2
0000
0000
0000
0000
,  // measure 3
0000
0000
0000
0000
,  // measure 4
0000
0000
0000
0000
,  // measure 5
0000
0000
0000
0000
,  // measure 6
0001
1000
0001
0100
0001
0010
0001
0100
0010
0000
0000
0010
0000
0000
0010
0000
,  // measure 7
1000
0001
1000
0100
1000
0010
1000
0100
0010
0000
0000
0010
0000
0000
0010
0000
,  // measure 8
0100
0100
0100
0100
0010
0010
0010
0010
,  // measure 9
0001
0100
0001
0100
0010
1000
0010
1000
0100
0010
0100
0010
0001
1000
0001
1000
,  // measure 10
0020
0000
0000
0000
0100
0000
0000
0000
1030
0000
1000
0010
0000
0010
0100
0000
,  // measure 11
0000
0000
0100
0000
0010
0100
0010
0000
1000
0000
1000
0100
0000
0100
0010
0000
,  // measure 12
0000
0000
0100
0000
0010
0100
0010
0000
0001
0000
0001
1000
0000
1000
0001
0000
,  // measure 13
0000
0000
0010
0000
0100
0010
0100
0000
0010
0000
0011
0000
1001
0000
0001
0000
,  // measure 14
0100
0000
0001
0000
0010
0001
0010
0000
0100
0000
0100
1000
0000
1000
0010
0000
,  // measure 15
0000
0000
1000
0000
0100
1000
0100
0000
0010
0000
0010
0001
0000
0001
1000
0000
,  // measure 16
0000
0000
1001
0000
0001
0100
0001
0000
0011
0000
0010
0100
0000
0100
1000
0000
,  // measure 17
0000
0000
1000
0010
0100
0001
0010
0000
0120
0000
0000
0000
0031
0000
0000
0000
,  // measure 18
1100
0000
0000
0000
2001
0000
0000
0000
3010
0000
0100
0001
0000
0001
0010
0000
,  // measure 19
0001
0000
1000
0000
0100
1000
0010
0000
0100
0000
0010
0100
0000
0100
0004
0000
,  // measure 20
0000
0000
0000
0000
0013
0100
1000
0000
0001
0000
0100
0001
0000
0001
4000
0000
,  // measure 21
0000
0000
0000
0000
3100
0010
0001
0000
1000
0000
0010
0000
0010
0100
0020
0000
,  // measure 22
0000
0000
0000
0000
0000
0000
0030
0000
0110
0000
0100
0001
0000
0010
0100
0000
,  // measure 23
1000
0000
0100
0000
0010
0100
1000
0000
0001
0000
0010
0001
0000
0100
0040
0000
,  // measure 24
0000
0000
0000
0000
0130
0001
0010
0000
0100
0000
1000
0010
0000
0010
0400
0000
,  // measure 25
0000
0000
0310
1000
0001
0000
1000
0000
0100
0000
0010
0001
1000
0000
2000
0000
,  // measure 26
0000
0000
0200
0000
0001
0000
3300
1100
,  // measure 27
0000
0100
1000
0010
1001
0100
0001
0041
,  // measure 28
0000
0000
0000
0000
0031
0010
0100
0000
1000
0000
0010
0100
0000
0100
0040
0000
,  // measure 29
0000
0000
0000
0000
1030
0100
0010
0000
0001
0000
0011
0000
1001
0000
2000
0000
,  // measure 30
0000
3002
0200
1000
,  // measure 31
0303
0100
0001
0010
1001
0010
1000
1400
,  // measure 32
0000
0000
0000
0000
0310
0100
1000
0000
0001
0000
0010
0001
0000
0001
0400
0000
,  // measure 33
0000
0000
0310
1000
0001
0000
0100
0000
0010
0000
0100
0001
1000
0000
0000
0000
,  // measure 34
10M2
0000
0010
0200
0003
0001
0010
200M
,  // measure 35
0300
3100
0001
0020
0000
0100
0000
2M00
,  // measure 36
0030
0020
3000
0002
0030
0000
0003
0101
,  // measure 37
0000
0000
0040
0000
0000
0000
1030
0001
1000
0000
0010
0000
0100
0000
0000
0000
,  // measure 38
2M01
0000
0000
0000
0100
0001
0010
020M
,  // measure 39
3000
0000
0000
0000
0000
0000
0000
0000
0010
0000
1000
0000
0010
0300
M002
0000
,  // measure 40
0000
0000
0000
0000
0100
0000
0000
0020
,  // measure 41
0003
0000
0000
0000
0000
0000
0130
1000
0010
0000
0100
0000
0010
0100
0001
1000
,  // measure 42
00M2
0100
0000
0020
0003
0001
0100
200M
,  // measure 43
0030
3010
0100
0020
0000
0002
0030
M200
,  // measure 44
0003
0000
0000
0000
1000
0000
0000
0020
,  // measure 45
0300
0000
0000
0000
0000
0000
1030
0001
0040
0000
0000
0000
0000
0000
0030
0000
,  // measure 46
21M0
0001
0000
0020
3000
1000
0100
M002
,  // measure 47
0030
0010
1003
0002
0000
0020
0003
2M00
,  // measure 48
0030
0000
0000
3000
0210
0000
0310
0001
,  // measure 49
2000
0000
0010
0000
3000
0000
0010
0100
0002
0000
1000
0000
1003
0001
1000
0001
,  // measure 50
0200
0000
0000
0000
,  // measure 51
0000
0000
0000
0300
,  // measure 52
0201
0000
0010
0300
0100
0000
0001
0000
1200
0000
0010
0300
0100
0000
1000
0000
,  // measure 53
0021
0000
0100
0030
0010
0000
0001
0000
1020
0000
0100
0030
0010
0000
1000
0000
,  // measure 54
0210
0000
1000
0300
0010
0000
0001
0000
0120
0000
1000
0030
0100
0000
0001
0000
,  // measure 55
0210
0000
1000
0300
0010
0000
0001
0000
0120
0000
1000
0030
1000
0100
1000
0100
,  // measure 56
2000
0000
0001
3000
1000
0000
0010
0000
0102
0000
0010
0003
0001
0000
0100
0000
,  // measure 57
2010
0000
0100
3000
1000
0000
0100
0000
0012
0000
0100
0003
0001
0000
0010
0000
,  // measure 58
0001
1000
0001
1000
0010
0100
0010
0100
0001
0010
0001
0010
0100
1000
0100
1000
,  // measure 59
0001
0100
0010
1000
0100
0010
0001
0100
0010
1000
0010
0100
0001
0010
0100
1000
,  // measure 60
002M
0000
0000
0000
M100
0000
0030
0100
,  // measure 61
000M
0000
0000
0000
0000
0000
0000
0000
0M00
0000
0010
0000
0000
0000
1000
0100
,  // measure 62
002M
0000
0000
0000
M000
0000
0030
0001
,  // measure 63
01M0
0000
0000
0000
0000
0000
0010
0100
M001
0000
0000
0000
0000
0000
0100
0001
,  // measure 64
20M0
0000
0000
0001
0000
0000
0000
0000
0000
0000
0000
0000
0000
0000
0000
0000
000M
0000
0000
0000
0000
0000
0000
0000
3000
0000
0000
0000
0000
0000
0000
0000
,  // measure 65
0M00
0000
0000
0000
0000
0000
0000
0000
0000
0000
0000
0000
0000
0000
0000
0000
001M
0000
1000
0000
0000
0000
0000
0100
0000
0000
0000
0000
1000
0000
0000
0000
,  // measure 66
12M0
0000
0000
0000
M000
0000
0300
1000
,  // measure 67
001M
0000
0000
0000
0000
0000
0000
0000
0M00
0000
0000
0000
0000
0000
0010
0100
,  // measure 68
M002
0000
00M0
0003
,  // measure 69
0M00
0000
00M0
0000
,  // measure 70
012M
0000
0000
0000
0000
0000
0100
0000
0030
0000
0000
0000
0001
0000
0000
0000
M000
0010
0000
0000
0001
0000
0000
0100
0000
0000
0000
0000
0000
0010
0000
1000
,  // measure 71
000M
0000
0000
0100
0000
0000
0000
0000
0000
0000
0000
0000
0000
0000
0000
0000
M000
0000
0000
0000
0000
0000
0000
0010
0000
0000
0000
0000
0000
0001
0000
0000
,  // measure 72
2M00
0000
0000
0010
0000
0000
0000
0000
0000
0000
0000
0000
0000
0000
0000
0000
00M0
0000
0000
0000
0000
0000
0000
0000
3000
0000
0000
0000
0000
0000
0000
0000
,  // measure 73
000M
0000
0000
0000
0000
0000
0000
0000
0000
0000
0000
0000
0000
0000
0000
0000
00M0
0000
0000
0000
0000
0000
0100
0000
0000
0001
0000
0000
0010
0000
0000
0000
,  // measure 74
0M02
0000
1000
0000
0000
0000
0000
0010
0000
0000
0000
0000
0000
0000
0000
0000
M000
0000
0000
0000
0000
0000
0000
0000
0003
0000
0000
0000
0010
0000
0000
0000
,  // measure 75
010M
0000
0000
0000
0000
0000
0000
0000
00M0
0000
0000
0000
0000
0000
1000
0010
,  // measure 76
020M
0000
0000
0000
,  // measure 77
0000
0000
0000
0000
,  // measure 78
0300
0000
0000
0000
;

//---------------dance-single - Spork!----------------
#NOTEDATA:;
#CHARTNAME:Spork! - Heavy;
#STEPSTYPE:dance-single;
#DESCRIPTION:Spork!;
#CHARTSTYLE:;
#DIFFICULTY:Hard;
#METER:8;
#RADARVALUES:0.460,0.535,0.244,0.396,0.099,338.000,32.000,52.000,0.000,0.000,0.000,0.000,0.000,0.460,0.535,0.244,0.396,0.099,338.000,32.000,52.000,0.000,0.000,0.000,0.000,0.000;
#CREDIT:Spork!;
#NOTES:
0000
0000
0000
0000
,
0000
0000
0000
0000
,
0000
0000
0000
0000
,
0000
0000
0000
0000
,
0000
0000
0000
0000
,
0000
0000
0000
0000
,
1000
0001
1000
0020
0000
0130
0001
0020
,
0000
0031
1000
0200
0000
0310
0001
0200
,
0001
0300
0010
0000
0001
0000
0010
0000
0100
0000
1000
0000
0100
0000
1000
0000
,
0001
0100
1000
0100
0001
1000
0100
0010
,
0210
0000
0000
0000
0310
0000
0000
0000
0100
0000
0000
1000
0000
0000
0010
0000
,
0000
0000
0010
0000
0100
0000
0001
0000
0010
0000
0000
0001
0000
0000
1000
0000
,
0000
0000
1000
0000
0100
0000
0010
0000
0001
0000
0000
0100
0000
0000
0010
0000
,
0000
0010
0100
0001
1000
0001
0001
0000
,
1000
0000
0010
0000
0100
0000
0001
0000
0010
0000
0000
0001
0000
0000
0100
0000
,
0000
0010
0100
0000
0010
0000
1000
0000
0100
0000
0000
1000
0000
0000
0001
0000
,
0000
0000
1001
0000
1000
0000
0010
0000
0110
0000
0000
0100
0000
0000
0001
0000
,
0000
1000
0001
0000
0010
0000
0100
0000
2000
0000
0000
0000
3020
0000
0000
0000
,
0130
0000
0000
0000
1001
0000
0000
0000
0100
0000
0000
0101
0000
0000
0011
0000
,
0000
0000
0010
0000
0100
0000
1000
0000
1001
0000
0000
1010
0000
0000
0110
0000
,
0000
0000
0010
0000
0100
0000
0001
0000
0011
0000
0000
0110
0000
0000
1100
0000
,
0000
0000
1000
0000
0010
0000
1000
0000
0001
0000
0001
0000
1000
0001
2000
0000
,
0000
0000
0000
0000
0000
0000
0000
0000
3010
0000
0010
1000
0000
1000
0100
0000
,
0000
0000
0100
0000
0010
0000
0001
0000
1000
0000
1000
0010
0000
0010
0100
0000
,
0000
0000
0100
0000
0010
0000
1000
0000
0001
0000
0001
0010
0000
0010
0001
0000
,
0000
0000
0001
1000
0001
0000
0100
0000
0010
0000
1000
0001
1000
0000
0020
0000
,
0000
0000
2030
0000
0200
0000
3300
1100
,
0000
0000
1000
0000
1001
0000
0001
0010
,
0000
0010
0100
1000
0010
0001
0010
0100
,
0000
0100
0001
1000
0001
1000
1000
0020
,
0000
2030
3002
0203
,
0300
0000
0001
0000
1001
0000
1000
0100
,
0000
0100
0010
0001
0100
1000
0100
0001
,
0000
0000
0001
1000
0001
0000
0100
0000
0010
0000
1000
0001
1000
0000
0000
0000
,
1200
0000
1000
1000
0000
0010
0010
0010
,
0000
0001
0001
0001
0300
0101
0000
0110
,
0000
1100
0000
2002
0000
0000
0000
3003
,
0000
0200
0000
0000
0310
1000
0001
0000
,
0201
0000
0000
0000
0010
0010
0010
0010
,
0000
0000
0000
0000
1000
1000
1000
2000
,
0300
0000
0000
3000
0110
0000
0000
0100
,
0002
0000
0000
0003
2000
0000
0200
3000
0020
0300
0200
0030
2000
0300
0002
3000
,
0020
0003
0100
0000
0000
0000
0001
0000
0000
0000
0100
0000
0100
0000
0100
0000
,
0000
1000
1000
1000
0030
1010
0000
0210
,
0000
0000
0000
0000
0310
0000
0000
0012
,
0000
0000
0000
0000
0003
0000
1000
0001
2000
0000
0000
0000
0000
0000
0000
0000
,
3020
0100
0000
1000
0000
0100
0100
0100
,
0000
0001
0001
0001
0030
0011
0000
0210
,
0000
0000
0000
0300
1020
0000
0000
0030
,
2100
0000
0000
0000
0000
0000
3000
0000
0210
0000
0000
0300
0021
0000
0000
0000
,
0000
0000
0000
0000
,
0000
0000
0000
0000
0000
0000
0000
0030
,
0001
0010
0100
0100
1000
0010
0100
0100
,
0001
1000
0010
0010
1000
0001
0010
0010
,
0001
0100
1000
1000
0100
0001
0100
0100
,
0001
0000
0010
0000
1000
0000
1000
0000
0010
0000
0001
0000
0100
0010
0100
0010
,
0100
0010
1000
1000
0100
0010
0001
0001
,
0010
0001
0100
0100
0010
1000
0100
0100
,
0020
0230
2300
0001
,
0020
3000
0000
0000
0230
0000
0000
0000
0302
0000
0000
0000
0010
0000
0000
0000
,
2000
0003
0000
0000
0000
0000
0000
0000
0100
0000
0000
0000
0000
0000
0100
0000
,
3000
0000
0000
0000
0000
0010
0000
0100
,
0020
0000
0000
0000
0000
0000
0000
0031
,
0100
0000
0000
0010
0100
0000
0000
0010
,
2000
0000
0000
0000
,
3000
0000
0010
1000
,
1200
0000
0000
0000
0000
0000
0300
0010
,
0100
0000
0000
0000
0000
0000
0000
0100
,
2000
0000
0000
0000
,
3000
0000
0000
0000
,
0010
0000
0000
0100
0000
0000
0001
0000
0010
0000
0000
0000
0001
0000
0000
0000
,
1000
0000
0000
0000
0001
0000
0100
0001
,
2000
0000
0000
3000
,
0000
0000
0000
0000
0000
1000
0100
0010
,
0002
0000
0100
0000
0000
0000
0003
0100
,
0010
0000
0000
0000
0000
0000
0000
0010
,
0200
0000
0000
0000
,
0000
0000
0000
0000
,
0300
0000
0000
0000
;

//---------------dance-single - Spork!----------------
#NOTEDATA:;
#CHARTNAME:Spork! - Standard;
#STEPSTYPE:dance-single;
#DESCRIPTION:Spork!;
#CHARTSTYLE:;
#DIFFICULTY:Medium;
#METER:6;
#RADARVALUES:0.319,0.416,0.175,0.366,0.053,222.000,23.000,48.000,0.000,0.000,0.000,0.000,0.000,0.319,0.416,0.175,0.366,0.053,222.000,23.000,48.000,0.000,0.000,0.000,0.000,0.000;
#CREDIT:Spork!;
#NOTES:
0000
0000
0000
0000
,
0000
0000
0000
0000
,
0000
0000
0000
0000
,
0000
0000
0000
0000
,
0000
0000
0000
0000
,
0000
0000
0000
0000
,
1000
0000
0100
1000
0000
0000
1000
0001
,
0000
0000
0001
0100
0000
0000
0100
0010
,
0200
0010
0001
0010
,
0320
0100
1000
0130
,
1100
0000
0000
0000
1000
0000
0000
0000
0010
0000
0000
0010
0000
0000
0010
0000
,
0000
0000
0000
0000
1000
0000
0000
0000
0100
0000
0000
0100
0000
0000
0100
0000
,
0000
0000
0000
0000
1000
0000
0000
0000
0001
0000
0000
0001
0000
0000
0001
0000
,
0000
0010
0001
0100
,
0101
0000
0000
0000
0001
0000
0000
0000
0010
0000
0000
0010
0000
0000
0020
0000
,
0000
0000
0000
0000
0031
0000
0000
0000
0100
0000
0000
0100
0000
0000
0200
0000
,
0000
0000
0000
0000
0301
0000
0000
0000
1000
0000
0000
1000
0000
0000
2000
0000
,
0000
3100
2002
3003
,
0010
0000
0000
0000
0110
0000
0000
0000
0100
0000
0000
0100
0000
0000
0200
0000
,
0000
0000
0000
0000
0301
0000
0000
0000
1000
0000
0000
1000
0000
0000
2000
0000
,
0000
0000
0000
0000
3100
0000
0000
0000
0010
0000
0000
0010
0000
0000
0020
0000
,
0000
0000
0031
0000
0100
0100
0001
2000
,
0000
0000
0000
0000
3000
0000
0000
0000
0010
0000
0000
0010
0000
0000
0120
0000
,
0000
0000
0000
0000
0130
0000
0000
0000
0001
0000
0000
0001
0000
0000
1002
0000
,
0000
0000
0000
0000
1003
0000
0000
0000
0100
0000
0000
0100
0000
0000
1200
0000
,
0000
0000
0300
0000
0000
0000
0000
2000
,
0000
0000
3020
0000
0230
0000
0300
0101
,
0000
0000
0001
0000
1001
0000
0000
1000
,
0000
0000
1000
0000
0100
0000
0000
0000
0010
0000
0000
0010
0000
0000
0010
0000
,
0000
0001
0100
0000
0001
0001
0010
0200
,
0000
0320
0032
0203
,
0300
0000
0010
0000
1001
0000
0000
0001
,
0000
0000
0001
0000
0010
0000
0000
0000
0100
0000
0000
0100
0000
0000
0210
0000
,
0000
0300
0000
0000
,
0110
0000
0010
0001
0000
0100
0000
1001
,
0000
1000
0000
0010
0000
0100
0000
0110
,
0000
0010
0000
2000
0000
0000
0000
0000
,
0000
3002
0000
0000
0013
0001
0100
0000
,
0120
0000
0000
0000
1030
1000
0100
2000
,
0000
0000
0000
0000
3001
0001
0010
0200
,
0000
0000
0000
0000
0000
0000
0300
0020
,
0000
0000
0000
0030
,
0011
0000
0000
0001
0000
0100
0000
1001
,
0000
0010
0000
1000
0000
0001
0000
0210
,
0000
0000
0000
0000
0000
0000
0300
0020
,
0000
0000
0100
0030
,
1010
0000
0000
1000
0000
0001
0000
0110
,
0000
1000
0000
0100
0000
0010
0000
1002
,
0000
0000
0023
0000
,
0230
0000
2300
0002
,
0000
0000
0000
0000
,
0000
0000
0000
3003
,
1000
0000
0010
1000
0100
0000
0100
1000
,
0010
0000
0010
1000
0001
0000
1000
0000
,
0001
0000
0010
0001
0100
0000
0100
0001
,
0010
0000
0010
0001
1000
0000
0100
0000
,
0010
0000
0001
0010
0100
0000
0010
0001
,
0100
0000
0010
0100
0001
0000
1000
0000
,
0020
2030
3200
0310
,
0200
2300
3020
0130
,
0210
0000
0000
0000
,
0300
0000
0000
0000
0000
0000
0000
0100
,
0020
0000
0000
0000
,
1030
0000
0001
0000
,
1002
0000
0000
0000
,
0003
0000
0010
0100
,
2000
0000
0000
0000
0000
0000
0000
0001
,
3001
0000
0000
0000
0000
0000
0000
0001
,
0200
0000
0000
0000
,
0300
0000
0000
0000
,
0010
1000
0100
1000
,
0001
0000
1000
0010
,
0200
0000
0000
0000
,
0300
0000
0000
0100
,
0001
0000
0010
0000
0000
0000
0000
0010
,
0100
0000
0000
0000
0000
0000
0000
0100
,
2000
0000
0000
0000
,
0000
0000
0000
0000
,
3000
0000
0000
0000
;

//---------------dance-single - Spork!----------------
#NOTEDATA:;
#CHARTNAME:Spork! - Light;
#STEPSTYPE:dance-single;
#DESCRIPTION:Spork!;
#CHARTSTYLE:;
#DIFFICULTY:Easy;
#METER:3;
#RADARVALUES:0.239,0.357,0.221,0.427,0.000,134.000,29.000,56.000,0.000,0.000,0.000,0.000,0.000,0.239,0.357,0.221,0.427,0.000,134.000,29.000,56.000,0.000,0.000,0.000,0.000,0.000;
#CREDIT:Spork!;
#NOTES:
0000
0000
0000
0000
,
0000
0000
0000
0000
,
0000
0000
0000
0000
,
0000
0000
0000
0000
,
0000
0000
0000
0000
,
0000
0000
0000
0000
,
0020
0100
0000
0100
,
0000
0100
0000
0130
,
0001
0001
1000
1000
,
0001
0010
0100
1000
,
0002
0000
0103
0000
,
0200
0000
0310
0000
,
0020
0000
0130
0000
,
0020
0000
1030
0001
,
2000
0000
3100
0000
,
0200
0000
0310
0000
,
0020
0000
0130
0000
,
0020
0000
0002
0000
,
0033
1001
0001
0100
,
0000
0100
0001
1000
,
2000
0000
3100
0000
,
0200
0000
0310
0020
,
0000
0030
0100
1000
,
0000
1000
0001
0100
,
0200
0000
0310
0000
,
0020
0000
0000
0030
,
1000
0100
1200
0000
,
1300
0010
0100
0000
,
0100
0001
1000
1000
,
0001
0010
0100
0100
,
1000
0001
0100
0201
,
0000
0301
0010
0000
,
0100
1000
0001
0001
,
2000
0000
0000
3000
,
0202
0000
0000
0000
0303
0000
0000
0220
,
0000
0000
0000
0330
0000
0000
0000
2020
,
0000
0000
0000
3030
0000
0000
0000
0000
,
0002
0000
1003
1000
,
2200
0000
0000
0000
3300
0000
0000
2002
,
0000
0000
0000
3003
0000
0000
0000
0022
,
0000
0000
0000
0033
0000
0000
0000
0000
,
0200
0000
0310
0001
,
0202
0000
0000
0000
0303
0000
0000
2200
,
0000
0000
0000
3300
0000
0000
0000
0202
,
0000
0000
0000
0303
0000
0000
0000
0000
,
0020
0000
0130
0000
,
2020
0000
0000
0000
3030
0000
0000
0022
,
0000
0000
0000
0033
0000
0000
0000
2020
,
0000
0000
0000
3030
0000
0000
0000
0000
,
0002
0000
1000
2000
,
0000
0000
0000
0000
,
0000
0000
0000
3003
,
1100
0000
1100
0000
,
1100
0000
1100
0000
,
0011
0000
0011
0000
,
0011
0000
0011
0000
,
0101
0000
0101
0000
,
0101
0000
0101
0000
,
1010
1000
0002
0003
,
1010
1000
0200
0300
,
0020
0000
0000
0000
,
0030
0000
0000
0000
,
0200
0000
0000
0000
,
1300
0000
0001
0000
,
2000
0000
0000
0000
,
3000
0000
0010
0100
,
0002
0000
0000
0000
,
1003
0000
0000
0000
,
0200
0000
0000
0000
,
0300
0000
0000
0000
,
0100
0000
0010
0000
,
0100
0000
1000
0000
,
0020
0000
0000
0000
,
0030
0000
0000
0010
,
0100
0000
0000
0000
,
0001
0000
0000
0000
,
2000
0000
0000
0000
,
0000
0000
0000
0000
,
3000
0000
0000
0000
;
