#TITLE:終焔のClaudia;
#SUBTITLE:;
#ARTIST:二代目朱雀;
#TITLETRANSLIT:Shuuen no Claudia;
#SUBTITLETRANSLIT:;
#ARTISTTRANSLIT:Nidaime Suzaku;
#CREDIT:;
#BANNER:;
#BACKGROUND:;
#LYRICSPATH:;
#CDTITLE:;
#MUSIC:Shuuen no Claudia.mp3;
#OFFSET:-3.900;
#SAMPLESTART:74.560;
#SAMPLELENGTH:10.330;
#SELECTABLE:YES;
#BPMS:0.000=181.000,3.000=172.000,4.000=158.000,5.000=143.000,6.000=132.000,7.000=105.000,8.000=101.000,9.000=90.000,12.000=185.000,148.000=92.500,164.000=185.000;
#STOPS:;
#BGCHANGES:;

//---------------dance-single - ----------------
#NOTES:
     dance-single:
     :
     Challenge:
     11:
     0.908,1.000,0.188,0.510,0.854:
1000
0000
0010
0100
0001
0010
0100
0000
,
0010
0001
1001
0100
,
0010
0000
0100
0002
2000
0000
0000
0000
0000
0000
0000
0000
3003
0000
0000
0000
,
0220
0000
0000
0000
,
0000
0000
0000
0330
0000
0000
1000
0100
0010
0001
0010
0100
,
0220
0000
0000
0000
,
0000
0000
0000
0330
0000
0000
0010
0001
1000
0001
0100
0010
,
2002
0000
0000
0000
,
0000
0000
0000
3003
0000
0000
1000
0100
0010
0001
1000
0010
,
0101
0000
0010
1001
0000
0100
1010
0000
,
1000
0010
0010
0001
0010
0010
1000
0100
1000
0001
0100
0010
,
2002
0000
0000
0000
,
3003
0000
0000
0000
0000
0000
0000
0000
0001
1000
0001
1000
0001
0100
0010
1000
,
0200
0000
0000
0302
0000
0000
0203
0000
,
0000
2300
0000
0000
3002
0000
2003
0000
,
3002
0000
0000
0203
0000
0000
2300
0000
,
0000
0000
0000
3200
0000
0000
0000
0000
0000
0000
0000
0000
0301
0000
0000
1000
0001
1000
0001
0000
0000
1000
0000
0000
,
1002
0000
0000
0023
0000
0000
2030
0000
,
0000
3002
0000
0000
0203
0000
2300
0000
,
3020
0000
0000
0032
0000
0000
2003
0000
,
0000
0000
3200
0000
0000
0000
0000
0000
0310
0000
0100
0010
0100
0000
0001
0000
,
1000
0100
1000
0100
0010
0000
0001
0100
0001
0100
0010
0000
1000
0001
1000
0001
,
1000
0001
0100
0010
0100
0001
1000
0100
,
0010
0001
0100
0001
1000
0000
0010
1000
0001
1000
0100
0000
0010
0001
1000
0001
,
1000
0000
0010
0000
0100
0000
0001
0000
1000
0100
0010
0100
1000
0000
0001
0100
,
0001
1000
0100
0010
0100
0000
0010
0001
1000
0001
0100
0000
0010
0100
0001
0100
,
0010
1000
0001
0100
0010
1000
0001
1000
,
0101
0000
0010
1001
0000
0100
1010
0000
,
0001
0000
0110
0000
0000
0000
0100
0000
1001
0000
0100
0001
0100
0001
1000
0100
,
0010
0001
1000
0010
0001
0010
0100
0002
,
0000
0010
0000
0103
0000
0001
1000
0100
,
0010
0100
0001
0100
1000
0001
0100
0020
,
0000
0000
0001
0000
0000
0000
1030
0000
0000
0000
0100
0000
0010
0001
0100
0001
,
0100
0010
0100
1000
0100
0001
0010
0200
,
0000
0001
0000
1300
0000
0001
0010
0001
,
1000
0010
0100
0001
0100
1000
0100
0010
,
1000
0001
0010
0100
2000
3200
0320
0032
,
1003
0100
1000
0000
0001
0100
0001
0000
1000
0010
0100
0000
0001
0010
0100
0010
,
0100
0000
0000
0000
0010
0000
0001
0000
1000
0000
0001
0000
0100
0000
0010
0000
1000
0001
1000
0001
1000
0001
1000
0001
1000
0000
0010
0000
0100
0000
0010
0000
,
1000
0000
0100
0000
1000
0000
0001
0000
0100
0000
0000
0000
0001
0000
1000
0001
1000
0000
0100
0000
0010
0000
0001
0000
0010
0000
0000
0000
0001
0000
1000
0100
,
1000
0000
0000
0000
0000
0000
0000
0000
0100
0000
0000
0000
0000
0000
0000
0000
0010
0000
0000
0000
0000
0000
0000
0000
0001
0000
0000
0000
0000
0000
0000
0000
0100
0000
0000
0000
0000
0000
0000
0000
0010
0000
0000
0000
0000
0000
0000
0000
1000
0000
0000
0000
0000
0000
0000
0000
0001
0000
0000
0000
0000
0000
0000
0000
0100
0000
0000
0000
0000
0000
0000
0000
0001
0000
0000
0000
0000
0000
0000
0000
0010
0000
0000
0000
0000
0000
0000
0000
0100
0000
0000
0000
0000
0000
0000
0000
1000
0000
0000
0000
0000
0000
0001
0000
0000
0000
0000
0000
1000
0000
0000
0000
0000
0000
0001
0000
0000
0000
0000
0000
1000
0000
0000
0000
0000
0000
0001
0000
0000
0000
0000
0000
1000
0000
0000
0000
0000
0000
0001
0000
0000
0000
0000
0000
1000
0000
0000
0000
0000
0000
0000
0000
0000
0000
0000
0000
0000
0000
0000
0000
0000
0000
0000
0000
0000
0000
0000
0000
0000
0000
0000
0000
0000
0000
0000
0000
0000
0000
0000
0000
0010
0000
0000
0000
0000
0000
0100
0000
0000
0000
0000
0000
,
0010
0100
0010
1000
0010
0100
0001
1000
,
0001
0000
0000
0010
0000
0000
0001
0000
0000
0100
0000
0000
0010
0000
1000
0000
0100
0000
0010
0000
0001
0000
0100
0000
,
0001
1000
0100
0010
0100
1000
0001
0100
,
0010
0000
0000
0100
0000
0000
0001
0000
0000
1000
0000
0000
0001
0000
0100
0000
0010
0000
1000
0000
0100
0000
0010
0000
,
0001
0100
0010
0100
0001
1000
0100
0010
,
0100
0000
0000
0001
0000
0000
0100
0000
0000
1000
0000
0000
0001
0000
0100
0000
0010
0000
1000
0000
0100
0000
0010
0000
,
0001
0100
0001
0100
0010
1000
0010
1000
0001
0010
0100
0010
0100
1000
0001
0100
,
0020
0000
0000
0000
0000
0000
0000
0000
0130
0000
0001
1000
0001
0010
0100
0010
,
0001
0000
1000
0001
1000
0000
0020
0000
0000
0000
0130
0000
0001
0000
0010
0000
,
0100
0000
0010
0001
0100
0000
0002
0000
0000
0000
1003
0000
0001
0100
0001
0100
,
0010
0100
0001
1000
0100
0010
0100
1000
,
0100
0000
0010
0000
0001
0000
1000
0000
0001
0000
0100
0010
1000
0001
0100
0001
,
1000
0000
0100
0010
0001
0000
0200
0000
0000
0000
0310
0000
1000
0000
0001
0010
,
0100
0000
0010
0001
1000
0000
0002
0000
0000
0000
0103
0000
0010
0000
1000
0001
,
1000
0000
0001
0010
0000
0010
0001
0100
0010
0000
0100
0000
0001
0000
1000
0100
,
0010
0000
0100
0000
1000
0100
0010
0001
0010
0001
0100
0010
1000
0001
1000
0100
,
1000
0000
0010
0000
0100
0000
0020
0000
0000
0000
1030
0000
0100
0010
0100
0000
,
0010
0000
0001
0010
1000
0000
0020
0000
0000
0000
0031
0000
1000
0001
0010
0100
,
1000
0001
0100
1000
0001
0010
1000
1002
,
0000
0000
0010
0000
0000
0000
1003
0000
0001
0000
0010
0001
1000
0010
0100
0010
,
1000
0000
0001
0010
0100
0000
0012
0000
0000
0000
1003
0000
0001
0100
0010
0000
,
0100
0000
0010
1000
0001
0000
2001
0000
0000
0000
3100
1000
0001
0100
0001
1000
,
0100
0000
0000
0000
0000
0000
0010
0000
0000
0001
0000
0000
0100
0000
0000
0000
0000
0000
0001
0000
0000
0000
0000
0000
1000
0000
0100
0000
0010
0000
0001
0000
0000
0000
0000
0000
0001
0000
0100
0000
0010
0000
1000
0000
0000
0000
0000
0000
,
1100
0011
2002
3003
,
1000
0010
0100
0010
2000
0000
3001
0010
0100
0010
0002
0000
1003
0001
0100
0010
,
1000
0100
0010
0100
1000
0001
0100
0010
,
1000
0001
0100
0001
2000
0000
3001
0010
0100
0010
0002
0000
1003
0100
0001
0100
,
1000
0000
0001
0000
0100
0000
0010
0000
1000
0000
0010
0100
0001
0100
0010
1000
,
0001
0010
0100
0010
0001
1000
0001
0100
0010
0100
0001
1000
0001
0010
0100
1000
,
0100
0010
0001
1000
0010
0001
0010
1000
,
0010
1000
0100
1000
0010
0100
0001
0010
0100
0010
0001
0100
0010
1000
0100
1000
,
0010
0000
0100
0000
0010
0000
1000
0000
0001
0100
0010
1000
0100
0010
0002
0200
,
0303
2002
0000
0000
,
3003
0000
0000
0000
;

//---------------dance-single - ----------------
#NOTES:
     dance-single:
     :
     Hard:
     9:
     0.617,0.662,0.179,0.617,0.219: // measure 1
1000
0000
0001
0000
0100
0010
0100
0000
,  // measure 2
0001
1000
2002
0000
,  // measure 3
3003
0000
0010
0100
0020
0000
0000
0000
0000
0000
0000
0000
0030
0000
0000
0000
,  // measure 4
2002
0000
0000
0000
,  // measure 5
0000
0000
0000
3003
0000
0000
0001
1000
0001
1000
0001
2000
,  // measure 6
0002
0000
0000
0000
,  // measure 7
0000
0000
0000
3003
0000
0000
0100
0010
0100
0010
0100
0020
,  // measure 8
0200
0000
0000
0000
,  // measure 9
0000
0000
0000
0330
0000
0000
0010
1000
0010
0100
0001
2000
,  // measure 10
0002
0000
0000
3003
,  // measure 11
0010
0000
1000
0000
0100
0000
0010
0001
1000
0100
0010
0002
,  // measure 12
2000
0000
0000
0000
,  // measure 13
3003
0000
0000
0000
,  // measure 14
1002
0000
0000
0203
0000
0000
0302
0000
,  // measure 15
0000
0203
0000
0000
0320
0000
2030
0000
,  // measure 16
3200
0000
0000
2300
0000
0000
3002
0000
,  // measure 17
0000
2003
0000
0000
3100
1000
0100
0010
,  // measure 18
0002
0000
0000
2003
0000
0000
3002
0000
,  // measure 19
0000
0203
0000
0000
0320
0000
0230
0000
,  // measure 20
0320
0000
0000
2030
0000
0000
3200
0000
,  // measure 21
0000
0320
0000
0000
0031
0010
0001
1000
,  // measure 22
0001
0100
0001
0000
1000
0100
1000
0100
,  // measure 23
0010
0000
0100
0000
1000
0001
0100
0001
,  // measure 24
1000
0010
1000
0000
0001
0100
0010
0100
,  // measure 25
0001
0000
1000
0000
0001
0010
0100
0010
,  // measure 26
0001
1000
0001
0100
0010
1000
0100
0010
,  // measure 27
0001
0010
0001
1000
0100
0010
0001
0001
,  // measure 28
1001
0000
1000
1001
0000
0001
0101
0000
,  // measure 29
0100
0110
0000
0010
1000
0001
1000
0100
,  // measure 30
0120
0000
0001
0000
0130
0010
0001
2000
,  // measure 31
0000
0010
0000
0001
0000
3010
1000
0100
,  // measure 32
0010
0000
0100
0000
0010
0001
1000
0002
,  // measure 33
0000
1000
0000
0103
0000
0010
1000
0100
,  // measure 34
2000
0000
0010
0000
3001
0100
0001
1000
,  // measure 35
0000
1100
0000
1001
0000
0001
0100
0001
,  // measure 36
0020
0000
0100
0000
0031
1000
0010
0100
,  // measure 37
0000
1001
0000
0010
0100
0001
1000
0100
,  // measure 38
2000
0000
0000
0000
3200
0000
0000
0000
0320
0000
0000
0000
0031
1000
0001
1000
,  // measure 39
0002
0000
0103
0010
2000
0000
3001
1000
,  // measure 40
0100
0000
0010
0001
0010
0000
1000
0000
0010
0000
0100
0001
0100
0000
0001
0000
,  // measure 41
2000
0000
0002
3003
,  // measure 42
2002
0000
0000
0000
,  // measure 43
0000
0000
0000
3003
0000
0000
0010
0100
0010
0100
0010
0200
,  // measure 44
0020
0000
0000
0000
,  // measure 45
0000
0000
0000
0330
0000
0000
1000
0001
1000
0001
1000
0002
,  // measure 46
2000
0000
0000
0000
,  // measure 47
0000
0000
0000
3003
0000
0000
1000
0100
1000
0001
1000
0002
,  // measure 48
0200
0000
0000
0303
,  // measure 49
2002
0000
0000
0000
3003
0000
0000
0000
1000
0000
0001
1000
0001
0000
1000
0000
,  // measure 50
0001
0010
0001
0200
0000
0310
1000
0100
,  // measure 51
1000
0001
1000
0200
0000
0310
0001
1000
,  // measure 52
0001
0000
0101
0000
0100
0010
1000
0001
,  // measure 53
0000
0010
0001
0100
0010
1000
0100
1000
,  // measure 54
0001
0010
0100
0020
0000
0130
0010
0001
,  // measure 55
0100
0010
1000
0002
0000
0103
0001
1000
,  // measure 56
0100
0000
0000
1000
0000
0000
0001
0000
0100
0000
0000
0000
1001
0000
0000
0000
,  // measure 57
1000
0000
0000
0001
0100
0000
0010
0000
1000
0000
0001
0000
0100
0000
0100
0000
,  // measure 58
0100
0010
1000
0002
0000
1003
0100
0010
,  // measure 59
0100
0010
0001
0200
0000
0310
0100
0001
,  // measure 60
1001
0000
0101
0000
0100
0010
0000
1001
,  // measure 61
0000
1000
0100
0010
0001
0100
0010
1000
,  // measure 62
0001
0010
0100
0020
0000
0031
0100
0010
,  // measure 63
1000
0010
0100
0020
0000
1030
0001
0100
,  // measure 64
0001
0000
0100
0001
0100
0000
0001
0000
1000
0001
1000
0000
0001
1000
0001
0000
,  // measure 65
1000
0001
0220
0330
,  // measure 66
1000
0100
1000
0001
0100
0001
1000
0100
,  // measure 67
0010
0000
0100
0000
0010
0001
1000
0000
,  // measure 68
0010
0100
0010
1000
0001
1000
0100
0010
,  // measure 69
0100
0000
0010
0000
0001
0100
0001
1000
,  // measure 70
0100
0010
0100
0000
1000
0000
0001
1000
0001
0000
1000
0000
0010
0000
0100
0000
,  // measure 71
0001
0000
1000
0000
0100
0010
0100
0000
,  // measure 72
1000
0100
1000
0000
0100
0000
0010
0001
0010
0000
0001
0000
0100
0000
0001
0000
,  // measure 73
1000
0000
0000
0000
0001
0000
0000
0000
1000
0001
1000
0001
1000
0001
2000
0002
,  // measure 74
3003
2002
0000
0000
,  // measure 75
3003
0000
0000
0000
;

//---------------dance-single - ----------------
#NOTES:
     dance-single:
     :
     Medium:
     7:
     0.465,0.496,0.250,0.465,0.000: // measure 1
1000
0000
0100
0000
1000
0100
1000
0000
,  // measure 2
0001
1000
2002
0000
,  // measure 3
3003
0020
0000
0030
,  // measure 4
2002
0000
0000
0000
,  // measure 5
0000
3003
1000
0001
,  // measure 6
0220
0000
0000
0000
,  // measure 7
0000
0330
0010
1000
,  // measure 8
2002
0000
0000
0000
,  // measure 9
0000
3003
1000
0100
,  // measure 10
0220
0000
0000
0330
,  // measure 11
2002
0000
0000
3003
,  // measure 12
0220
0000
0000
0000
,  // measure 13
0330
0000
0000
0000
,  // measure 14
1001
0000
0000
0001
0000
0000
1000
0000
,  // measure 15
0000
0001
0000
0000
0100
0000
0010
0000
,  // measure 16
0100
0000
0000
0010
0000
0000
1000
0000
,  // measure 17
0000
0001
0000
0000
1000
0100
1000
0100
,  // measure 18
1000
0000
0000
0001
0000
0000
0010
0000
,  // measure 19
0000
0001
0000
0000
0100
0000
0010
0000
,  // measure 20
0100
0000
0000
0001
0000
0000
1000
0000
,  // measure 21
0000
0001
0000
0000
1000
0001
1000
0001
,  // measure 22
1000
0000
0010
0000
0100
0000
0001
0100
,  // measure 23
0001
1000
0100
0010
,  // measure 24
0001
0000
1000
0000
0001
0000
0100
0010
,  // measure 25
1000
0000
0100
0000
1000
0001
1000
0001
,  // measure 26
1000
0000
0001
0000
0010
0000
0100
0010
,  // measure 27
0001
0000
0100
0000
0010
1000
0010
1000
,  // measure 28
0001
0000
0000
0101
0000
0000
0110
0000
,  // measure 29
0000
1010
0000
0000
1001
0000
0110
0000
,  // measure 30
1001
0000
1000
0000
0100
0000
0010
0002
,  // measure 31
0000
1000
0000
0103
0000
0100
0010
0100
,  // measure 32
0001
0000
1000
0000
0001
0100
0010
2000
,  // measure 33
0000
0010
0000
0001
0000
0100
3100
0000
,  // measure 34
1000
0000
0100
0000
1000
0001
1000
0002
,  // measure 35
0000
0100
0000
1003
0000
1000
0001
0100
,  // measure 36
0001
0000
1000
0000
0001
0010
0100
0020
,  // measure 37
0000
0001
0000
0130
0000
0010
0001
1000
,  // measure 38
1002
0203
0302
2003
,  // measure 39
3200
0320
0032
0003
,  // measure 40
2000
3002
0203
0320
,  // measure 41
2030
0000
0002
3003
,  // measure 42
0220
0000
0000
0000
,  // measure 43
0000
0330
0010
1000
,  // measure 44
2002
0000
0000
0000
,  // measure 45
0000
3003
0001
0010
,  // measure 46
0220
0000
0000
0000
,  // measure 47
0000
0330
0100
1000
,  // measure 48
2002
0000
0000
3003
,  // measure 49
0220
0000
0000
0330
,  // measure 50
0001
0000
1000
0001
0000
1000
0001
1000
,  // measure 51
0010
0000
0100
0001
0000
0100
0010
1000
,  // measure 52
0100
1000
0001
0010
,  // measure 53
0100
0000
0010
0000
0001
1000
0001
0000
,  // measure 54
0100
0000
0010
1000
0000
0001
0100
0001
,  // measure 55
1000
0000
0001
0010
0000
0100
1000
0001
,  // measure 56
1000
1000
0001
0001
,  // measure 57
0100
0010
0100
0000
0001
1000
0001
0000
,  // measure 58
1000
0000
0001
0020
0000
0130
0010
0001
,  // measure 59
0100
0000
0010
0200
0000
0310
0100
0001
,  // measure 60
1000
0000
0100
0000
1000
0001
0000
1001
,  // measure 61
0000
1000
0100
0010
0001
0000
0100
0000
,  // measure 62
0001
0000
1000
0200
0000
1300
0001
0100
,  // measure 63
0001
0000
1000
0020
0000
0130
0010
1000
,  // measure 64
0001
1000
0001
0000
0100
0010
0100
0000
,  // measure 65
0110
1001
0220
0330
,  // measure 66
0010
0000
1000
0100
0000
0010
0001
0000
,  // measure 67
0001
0100
0000
0010
1000
0000
0110
0000
,  // measure 68
1001
0000
1000
0100
0000
0010
0001
0000
,  // measure 69
1000
0001
0000
1000
0001
0000
0110
0000
,  // measure 70
0010
1000
0010
1000
0000
0001
0010
0000
,  // measure 71
0010
0001
0000
0001
1000
0010
0100
0000
,  // measure 72
0001
0100
0010
1000
0000
0100
0010
0000
,  // measure 73
0001
0100
0000
0010
1000
0001
2000
0002
,  // measure 74
3003
0220
0000
0000
,  // measure 75
0330
0000
0000
0000
;

//---------------dance-single - ----------------
#NOTES:
     dance-single:
     :
     Easy:
     5:
     0.317,0.364,0.232,0.322,0.000: // measure 1
0001
0000
0000
1000
,  // measure 2
0000
0000
1001
0000
,  // measure 3
0000
0220
0000
0330
,  // measure 4
2002
0000
0000
0000
,  // measure 5
3003
0000
0000
0000
,  // measure 6
0220
0000
0000
0000
,  // measure 7
0330
0000
0000
0000
,  // measure 8
2002
0000
0000
0000
,  // measure 9
3003
0000
0000
0000
,  // measure 10
0220
0000
0330
0000
,  // measure 11
2002
0000
3003
0000
,  // measure 12
2002
0000
0000
0000
,  // measure 13
3003
0000
0000
0000
,  // measure 14
1001
0000
0000
1000
0000
0000
0100
0000
,  // measure 15
0000
0100
0000
0000
1000
0000
0000
0000
,  // measure 16
0001
0000
0000
0001
0000
0000
0100
0000
,  // measure 17
0000
0100
0000
0000
0001
0000
0100
0000
,  // measure 18
0001
0000
0000
0001
0000
0000
1000
0000
,  // measure 19
0000
1000
0000
0000
0001
0000
0000
0000
,  // measure 20
0010
0000
0000
0010
0000
0000
0100
0000
,  // measure 21
0000
0100
0000
0000
0010
0000
0100
0000
,  // measure 22
0010
0001
0010
0001
,  // measure 23
1000
0000
0001
0100
,  // measure 24
0010
1000
0010
1000
,  // measure 25
0001
0000
1000
0100
,  // measure 26
0010
0001
0100
0010
,  // measure 27
1000
0000
0001
0100
,  // measure 28
1001
0000
0000
1001
0000
0000
0110
0000
,  // measure 29
0000
0110
0000
0000
0001
0000
1000
0000
,  // measure 30
1001
0000
0001
0100
,  // measure 31
0010
0100
0001
1000
,  // measure 32
0100
0000
1000
0100
,  // measure 33
1000
0001
0010
0100
,  // measure 34
0010
0000
0001
1000
,  // measure 35
0001
0100
0010
1000
,  // measure 36
0001
0000
1000
0001
,  // measure 37
0100
0010
1000
0001
,  // measure 38
0200
0300
0020
0030
,  // measure 39
1000
0001
2002
3003
,  // measure 40
2000
3000
0002
0003
,  // measure 41
1000
0100
0010
0001
,  // measure 42
2002
0000
0000
0000
,  // measure 43
3003
0000
0000
0000
,  // measure 44
0220
0000
0000
0000
,  // measure 45
0330
0000
0000
0000
,  // measure 46
2002
0000
0000
0000
,  // measure 47
3003
0000
0000
0000
,  // measure 48
0220
0000
0330
0000
,  // measure 49
2002
0000
3003
0000
,  // measure 50
1000
0100
1000
0001
,  // measure 51
0100
0010
0100
0000
,  // measure 52
0010
0100
0001
1000
,  // measure 53
0001
0010
0100
0010
,  // measure 54
0001
1000
0100
0000
,  // measure 55
1000
0001
0100
0000
,  // measure 56
0010
1000
0010
1000
,  // measure 57
0001
0010
0100
0010
,  // measure 58
0001
1000
0100
0000
,  // measure 59
1000
0001
0100
0010
,  // measure 60
0100
0001
0010
0100
,  // measure 61
0001
0100
1000
0001
,  // measure 62
1000
0010
0100
0000
,  // measure 63
0010
1000
0001
1000
,  // measure 64
0001
0001
1000
1000
,  // measure 65
1001
0110
2002
3003
,  // measure 66
0001
0000
0000
0001
0000
0000
1000
0000
,  // measure 67
0000
1000
0000
0000
0001
0000
1000
0000
,  // measure 68
0010
0000
0000
0010
0000
0000
0100
0000
,  // measure 69
0000
0100
0000
0000
0100
0000
0001
0000
,  // measure 70
0010
0000
0000
0010
0000
0000
0100
0000
,  // measure 71
0000
0100
0000
0000
0010
0000
0001
0000
,  // measure 72
1000
0000
0000
1000
0000
0000
0001
0000
,  // measure 73
0000
0001
0000
0000
1001
0000
2002
0000
,  // measure 74
3003
2002
0000
0000
,  // measure 75
3003
0000
0000
0000
;

//---------------dance-single - ----------------
#NOTES:
     dance-single:
     :
     Beginner:
     2:
     0.163,0.327,0.250,0.000,0.000: // measure 1
1000
0000
0000
0100
,  // measure 2
0000
0000
1000
0000
,  // measure 3
0000
1001
0000
0000
,  // measure 4
1001
0000
0000
0000
,  // measure 5
0000
0000
0000
0000
,  // measure 6
0110
0000
0000
0000
,  // measure 7
0000
0000
0000
0000
,  // measure 8
1001
0000
0000
0000
,  // measure 9
0000
0000
0000
0000
,  // measure 10
0001
0000
0000
0000
,  // measure 11
1000
0000
0000
0000
,  // measure 12
1001
0000
0000
0000
,  // measure 13
0000
0000
0000
0000
,  // measure 14
1001
0000
0000
0000
,  // measure 15
0000
0000
0000
0000
,  // measure 16
0100
0000
0000
0000
,  // measure 17
0010
0000
0000
0000
,  // measure 18
0110
0000
0000
0000
,  // measure 19
1000
0000
0000
0000
,  // measure 20
0001
0000
0000
0000
,  // measure 21
1000
0000
0000
0000
,  // measure 22
1001
0000
0001
0000
,  // measure 23
0100
0000
0001
0000
,  // measure 24
1000
0000
0100
0000
,  // measure 25
0010
0000
0000
0000
,  // measure 26
1001
0000
1000
0000
,  // measure 27
0001
0000
0100
0000
,  // measure 28
0010
0000
0100
0000
,  // measure 29
0110
0000
0000
0000
,  // measure 30
1000
0000
1000
0000
,  // measure 31
0100
0000
1000
0000
,  // measure 32
0001
0000
0001
0000
,  // measure 33
0100
0000
0001
0000
,  // measure 34
0010
0000
0010
0000
,  // measure 35
0100
0000
0010
0000
,  // measure 36
0001
0000
1000
0000
,  // measure 37
0010
0000
0100
0000
,  // measure 38
1001
0000
0000
0000
,  // measure 39
1000
0001
1000
0000
,  // measure 40
0001
0000
0100
0000
,  // measure 41
0010
0100
0010
0000
,  // measure 42
1001
0000
0000
0000
,  // measure 43
0000
0000
0000
0000
,  // measure 44
1001
0000
0000
0000
,  // measure 45
0000
0000
0000
0000
,  // measure 46
0110
0000
0000
0000
,  // measure 47
0000
0000
0000
0000
,  // measure 48
0110
0000
0000
0000
,  // measure 49
1001
0000
0000
0000
,  // measure 50
1000
0000
0100
0000
,  // measure 51
1000
0000
0001
0000
,  // measure 52
0100
0000
0001
0000
,  // measure 53
1000
0000
0000
0000
,  // measure 54
0001
0000
0010
0000
,  // measure 55
0100
0000
0010
0000
,  // measure 56
0001
0000
1000
0000
,  // measure 57
0001
0000
0000
0000
,  // measure 58
1000
0000
0010
0000
,  // measure 59
0100
0000
0001
0000
,  // measure 60
1000
0000
0001
0000
,  // measure 61
1000
0000
0000
0000
,  // measure 62
0001
0000
0100
0000
,  // measure 63
0010
0000
1000
0000
,  // measure 64
0100
0000
0010
0000
,  // measure 65
1001
1001
1001
0000
,  // measure 66
0110
0000
0000
0000
,  // measure 67
1001
0000
0000
0000
,  // measure 68
1001
0000
0000
0000
,  // measure 69
0110
0000
0000
0000
,  // measure 70
1001
0000
0000
0000
,  // measure 71
0110
0000
0000
0000
,  // measure 72
0110
0000
0000
0000
,  // measure 73
1001
0000
0000
0000
,  // measure 74
0000
1001
0000
0000
;
