#TITLE:Pure;
#SUBTITLE:;
#ARTIST:Lost Horizon;
#TITLETRANSLIT:;
#SUBTITLETRANSLIT:;
#ARTISTTRANSLIT:;
#GENRE:;
#CREDIT:usaminseijin;
#BANNER:[Qualifier] - Pure.png;
#BACKGROUND:[Qualifier] - Pure-bg.png;
#LYRICSPATH:[Qualifier] - Pure.lrc;
#CDTITLE:cdtitle.png;
#MUSIC:[Qualifier] - Pure.ogg;
#OFFSET:-0.356000;
#SAMPLESTART:92.489998;
#SAMPLELENGTH:10.337999;
#SELECTABLE:YES;
#BPMS:0.000000=185.000000
;
#STOPS:
;
#BGCHANGES:-1.000=[Qualifier] - Pure.avi=1.000=0=0=1=====,
99999=-nosongbg-=1.000=0=0=0 // don't automatically add -songbackground-
;
#KEYSOUNDS:;
#ATTACKS:;

//---------------dance-single - ----------------
#NOTES:
     dance-single:
     :
     Hard:
     9:
     0.761966,0.932076,0.350004,0.091305,1.441865,701.000000,655.000000,46.000000,12.000000,0.000000,0.000000,0.761966,0.932076,0.350004,0.091305,1.441865,701.000000,655.000000,46.000000,12.000000,0.000000,0.000000:
0000
0000
0000
0000
,
1000
0000
0001
1000
0000
0000
0010
0000
1000
0000
0010
0000
,
0101
0000
0000
0000
0001
1000
0001
0000
0000
0110
0000
0000
,
1000
0000
0010
0000
0100
0010
0100
0000
0000
1001
0000
0000
,
0001
0000
1000
0000
0001
0000
0100
0000
0010
0000
0100
0000
,
1001
0000
0000
0000
0000
0000
1000
0000
0100
0000
1000
0000
,
0110
0000
0000
0000
0001
0010
0001
0000
0000
1000
0100
1000
,
0010
0000
0100
0000
0010
0000
0200
0000
0000
0000
0000
0000
,
0301
0010
0001
0010
0001
0010
0100
1000
0100
1000
0100
1000
,
0001
0000
0100
0000
0001
0000
1010
0000
0000
0000
0100
0000
,
1000
0000
0100
0000
1000
0000
0021
0000
0000
0030
0000
0000
,
0001
0000
0010
0000
0001
0000
1100
0000
0000
0000
0010
0000
,
1000
0000
0010
0000
1000
0000
0102
0000
0000
0003
0000
0000
,
1000
0000
0001
0000
1000
0000
0110
0000
0000
0000
0100
0000
,
0010
0000
0100
0000
0010
0000
1002
0000
0000
0003
0000
0000
,
1000
0000
0010
0000
1000
0000
0101
0000
0000
0000
1000
0000
,
1020
0000
0000
0000
0100
0000
2030
0000
0000
0000
0000
0000
,
3001
0000
0010
0001
0010
0000
0101
0000
0000
0000
0010
0000
,
0100
0000
0010
0000
0100
0000
1020
0000
0000
0030
0000
0000
,
1000
0000
0001
0000
1000
0000
0101
0000
0000
0000
1000
0000
,
0001
0000
1000
0000
0001
0000
1020
0000
0000
0030
0000
0000
,
1000
0000
0010
0000
1000
0000
0110
0000
0000
0000
0001
0000
,
0100
0000
0001
0000
0100
0000
1002
0000
0000
0003
0000
0000
,
1000
0000
0100
0000
1000
0000
0110
0000
0000
0000
0002
0000
,
2000
0000
0000
3003
,
1000
0000
0001
0000
1000
0000
0010
0100
0010
0100
0010
0100
,
0001
0000
1000
0000
0001
0000
0100
0010
0100
0010
0100
0010
,
1000
0000
0010
0000
1000
0000
0010
0100
0010
0100
0010
0100
,
0001
0000
0100
0000
0001
0000
0100
0010
0100
0010
0100
0010
,
1000
0000
0100
0000
1000
0000
0001
1000
0001
1000
0001
1000
,
0001
0000
0010
0000
0001
0000
1000
0001
1000
0001
1000
0001
,
1000
0000
0010
0000
1001
0000
0100
0000
0101
0000
0100
0000
,
0001
0000
1000
0000
0001
0000
1000
0000
0010
1000
0010
1000
,
0001
0000
1000
0000
0001
0000
1000
0010
1000
0010
1000
0010
,
1000
0000
0001
0000
1000
0000
0001
0010
0001
0010
0001
0010
,
0100
0000
0010
0000
0100
0000
0001
0100
0001
0100
0001
0100
,
0010
0000
0000
0000
1000
0000
0000
0000
0001
0000
0000
0000
1000
0100
0000
0000
0000
0000
0010
0001
0000
0000
0000
0000
,
1000
0000
0001
1000
0000
0000
0001
0000
1000
0001
0000
0000
,
1000
0000
0010
1000
0000
0000
0001
0000
0010
0001
0000
0000
,
0100
0000
0001
0100
0000
0000
0010
0000
0100
0010
0000
0000
,
1000
0000
0100
1000
0000
0000
0001
1000
0001
0100
0010
0100
,
0001
0000
1000
0100
0000
0000
1000
0000
0010
0100
0000
0000
,
0010
0000
0100
0001
0000
0000
1000
0100
1000
0100
1000
0100
,
1000
0000
0001
0000
0100
0000
0001
0000
0010
0000
0001
0000
,
1000
0000
0010
0000
0100
0000
0010
0000
0001
0000
0010
0000
,
1001
0000
0010
0000
0100
0000
0001
0000
1000
0000
0001
0000
,
0010
0000
0001
0000
0100
0000
0010
0000
1000
0000
0010
0000
,
1001
0000
0100
0000
1000
0000
0001
0010
0001
0010
0000
0000
,
1001
0000
0100
0000
0001
0000
1000
0010
1000
0010
0000
0000
,
1000
0100
1000
0100
1000
0100
0010
0001
0010
0001
0010
0001
,
1000
0001
1000
0001
1000
0001
0100
0010
0100
0010
0100
0010
,
1000
0000
0010
0000
1000
0000
0001
0000
0100
0000
0001
0000
,
0110
0000
1000
0000
0010
0000
0101
0000
1000
0000
0001
0000
,
1100
0000
0010
0000
0001
0000
1000
0000
0001
0000
1000
0100
,
1000
0000
0001
0000
0100
0000
0001
1000
0001
0100
0000
0000
,
0001
0000
0100
0001
0100
0000
0001
0000
1000
0001
1000
0000
,
0010
0000
0100
0010
0100
0000
0010
0000
1000
0010
1000
0000
,
0001
0000
0100
0001
0100
0000
0010
0000
0100
0010
0100
0000
,
1000
0000
0010
1000
0010
0000
0100
0000
0001
1000
0001
1000
,
0010
0000
0100
0010
0100
0000
0001
0000
0100
0010
0100
0000
,
0001
0000
1000
0001
1000
0000
0100
0000
1000
0100
1000
0000
,
0110
0000
0001
0000
0100
0000
0010
0000
0100
0000
0001
1000
,
0001
0000
0100
0000
0010
0000
1000
0000
0001
0000
0100
0010
,
0100
0000
0010
1000
0010
0000
0100
0000
0001
1000
0001
0000
,
1000
0000
0100
1000
0100
0000
1000
0000
0010
1000
0010
0000
,
0100
0000
0010
0100
0010
0000
0100
0000
0001
0100
0001
0000
,
1000
0000
0001
1000
0001
0000
0010
0000
0001
1000
0001
1000
,
0010
0000
0100
0010
0100
0000
0001
0000
0100
0001
0100
0000
,
0001
0000
0010
0001
0010
0000
0100
0000
1000
0100
1000
0000
,
1001
0000
0100
0000
0010
0000
1000
0000
0010
0000
0100
0000
,
1001
0000
0010
0000
0100
0000
0001
1000
0001
1000
0001
1000
,
0001
0000
0010
0000
0100
0000
1000
0000
0100
0000
0010
0000
,
0001
0000
0100
0000
0010
0000
1000
0000
0010
0000
0100
0000
,
0001
0000
1000
0000
0001
0000
0100
0000
0010
0000
0100
0000
,
0001
0000
1000
0000
0001
0000
0010
0000
0100
0010
0100
0010
,
0001
0000
0010
0000
0100
0000
1000
0000
0100
0000
0010
0000
,
0001
0000
0100
0000
0010
0000
1000
0000
0010
0000
0100
0000
,
1001
0000
0010
0000
0100
0000
1000
0000
0100
0000
0010
0000
,
1001
0000
0100
0000
0010
0000
1000
0001
1000
0001
1000
0001
,
1000
0000
0100
0000
0001
0000
1000
0000
0010
0000
0001
0000
,
1000
0000
0100
0000
0001
0000
1000
0000
0010
0000
0001
0000
,
1000
0000
0010
0000
1000
0000
0001
0000
0100
0000
0001
0000
,
1000
0000
1000
0000
0001
0000
0100
0000
0100
0001
0010
0001
,
1000
0000
1000
0000
0010
0000
1000
0000
1000
0000
0100
0000
,
0010
0000
0010
0000
0001
0000
0100
0000
0100
0000
0001
0000
,
0110
0000
1000
0000
0100
0000
0010
0000
0001
0000
0010
0000
,
1001
0000
0100
0000
0010
0000
1000
0001
1000
0001
1000
0001
,
1000
0000
0000
0100
1000
0000
0000
0100
1000
0000
0000
0001
0010
0000
0000
0001
,
0010
1001
0101
1001
,
0110
1010
1001
0101
,
0110
1001
1100
0011
,
0001
0000
0000
0100
0001
0000
0000
0100
0001
0000
0000
1000
0010
0000
0000
1000
,
0010
0000
0000
1000
0001
0000
0000
1000
0001
0000
0000
0010
0001
0000
0000
0010
,
0001
0000
0000
0010
0100
0000
0000
0010
0100
0000
0000
1000
0100
0000
0000
1000
,
0100
0000
0000
1000
0001
0000
0000
1000
0001
0000
0000
0100
0001
0000
0000
0100
,
0001
0000
1000
0000
0100
0000
1000
0000
0010
0000
0100
0000
,
0001
0010
0001
0100
0010
0100
0010
1000
0010
1000
0001
1000
,
0020
0000
0000
0000
,
0030
0000
0000
0000
;

//---------------dance-single - ----------------
#NOTES:
     dance-single:
     :
     Medium:
     8:
     0.577181,0.671095,0.289134,0.175002,0.882619,531.000000,493.000000,38.000000,23.000000,0.000000,0.000000,0.577181,0.671095,0.289134,0.175002,0.882619,531.000000,493.000000,38.000000,23.000000,0.000000,0.000000:
0000
0000
0000
0000
,
1001
0000
0000
0000
0000
0000
1000
0000
0001
0000
1000
0000
,
0100
0000
0000
0000
0010
0000
0002
0000
0000
0000
0000
0000
,
2003
0000
0000
0000
3010
0000
0200
0000
0000
0000
0000
0000
,
0301
0000
1000
0000
0001
0000
0100
0000
0010
0000
0100
0000
,
1001
0000
0000
0000
0000
0000
1000
0000
0100
0000
1000
0000
,
0110
0000
0000
0000
0010
0000
0002
0000
0000
0000
0000
0000
,
0013
0000
0100
0000
0010
0000
0200
0000
0000
0000
0000
0000
,
2300
0000
0000
0000
,
3001
0000
0000
0000
0000
0000
1010
0000
0000
0000
0100
0000
,
1000
0000
0101
0000
,
0110
0000
0000
0000
0000
0000
0011
0000
0000
0000
1000
0000
,
0010
0000
1001
0000
,
1100
0000
0000
0000
0000
0000
0110
0000
0000
0000
0100
0000
,
0001
0000
1001
0000
,
1010
0000
0000
0000
0000
0000
0110
0000
0000
0000
1000
0000
,
0020
0000
2030
0000
,
3001
0000
0000
0000
0000
0000
0101
0000
0000
0000
0010
0000
,
0100
0000
1010
0000
,
0110
0000
0000
0000
0000
0000
0101
0000
0000
0000
1000
0000
,
0001
0000
1010
0000
,
1100
0000
0000
0000
0000
0000
0110
0000
0000
0000
0001
0000
,
0100
0000
1001
0000
,
1100
0000
0000
0000
0000
0000
0110
0000
0000
0000
0002
0000
,
2000
0000
0000
3003
,
1000
0000
0001
0000
1000
0000
0010
0000
0100
0000
0010
0000
,
1000
0000
0100
0000
1000
0000
0010
0000
0100
0000
0010
0000
,
1000
0000
0010
0000
1000
0000
0010
0000
0100
0000
0010
0000
,
1000
0000
0001
0000
1000
0000
0010
0000
0100
0000
0010
0000
,
1000
0000
0100
0000
1000
0000
0001
0000
1000
0000
0001
0000
,
1000
0000
0010
0000
1000
0000
0001
0000
1000
0000
0001
0000
,
0010
0000
0000
0000
1001
0000
0000
0000
0101
0000
0000
0000
,
0001
0000
0000
0000
1001
0000
1000
0000
0010
0000
1000
0000
,
0001
0000
1000
0000
0001
0000
1000
0000
0010
0000
1000
0000
,
0001
0000
0100
0000
0001
0000
0010
0000
0001
0000
1000
0000
,
0001
0000
0100
0000
0010
0000
1000
0000
0001
0000
0100
0000
,
0010
0000
0000
0000
1000
0000
0000
0000
0001
0000
0000
0000
1000
0100
0000
0000
0000
0000
0010
0001
0000
0000
0000
0000
,
1000
0000
0001
1000
0000
0000
0001
0000
1000
0001
0000
0000
,
1000
0000
0010
1000
0000
0000
0001
0000
0010
0001
0000
0000
,
0100
0000
0001
0100
0000
0000
0010
0000
0100
0010
0000
0000
,
1000
0000
0100
1000
0000
0000
0001
0000
0000
0100
0010
0100
,
0001
0000
1000
0100
0000
0000
1000
0000
0010
0100
0000
0000
,
0010
0000
0100
0001
0000
0000
2000
0000
0000
3002
0000
0000
,
1003
0000
0001
0000
0100
0000
0001
0000
0010
0000
0001
0000
,
1000
0000
0010
0000
0100
0000
0010
0000
0001
0000
0010
0000
,
1000
0000
0010
0000
0100
0000
0001
0000
1000
0000
0001
0000
,
0010
0000
0001
0000
0100
0000
0010
0000
1000
0000
0010
0000
,
1000
0000
0100
0000
1000
0000
0002
0000
0000
0013
0000
0000
,
0001
0000
0100
0000
0001
0000
2000
0000
0000
3010
0000
0000
,
1000
0000
0100
1000
0000
0100
0010
0000
0001
0010
0000
0001
,
1000
0000
0001
1000
0000
0001
0100
0000
0010
0100
0000
0010
,
2000
0010
0001
0100
,
3200
0010
0302
1000
,
2003
0001
0010
0100
,
3020
0100
0001
1030
,
0001
0000
0100
0001
0000
0000
1000
0000
0001
1000
0000
0000
,
0010
0000
0100
0010
0000
0000
0010
0000
1000
0010
0000
0000
,
0001
0000
0100
0001
0000
0000
0010
0000
0100
0010
0000
0000
,
1000
0000
0010
1000
0000
0000
0100
0000
0001
1000
0000
0000
,
0010
0000
0100
0010
0000
0000
1000
0000
0100
0010
0000
0000
,
0001
0000
1000
0001
0000
0000
0100
0000
1000
0100
0000
0000
,
1000
0000
0001
0000
0100
0000
0010
0000
0100
0000
0001
0000
,
1000
0000
0100
0000
0010
0000
0001
0000
1000
0000
0010
0000
,
0100
0000
0010
1000
0000
0000
0100
0000
1000
0001
0000
0000
,
1000
0000
0100
1000
0000
0000
1000
0000
0010
1000
0000
0000
,
0100
0000
0010
0100
0000
0000
0100
0000
0001
0100
0000
0000
,
1000
0000
0001
1000
0000
0000
0010
0000
0001
1000
0000
0000
,
0010
0000
0100
0010
0000
0000
0001
0000
0100
0001
0000
0000
,
0001
0000
0010
0001
0000
0000
0100
0000
1000
0100
0000
0000
,
1000
0000
0100
0000
0010
0000
1000
0000
0010
0000
0100
0000
,
0001
0000
0010
0000
0100
0000
2001
0000
0000
0000
0000
0000
,
3001
0000
0010
0000
0100
0000
1000
0000
0100
0000
0010
0000
,
0001
0000
0100
0000
0010
0000
1000
0000
0010
0000
0100
0000
,
0001
0000
1000
0000
0001
0000
0100
0000
0010
0000
0100
0000
,
0001
0000
1000
0000
0001
0000
0010
0000
0100
0000
0010
0000
,
0001
0000
0010
0000
0100
0000
1000
0000
0100
0000
0010
0000
,
0001
0000
0100
0000
0010
0000
1000
0000
0010
0000
0100
0000
,
0001
0000
0010
0000
0100
0000
1000
0000
0100
0000
0010
0000
,
0001
0000
0100
0000
0010
0000
1000
0000
0001
1000
0000
0001
,
1000
0000
0100
0000
1000
0000
0001
0000
0010
0000
0001
0000
,
1000
0000
0100
0000
1000
0000
0001
0000
0010
0000
0001
0000
,
1000
0000
0010
0000
1000
0000
0001
0000
0100
0000
0001
0000
,
1000
0000
1000
0000
0001
0000
0100
0000
0100
0000
0001
0000
,
1000
0000
1000
0000
0010
0000
1000
0000
1000
0000
0100
0000
,
0010
0000
0010
0000
0001
0000
0100
0000
0100
0000
0001
0000
,
0100
0000
0001
0000
0100
0000
0010
0000
1000
0000
0010
0000
,
1000
0000
0100
0000
0010
0000
0001
0000
1000
0001
0000
1000
,
0001
0000
0000
1000
0100
0000
0000
1000
0100
0000
0000
0010
0001
0000
0000
0010
,
0001
1001
0101
1001
,
0110
1010
1001
0101
,
0110
1001
1100
0011
,
0001
0000
0000
0100
0001
0000
0000
0100
0001
0000
0000
1000
0010
0000
0000
1000
,
0010
0000
0000
1000
0001
0000
0000
1000
0001
0000
0000
0010
0001
0000
0000
0010
,
0001
0000
0000
0010
0100
0000
0000
0010
0100
0000
0000
1000
0100
0000
0000
1000
,
0100
0000
0000
1000
0001
0000
0000
1000
0001
0000
0000
0100
0001
0000
0000
0100
,
0001
0000
1000
0000
0100
0000
1000
0000
0010
0000
0100
0000
,
0002
0010
2003
0100
,
3020
0000
0000
0000
,
0030
0000
0000
0000
;

//---------------dance-single - ----------------
#NOTES:
     dance-single:
     :
     Easy:
     5:
     0.422831,0.521963,0.517397,0.190220,0.285329,389.000000,321.000000,68.000000,25.000000,0.000000,0.000000,0.422831,0.521963,0.517397,0.190220,0.285329,389.000000,321.000000,68.000000,25.000000,0.000000,0.000000:
0000
0000
0000
0000
,
1001
0000
0000
0000
0000
0000
1000
0000
0000
0000
0001
0000
,
0100
0000
0000
0000
0010
0000
0100
0000
0000
0000
0000
0000
,
0001
0000
0000
0000
0010
0000
0200
0000
0000
0000
0000
0000
,
1300
0000
0000
0000
0001
0000
0100
0000
0000
0000
0010
0000
,
1000
0000
0000
0000
0000
0000
0001
0000
0000
0000
1000
0000
,
0010
0000
0000
0000
0010
0000
1000
0000
0000
0000
0000
0000
,
0010
0000
0000
0000
0100
0000
0010
0000
0000
0000
0000
0000
,
2000
0000
0000
0000
,
3001
0000
1010
0000
,
1000
0000
0101
0000
,
0100
0000
0011
0000
,
0100
0000
1001
0000
,
1000
0000
0110
0000
,
0001
0000
1001
0000
,
0100
0000
0110
0000
,
0020
0000
2030
0000
,
3001
0000
0101
0000
,
0100
0000
1010
0000
,
0010
0000
0101
0000
,
0001
0000
1010
0000
,
1000
0000
0110
0000
,
0100
0000
1001
0000
,
1000
0000
0110
0000
,
2002
0000
0000
3003
,
1000
0000
0000
0000
0001
0000
0100
0000
0000
0000
0010
0000
,
1000
0000
0000
0000
0100
0000
0010
0000
0000
0000
0100
0000
,
1000
0000
0000
0000
0010
0000
0100
0000
0000
0000
0010
0000
,
1000
0000
0000
0000
0001
0000
0010
0000
0000
0000
0100
0000
,
1000
0000
0000
0000
0100
0000
1000
0000
0000
0000
0001
0000
,
1000
0000
0000
0000
0010
0000
1000
0000
0000
0000
0001
0000
,
0010
0000
0000
0000
1000
0000
0000
0000
0010
0000
0000
0000
,
0001
0000
0000
0000
1000
0000
0020
0000
0000
0000
0000
0000
,
1030
0000
0000
0000
0001
0000
1000
0000
0000
0000
0010
0000
,
1000
0000
0000
0000
0010
0000
0100
0000
0000
0000
0001
0000
,
1000
0000
0000
0000
0010
0000
1000
0000
0000
0000
0001
0000
,
0010
0000
0000
0000
0001
0000
1000
0000
0000
0010
0000
0000
,
1000
1001
0001
1001
,
1000
1010
0001
0011
,
0100
0101
0010
0110
,
1000
1100
0001
0110
,
0001
1100
1000
0110
,
0010
0101
1000
0001
,
1000
0000
0000
0000
0001
0000
0100
0000
0000
0000
0010
0000
,
1000
0000
0000
0000
0010
0000
0100
0000
0000
0000
0001
0000
,
1000
0000
0000
0000
0010
0000
0100
0000
0000
0000
0001
0000
,
0010
0000
0000
0000
0001
0000
0100
0000
0000
0000
0010
0000
,
1000
0000
0000
0000
1000
0000
0002
0000
0000
0003
0000
0000
,
0001
0000
0000
0000
0100
0000
0020
0000
0000
0030
0000
0000
,
2000
0000
3020
0000
,
2030
0000
3002
0000
,
2003
0000
0000
0000
,
3200
0000
0320
0000
,
0032
0000
0000
0000
,
0023
0000
0000
0031
,
0001
0101
1000
1001
,
0010
0110
0010
1010
,
0001
0101
0010
0110
,
1000
1010
0100
1001
,
0010
0110
1000
0110
,
0001
1001
0100
1100
,
1000
0000
0000
0000
0001
0000
0010
0000
0000
0000
0100
0000
,
1000
0000
0000
0000
0010
0000
1000
0000
0000
0110
0000
0000
,
0100
1010
0100
1001
,
1000
1100
1000
1010
,
0100
0110
0100
0101
,
1000
1001
0010
1001
,
0010
0110
0001
0101
,
0001
0011
0100
1100
,
1000
0000
0000
0000
0100
0000
0010
0000
0000
0000
0001
0000
,
2000
0000
3002
0000
,
1003
0000
0000
0000
0010
0000
0100
0000
0000
0000
0010
0000
,
1000
0000
0000
0000
0100
0000
0010
0000
0000
0000
0001
0000
,
1000
0000
0000
0000
0001
0000
0100
0000
0000
0000
0010
0000
,
0100
0000
0000
0000
0001
0000
0010
0000
0000
0100
0000
0000
,
1000
0000
0000
0000
0010
0000
0100
0000
0000
0000
0001
0000
,
0100
0000
0000
0000
0010
0000
1000
0000
0000
0000
0100
0000
,
1000
0000
0000
0000
0010
0000
0100
0000
0000
0000
0010
0000
,
1000
0000
0000
0000
0001
0000
2000
0000
0000
3001
0000
0000
,
1000
0000
0000
0000
0100
0000
1000
0000
0000
0000
0010
0000
,
0100
0000
0000
0000
0001
0000
0010
0000
0000
0000
0001
0000
,
1000
0000
0000
0000
0010
0000
1000
0000
0000
0000
0001
0000
,
0010
0000
0000
0000
0001
0000
0100
0000
0000
0001
0000
0000
,
1000
0000
0000
0000
0010
0000
1000
0000
0000
0000
0100
0000
,
0010
0000
0000
0000
0001
0000
0100
0000
0000
0000
0001
0000
,
0100
0000
0000
0000
0001
0000
1000
0000
0000
0000
0010
0000
,
1000
0000
0000
0000
0100
0000
2000
0000
0000
3001
0000
0000
,
0001
1100
1000
0011
,
0001
1001
0100
1001
,
0010
1010
0001
0101
,
0100
1001
0100
0011
,
0001
0101
0001
1010
,
0010
1001
0001
0011
,
0001
0110
0100
1100
,
0100
1001
0001
0101
,
0001
0000
0000
0000
1000
0000
0010
0000
0000
0000
0100
0000
,
0002
0000
2003
0000
,
3020
0000
0000
0000
,
0030
0000
0000
0000
;

//---------------dance-single - ----------------
#NOTES:
     dance-single:
     :
     Beginner:
     3:
     0.228264,0.298264,0.007609,0.281525,0.000000,210.000000,209.000000,1.000000,37.000000,0.000000,0.000000,0.228264,0.298264,0.007609,0.281525,0.000000,210.000000,209.000000,1.000000,37.000000,0.000000,0.000000:
// measure 0
0000
0000
0000
0000
,  // measure 1
1000
0000
1000
0000
,  // measure 2
0100
0000
0100
0000
,  // measure 3
0001
0000
0001
0000
,  // measure 4
1000
0000
0100
0000
,  // measure 5
1000
0000
0001
0000
,  // measure 6
0010
0000
0001
0000
,  // measure 7
0010
0000
0010
0000
,  // measure 8
0002
0000
0000
0003
,  // measure 9
1000
0000
0010
0000
,  // measure 10
1000
0000
0001
0000
,  // measure 11
0100
0000
0001
0000
,  // measure 12
1000
0000
0010
0000
,  // measure 13
1000
0000
0100
0000
,  // measure 14
1000
0000
0001
0000
,  // measure 15
0100
0000
0010
0000
,  // measure 16
1000
0000
0010
0000
,  // measure 17
0100
0000
0001
0000
,  // measure 18
0100
0000
0010
0000
,  // measure 19
1000
0000
0001
0000
,  // measure 20
0100
0000
0010
0000
,  // measure 21
1000
0000
0010
0000
,  // measure 22
0100
0000
0001
0000
,  // measure 23
1000
0000
0010
0000
,  // measure 24
1001
0000
0000
0000
,  // measure 25
2000
0000
3000
0000
,  // measure 26
0020
0000
0030
0000
,  // measure 27
0200
0000
0300
0000
,  // measure 28
0002
0000
0003
0000
,  // measure 29
2000
0000
3000
0000
,  // measure 30
0020
0000
0030
0000
,  // measure 31
0200
0000
0300
0000
,  // measure 32
0002
0000
1003
0000
,  // measure 33
2000
0000
3000
0000
,  // measure 34
0020
0000
0030
0000
,  // measure 35
0200
0000
0300
0000
,  // measure 36
0020
0000
1030
0000
,  // measure 37
1000
1000
0001
0000
,  // measure 38
0010
0010
0100
0000
,  // measure 39
0001
0001
0010
0000
,  // measure 40
1000
1000
0100
0000
,  // measure 41
0001
0001
0100
0000
,  // measure 42
0010
0010
1000
0000
,  // measure 43
2000
0000
3100
0000
,  // measure 44
0020
0000
0130
0000
,  // measure 45
0002
0000
0013
0000
,  // measure 46
0200
0000
0310
0000
,  // measure 47
2000
0000
3001
0000
,  // measure 48
0200
0000
0310
0000
,  // measure 49
2000
3000
0020
0030
,  // measure 50
2000
3000
0002
0003
,  // measure 51
2000
0000
3000
0000
,  // measure 52
0100
0000
0010
0000
,  // measure 53
0002
0000
0003
0000
,  // measure 54
0020
0000
0031
0000
,  // measure 55
0001
0001
0001
0000
,  // measure 56
0010
0010
0010
0000
,  // measure 57
0100
0100
0100
0000
,  // measure 58
1000
1000
1000
0000
,  // measure 59
0010
0010
0010
0000
,  // measure 60
0001
0001
0001
0000
,  // measure 61
1000
1000
1000
0000
,  // measure 62
0100
0100
0100
0000
,  // measure 63
0010
0010
0010
0000
,  // measure 64
1000
1000
1000
0000
,  // measure 65
0100
0100
0100
0000
,  // measure 66
1000
1000
1000
0000
,  // measure 67
0010
0010
0010
0000
,  // measure 68
0001
0001
0001
0000
,  // measure 69
2000
3000
0020
0030
,  // measure 70
2000
3000
0002
0003
,  // measure 71
1000
0000
0100
0000
,  // measure 72
0010
0000
0001
0000
,  // measure 73
1000
0000
0100
0000
,  // measure 74
0010
0000
0001
0000
,  // measure 75
1000
0000
1000
0000
,  // measure 76
0001
0000
0001
0000
,  // measure 77
1000
0000
0010
0000
,  // measure 78
0100
0000
0002
0003
,  // measure 79
1000
0000
1000
0000
,  // measure 80
0100
0000
0001
0000
,  // measure 81
0100
0000
0010
0000
,  // measure 82
1000
0000
0001
0000
,  // measure 83
1000
0000
1000
0000
,  // measure 84
0010
0000
0100
0000
,  // measure 85
0001
0000
1000
0000
,  // measure 86
0010
0000
2000
3000
,  // measure 87
0001
1000
1000
0000
,  // measure 88
0100
0001
0001
0000
,  // measure 89
1000
0010
0010
0000
,  // measure 90
1000
0100
0100
0000
,  // measure 91
0010
0001
0001
0000
,  // measure 92
0100
0010
0010
0010
,  // measure 93
0001
0100
0100
0000
,  // measure 94
0010
1000
1000
1000
,  // measure 95
0002
0003
0020
0030
,  // measure 96
0002
0003
2000
3000
,  // measure 97
0020
0000
0000
0000
,  // measure 98
0030
0000
0000
0000
;
