#VERSION:0.81;
#TITLE:Peanut Butter Jelly;
#SUBTITLE:;
#ARTIST:Galantis;
#TITLETRANSLIT:;
#SUBTITLETRANSLIT:;
#ARTISTTRANSLIT:;
#GENRE:;
#ORIGIN:;
#CREDIT:;
#BANNER:;
#BACKGROUND:;
#PREVIEWVID:;
#JACKET:;
#CDIMAGE:;
#DISCIMAGE:;
#LYRICSPATH:;
#CDTITLE:;
#MUSIC:Peanut Butter Jelly.ogg;
#OFFSET:-0.110098;
#SAMPLESTART:63.884804;
#SAMPLELENGTH:12.000000;
#SELECTABLE:YES;
#BPMS:0.000=128.000;
#STOPS:;
#DELAYS:;
#WARPS:;
#TIMESIGNATURES:0.000=4=4;
#TICKCOUNTS:0.000=4;
#COMBOS:0.000=1;
#SPEEDS:0.000=1.000=0.000=0;
#SCROLLS:0.000=1.000;
#FAKES:;
#LABELS:0.000=Song Start;
#BGCHANGES:;
#KEYSOUNDS:;
#ATTACKS:
;

//---------------dance-single - ----------------
#NOTEDATA:;
#CHARTNAME:;
#STEPSTYPE:dance-single;
#DESCRIPTION:;
#CHARTSTYLE:;
#DIFFICULTY:Beginner;
#METER:1;
#RADARVALUES:0.105336,0.101275,0.008884,0.000000,0.000000,82.000000,1.000000,0.000000,0.000000,0.000000,0.000000,0.000000,0.000000,0.105336,0.101275,0.008884,0.000000,0.000000,82.000000,1.000000,0.000000,0.000000,0.000000,0.000000,0.000000,0.000000;
#CREDIT:;
#NOTES:
0000
0000
0000
0000
,
0000
0000
0000
0000
,
0000
0000
0000
0000
,
0000
0000
0000
0000
,
0000
0000
0000
0000
,
0000
0000
0000
0000
,
1000
0000
1000
0000
,
0001
0000
0000
0000
,
0001
0000
0001
0000
,
1000
0000
0000
0000
,
0001
0000
0001
0000
,
0100
0000
0100
0000
,
0010
0000
0010
0000
,
1000
0000
0000
0000
,
1000
0000
1000
0000
,
0100
0000
0100
0000
,
0010
0000
0010
0000
,
0001
0000
0000
0000
,
1000
0000
0001
0000
,
1000
0000
0000
0000
,
0001
0000
1000
0000
,
0001
0000
0000
0000
,
0100
0000
0010
0000
,
0100
0000
0000
0000
,
0010
0000
0100
0000
,
0010
0000
0000
0000
,
1000
0000
0000
0000
,
0100
0000
0000
0000
,
0010
0000
0000
0000
,
0001
0000
0000
0000
,
0100
0000
0000
0000
,
0010
0000
0000
0000
,
1000
0000
0000
0000
,
0000
0000
0000
0000
,
0001
0000
0001
0000
,
1000
0000
1000
0000
,
0001
0000
0001
0000
,
1000
0000
1000
0000
,
0001
0000
0010
0000
,
0100
0000
1000
0000
,
0010
0000
0100
0000
,
1001
0000
0000
0000
,
1000
0000
0001
0000
,
0100
0000
0000
0000
,
0001
0000
1000
0000
,
0001
0000
0000
0000
,
1000
0000
1000
0000
,
0010
0000
0010
0000
,
0100
0000
0100
0000
,
0001
0000
0000
0000
,
1000
0000
1000
0000
,
0001
0001
0000
0000
,
0100
0000
0100
0000
,
0010
0000
0010
0000
,
1000
0000
1000
0000
,
0100
0000
0100
0000
,
0010
0000
0010
0000
,
0001
0000
0000
0000
;

//---------------dance-single - ----------------
#NOTEDATA:;
#CHARTNAME:;
#STEPSTYPE:dance-single;
#DESCRIPTION:;
#CHARTSTYLE:;
#DIFFICULTY:Easy;
#METER:4;
#RADARVALUES:0.258898,0.360680,0.079954,0.230978,0.000000,169.000000,9.000000,26.000000,0.000000,0.000000,0.000000,0.000000,0.000000,0.258898,0.360680,0.079954,0.230978,0.000000,169.000000,9.000000,26.000000,0.000000,0.000000,0.000000,0.000000,0.000000;
#CREDIT:;
#NOTES:
0000
0000
0000
0000
,
0000
0000
0000
0000
,
0000
0000
0000
0000
,
0000
0000
0000
0000
,
0000
0000
0000
0000
,
0000
0000
0000
0000
,
0000
1000
1000
0000
,
0001
0001
0000
0000
,
0100
0000
0100
0000
,
0010
0000
0000
0000
,
1000
0100
1000
0100
,
0010
0001
0010
0001
,
0100
0010
0100
0010
,
1000
0001
1000
0001
,
1000
1000
0010
0010
,
0100
0100
0001
0001
,
1000
1000
0100
0100
,
0010
0010
0001
0001
,
1000
0010
0100
0001
,
2000
3000
2000
3000
,
0001
0010
0100
1000
,
0002
0003
0002
0003
,
1000
0010
0100
0001
,
2000
3000
2000
3000
,
0001
0010
0100
1000
,
0002
0003
0002
0003
,
0200
0300
0200
0300
,
0020
0030
0020
0030
,
2000
3000
2000
3000
,
0002
0003
0002
0003
,
1000
0001
1000
0001
,
0100
0010
0100
0010
,
2000
3002
0203
0320
,
2030
3200
0320
0030
,
1100
0001
1100
0001
,
1010
0001
1010
0001
,
1000
0100
0010
0001
,
0100
0100
0010
0000
,
1000
0010
0100
0001
,
0010
0100
1000
0010
,
0100
0010
1000
0001
,
0100
0000
0010
0000
,
0101
1000
0101
1000
,
0101
1001
0001
0001
,
0000
1000
0010
0100
,
0001
1000
0001
0000
,
1000
0100
0010
0100
,
1000
0010
0100
0001
,
0100
0010
1000
0100
,
0010
0000
0001
0000
,
1000
1000
1000
1000
,
1000
2002
0000
3003
,
1000
0001
1000
1000
,
0001
1000
0001
0000
,
1000
0010
0100
0001
,
0010
0100
1000
1000
,
0001
0100
1000
0100
,
0002
0000
0000
0000
,
0003
0000
0000
0000
;

//---------------dance-single - ----------------
#NOTEDATA:;
#CHARTNAME:;
#STEPSTYPE:dance-single;
#DESCRIPTION:;
#CHARTSTYLE:;
#DIFFICULTY:Medium;
#METER:6;
#RADARVALUES:0.324892,0.412206,0.151024,0.204326,0.000000,216.000000,17.000000,23.000000,0.000000,0.000000,0.000000,0.000000,0.000000,0.324892,0.412206,0.151024,0.204326,0.000000,216.000000,17.000000,23.000000,0.000000,0.000000,0.000000,0.000000,0.000000;
#CREDIT:;
#NOTES:
0000
0000
0000
0000
,
0000
0000
0000
0000
,
0000
0000
0000
0000
,
0000
0000
0000
0000
,
0000
0000
0000
0000
,
0000
0000
0000
0000
,
0000
1000
0000
1000
0000
0001
1000
0001
,
1000
0001
0000
0000
0100
0000
0100
0000
,
0000
0001
0010
0000
0100
0000
1000
0001
,
0000
0000
0000
0000
,
1000
0010
0100
0000
0010
0100
0001
0000
,
1000
1100
0001
0101
,
0001
0010
0100
0000
0010
0100
1000
0000
,
0010
1001
0100
1001
,
0001
0001
0100
0000
0001
0001
0010
0000
,
0100
0011
0100
1010
,
1000
1000
0100
0000
1000
1000
0010
0000
,
0100
0011
0100
1010
,
1000
0001
1000
0000
0001
1000
0001
0000
,
2000
0100
3002
0100
,
1003
0001
1000
0000
0001
1000
0001
0000
,
2000
0010
3002
0010
,
1003
0010
0100
0000
0001
0010
0100
0000
,
2000
0100
3002
0010
,
1003
0010
0100
0000
0001
0010
0100
0000
,
2000
0010
3002
0100
,
1003
0000
0000
0001
1000
0000
0000
0001
,
1000
0000
0000
0001
1000
0000
0000
0010
,
0100
0000
0000
0010
0100
0000
0000
0010
,
0100
0000
0000
0010
0100
0000
0000
0010
,
2000
3200
0320
0032
,
0203
0320
2030
3002
,
0023
0000
0000
0000
,
0000
0000
0200
0330
,
1100
0001
0101
1000
,
1010
0000
0001
0000
1000
0001
0100
0010
,
1000
0000
0100
0000
0010
0100
1000
0000
,
0001
0000
0100
0000
0010
0100
0001
0000
,
1000
0100
0010
0100
,
1000
0010
0100
0001
,
0010
0000
0100
0000
0010
0001
0100
0000
,
0020
0000
0001
1030
,
1100
0001
0101
1000
,
1010
1001
0001
0001
,
0000
1000
0100
0000
0010
0000
0100
0000
,
1000
0010
0100
0000
0010
0000
1000
0000
,
0001
0010
0100
1000
,
0010
0100
0001
1000
,
0100
0010
0100
1000
,
0001
0000
1000
0001
,
1000
0100
0010
0001
,
0100
0202
0000
0303
,
1000
0100
0010
0100
,
1000
0000
0010
0000
0100
0010
0100
0000
,
0001
0010
0100
0010
,
0001
1000
0010
0010
,
0100
0000
0001
0000
0010
0100
0000
2002
,
0000
0000
0000
0000
,
3003
0000
0000
0000
;

//---------------dance-single - ----------------
#NOTEDATA:;
#CHARTNAME:;
#STEPSTYPE:dance-single;
#DESCRIPTION:;
#CHARTSTYLE:;
#DIFFICULTY:Hard;
#METER:8;
#RADARVALUES:0.440380,0.515258,0.195443,0.284280,0.013326,293.000000,22.000000,32.000000,0.000000,0.000000,0.000000,0.000000,0.000000,0.440380,0.515258,0.195443,0.284280,0.013326,293.000000,22.000000,32.000000,0.000000,0.000000,0.000000,0.000000,0.000000;
#CREDIT:;
#NOTES:
// measure 0
0000
0000
0000
0000
,  // measure 1
0000
0000
0000
0000
,  // measure 2
0000
0000
0000
0000
,  // measure 3
0000
0000
0000
0000
,  // measure 4
0000
0000
0000
0000
,  // measure 5
0000
0000
0000
0000
,  // measure 6
0000
1000
0000
1000
0000
0001
0100
0010
,  // measure 7
0100
0002
0000
0000
1000
0000
1003
0000
,  // measure 8
0000
1000
0100
0010
0100
1000
0010
2000
,  // measure 9
0000
0000
0000
3000
,  // measure 10
1000
0100
0001
0100
1000
0100
0001
0100
,  // measure 11
0010
1001
0100
1001
,  // measure 12
0001
0100
1000
0100
0001
0100
1000
0100
,  // measure 13
0010
1001
0100
1001
,  // measure 14
1000
0100
1000
0010
1000
0100
1000
0010
,  // measure 15
1000
0101
0001
1100
,  // measure 16
0001
0100
0001
0010
0001
0100
0001
0010
,  // measure 17
0001
1100
1000
0101
,  // measure 18
1000
0010
0100
0001
0010
0100
1000
0010
,  // measure 19
2000
0100
0010
3001
,  // measure 20
0001
0010
0100
1000
0010
0100
1000
0100
,  // measure 21
0002
0010
0100
1003
,  // measure 22
1000
0010
0100
0001
0010
0100
0001
0100
,  // measure 23
0020
1000
0100
0031
,  // measure 24
0001
0100
1000
0100
0001
0010
0100
1000
,  // measure 25
0200
0000
0000
0001
0302
0000
0000
0100
,  // measure 26
0203
0000
0000
1000
2300
0000
0000
0010
,  // measure 27
3020
0000
0000
0100
0230
0000
0000
1000
,  // measure 28
2300
0000
0000
0100
3200
0000
0000
0001
,  // measure 29
0302
0000
0000
0010
0023
0000
0000
0100
,  // measure 30
0230
2300
3020
0230
,  // measure 31
2300
0000
0000
0000
3200
0000
0000
0000
0302
0000
0000
0000
0023
0000
0130
1000
,  // measure 32
0002
0000
0000
0000
,  // measure 33
0000
0000
2000
3003
,  // measure 34
1100
0000
0001
1000
0101
0000
1000
0001
,  // measure 35
1100
0000
0000
0000
0001
0000
0000
0000
1000
0000
0001
0100
0010
0000
0102
0000
,  // measure 36
0000
0000
1003
0100
0010
0100
1100
0000
,  // measure 37
0001
0100
0010
0010
0100
0010
1001
0000
,  // measure 38
0001
0010
0100
1000
0010
0100
1000
0100
,  // measure 39
0000
0001
0010
0100
0000
0100
0001
0100
,  // measure 40
1000
0010
0100
0001
0010
0100
1000
0100
,  // measure 41
1000
0000
0001
0000
0100
0010
0010
0000
,  // measure 42
1100
0001
0001
0000
0101
1000
1000
0000
,  // measure 43
1010
0000
0100
0000
1001
0000
0000
0000
0001
0000
1000
0100
0010
0000
2100
0000
,  // measure 44
0000
3001
0100
0010
0100
0001
1000
0000
,  // measure 45
0001
0010
0100
0100
0010
0100
1001
0000
,  // measure 46
1000
0010
0100
1000
0100
0001
0010
0100
,  // measure 47
0000
0010
0001
0100
0000
0010
0100
0001
,  // measure 48
0010
0100
0001
0100
1000
0010
0100
1000
,  // measure 49
0200
0000
0001
0000
0010
0010
0310
0000
,  // measure 50
1000
0100
0001
0100
1000
0010
0001
0010
,  // measure 51
0100
0010
2002
0000
0000
0000
3003
0000
,  // measure 52
1000
0100
0001
0100
0010
0001
0100
0000
,  // measure 53
0010
0100
0001
0010
0100
1000
0001
0000
,  // measure 54
1000
0010
0001
0010
0100
0001
0010
0100
,  // measure 55
0001
0100
1000
0001
0000
0100
1000
0100
,  // measure 56
0001
0010
0100
1000
0010
0100
0000
2002
,  // measure 57
0000
0000
0000
0000
,  // measure 58
3003
0000
0000
0000
;
