#TITLE:Never Too Late;
#SUBTITLE:;
#ARTIST:Kylie Minogue;
#TITLETRANSLIT:;
#SUBTITLETRANSLIT:;
#ARTISTTRANSLIT:;
#GENRE:;
#CREDIT:;
#BANNER:[Qualifier] - Never Too Late.png;
#BACKGROUND:[Qualifier] - Never Too Late-bg.png;
#LYRICSPATH:[Qualifier] - Never Too Late.lrc;
#CDTITLE:;
#MUSIC:[Qualifier] - Never Too Late.ogg;
#OFFSET:0.900000;
#SAMPLESTART:40.840000;
#SAMPLELENGTH:12.000000;
#SELECTABLE:YES;
#BPMS:0.000000=120.000000
;
#STOPS:
;
#BGCHANGES:20.000=[Qualifier] - Never Too Late.avi=1.000=1=0=1===CrossFade==,
223.000=Never Too Late-bg.png=1.000=1=0=1===CrossFade==,
99999=-nosongbg-=1.000=0=0=0 // don't automatically add -songbackground-
;
#KEYSOUNDS:;
#ATTACKS:;

//---------------dance-single - ----------------
#NOTES:
     dance-single:
     :
     Hard:
     7:
     0.463700,0.514683,0.412317,0.061409,0.109659,370.000000,323.000000,47.000000,7.000000,0.000000,0.000000,0.463700,0.514683,0.412317,0.061409,0.109659,370.000000,323.000000,47.000000,7.000000,0.000000,0.000000:
// measure 0
0000
0000
0000
0000
,  // measure 1
0000
0000
0000
0000
,  // measure 2
0000
0000
0000
0000
,  // measure 3
0000
0000
0000
0000
,  // measure 4
0000
0000
0000
0000
,  // measure 5
1000
0000
0000
0000
0100
0000
0010
0001
0000
0010
0100
0000
1000
0000
0010
0000
,  // measure 6
0100
0000
0000
0000
0001
0000
0100
0001
0000
1000
0001
0000
0100
0000
0010
1000
,  // measure 7
0001
0000
0000
0000
0001
0000
0010
0001
0010
0000
0000
0001
0000
0000
0100
0000
,  // measure 8
0001
0000
0010
0000
0100
0000
0010
0100
0010
0100
0010
0000
1001
0000
0110
0000
,  // measure 9
1001
0000
0020
1000
0000
0100
0000
1030
,  // measure 10
0001
0000
1000
0100
0010
0001
0000
0000
,  // measure 11
1001
0000
0001
0010
0000
0100
1000
0000
,  // measure 12
1010
0000
1000
0010
1000
0100
0010
0001
,  // measure 13
0000
0000
0010
0100
0000
1000
0001
0010
,  // measure 14
0100
0000
1000
0000
0100
1000
0010
0100
,  // measure 15
0101
0000
0001
0010
0000
0100
1000
0000
,  // measure 16
1100
0000
0000
0000
1000
0000
0010
0000
0000
0000
0100
0000
0001
0000
0100
0001
,  // measure 17
1000
0000
0100
0010
0011
0000
0010
0001
,  // measure 18
1001
0000
0000
0000
0001
0000
1000
0000
0000
0000
1001
0000
0000
0000
0001
1000
,  // measure 19
0001
0000
0001
0100
0000
0101
0000
0000
,  // measure 20
1100
0000
0000
0000
1000
0000
0001
0000
0000
0000
0100
0000
0001
0000
0100
0010
,  // measure 21
1000
0100
1000
1100
0000
1000
0000
1010
,  // measure 22
0000
0000
0000
0001
0000
0000
0000
0000
0000
0011
0000
0000
0000
0000
0001
1000
0000
0000
0000
0000
0000
1000
0000
0000
,  // measure 23
0100
0010
0001
0101
0000
1100
1000
0010
,  // measure 24
0000
0101
0000
0010
0000
1100
0000
0000
,  // measure 25
1000
0001
0100
0001
0010
0100
1000
0100
,  // measure 26
1100
0000
0000
1000
0001
0000
0001
0100
,  // measure 27
0001
0000
0100
0001
0200
0000
0000
0000
0010
0000
0000
0000
0001
0000
0000
0000
,  // measure 28
0310
0000
0100
0000
1000
0000
0100
0001
0010
0000
0100
0000
1000
0000
0010
0100
,  // measure 29
0001
0000
0001
0010
0000
0011
0000
1010
,  // measure 30
0000
0000
1000
0010
0100
0001
0010
0000
,  // measure 31
0011
0000
0001
0010
0000
0100
1000
0000
,  // measure 32
1001
1000
0100
0010
0001
0100
0000
0101
,  // measure 33
0000
0000
0001
0100
0000
0110
0000
0000
,  // measure 34
1001
0000
0110
0000
1000
0010
0100
0010
,  // measure 35
1000
0100
0010
0001
0000
0001
0010
0000
,  // measure 36
1100
0000
0000
0000
1000
0000
0100
0000
0001
0000
0100
0000
1000
0000
0010
0100
,  // measure 37
0001
0000
0001
0011
0000
0110
0000
1100
,  // measure 38
0000
0000
0000
0000
1000
0000
0010
0000
0100
0000
0001
0000
0101
0000
0001
0100
,  // measure 39
0001
0000
0001
0010
0000
0100
1000
0000
,  // measure 40
1100
0000
0000
0000
1000
0000
0010
0000
1000
0000
0100
0000
1000
0000
0001
0010
,  // measure 41
0001
0100
0010
1010
0000
1001
0000
0101
,  // measure 42
0000
0000
0000
1001
0000
0000
0000
0000
0000
1100
0000
0000
0000
0000
0001
1000
0000
0000
0000
0000
0000
0100
0000
0000
,  // measure 43
1000
0100
0010
0100
0000
1000
0001
0101
,  // measure 44
0000
1100
0000
1010
0000
0011
0010
0100
,  // measure 45
1000
0010
0100
0001
0100
1000
0100
0001
,  // measure 46
0101
0000
1001
1000
0100
0000
0010
0001
,  // measure 47
1000
0000
0001
1000
0001
0000
0000
1000
0001
0000
0000
1000
0001
0000
1000
0000
,  // measure 48
0001
0000
0000
0000
0001
0000
0000
0100
0010
0000
1000
0000
0100
0000
0010
0000
,  // measure 49
0001
0100
0010
1000
0100
1000
0010
1000
,  // measure 50
0100
0010
0002
0000
0203
0000
0310
0100
,  // measure 51
0001
0010
0001
0100
0001
0010
0001
0100
,  // measure 52
0101
2000
3200
0320
,  // measure 53
0031
0000
0001
0010
0000
0100
1000
0100
,  // measure 54
0010
0000
0010
0001
0100
1000
0100
0010
,  // measure 55
0100
0000
0010
0100
0010
0000
0100
0000
0001
0000
0010
0000
0100
0000
1100
0000
;

//---------------dance-single - ----------------
#NOTES:
     dance-single:
     :
     Medium:
     5:
     0.310804,0.343122,0.236863,0.131590,0.008773,248.000000,221.000000,27.000000,15.000000,0.000000,0.000000,0.310804,0.343122,0.236863,0.131590,0.008773,248.000000,221.000000,27.000000,15.000000,0.000000,0.000000:
0000
0000
0000
0000
,
0000
0000
0000
0000
,
0000
0000
0000
0000
,
0000
0000
0000
0000
,
0000
0000
0000
0000
,
1000
0000
0000
0100
0000
0010
0000
0012
,
0000
1000
0100
0010
,
0013
0000
0001
0010
0000
0000
0100
1000
,
0000
0000
1100
0101
,
1001
0000
0001
0100
0000
0010
0000
1000
,
0000
0000
1000
0100
0000
0010
0000
0000
,
0011
0000
0001
0100
0000
0010
0000
0000
,
1010
0000
1000
0100
0010
0001
1000
0100
,
0000
0000
0010
0001
0000
0001
0000
0000
,
0101
0000
0100
0000
0010
1000
0010
0000
,
0100
0000
0001
0010
0000
0010
0001
0000
,
1001
0000
1000
0100
0000
0020
0000
0030
,
0001
0000
0100
0010
0000
0000
0010
1000
,
0000
0000
1000
0001
0000
1001
0000
0000
,
0101
0000
0001
0100
0000
0010
0000
0000
,
1010
0000
0010
1000
0000
0100
0000
0100
,
0010
0100
1000
0100
0000
0010
0000
0001
,
0000
0100
0000
0020
0000
0000
0000
0030
,
0010
1000
0010
0100
0000
0100
0001
0010
,
0000
0100
0000
1000
0000
1100
0000
0000
,
2000
0000
0000
3200
0000
0010
0000
0010
,
0010
0000
0300
0010
0100
0000
0000
0100
,
2000
0002
0000
3003
,
1001
0000
0110
0000
0001
0000
0100
0010
,
0100
0000
0001
0010
0000
0100
0000
1000
,
0000
0000
1000
0010
0000
0100
0000
0000
,
0110
0000
0100
0001
0000
0010
0000
0000
,
0001
0010
0001
0010
0100
1000
0000
1100
,
0000
0000
1000
0100
0000
0010
0000
0000
,
0011
0000
0001
0000
0100
0010
0100
0000
,
0010
0000
1000
0100
0000
0100
1000
0000
,
1001
0000
1000
0001
0000
0200
0000
0000
,
0310
0000
0010
0100
0000
0100
0000
0001
,
0000
0000
0001
1000
0000
1000
0000
0000
,
1100
0000
1000
0010
0000
0100
0000
0000
,
0011
0000
0001
0010
0000
0100
0000
0100
,
1000
0010
1000
0010
0000
0100
0000
0001
,
0000
0010
0000
0100
0000
1100
0000
1000
,
0001
1000
0001
0010
0000
0001
0010
0100
,
0000
1000
0000
0010
0000
1000
0000
0000
,
1100
0000
0000
0100
0000
0010
0000
0001
,
0000
0000
0000
0001
0010
0000
0100
2000
,
0000
0100
0001
0010
,
0001
3100
1100
0101
,
1010
0000
0000
0000
1000
0000
0001
0000
1000
0000
0000
0001
0000
0000
1000
0000
,
0002
0203
0320
1030
,
1000
0000
0001
0000
1000
0000
0001
0000
1000
0000
0000
0001
0000
0000
1000
0000
,
0001
2000
3200
0320
,
0031
0000
0000
0100
0000
0010
0000
0110
,
0000
0000
0000
0010
1000
0000
0000
1000
,
0100
0000
0110
0000
0001
0000
0100
0010
;

//---------------dance-double - ----------------
#NOTES:
     dance-double:
     :
     Hard:
     7:
     0.469966,0.490175,0.368453,0.061409,0.118431,375.000000,333.000000,42.000000,7.000000,0.000000,0.000000,0.469966,0.490175,0.368453,0.061409,0.118431,375.000000,333.000000,42.000000,7.000000,0.000000,0.000000:
00000000
00000000
00000000
00000000
,
00000000
00000000
00000000
00000000
,
00000000
00000000
00000000
00000000
,
00000000
00000000
00000000
00000000
,
00000000
00000000
00000000
00000000
,
10000000
00000000
00000000
00000000
01000000
00000000
00000000
00010000
00001000
00000000
00000000
00000100
00000000
00000000
00000001
00000000
,
00000010
00000000
00000000
00000000
00000011
00000000
00000001
00001000
00000000
00000100
00010000
00000000
00001000
00000000
00100000
00010000
,
00100000
00000000
00000000
00000000
01100000
00000000
00000000
00000000
10010000
00000000
00000000
10000000
00000000
00000000
01000000
00010000
,
00001000
00000000
00000000
00000000
00011000
00000000
00000000
00010000
00001000
00010000
00001000
00000000
00010000
00000000
00000100
00001000
,
00000100
00000000
00000010
00000001
00000000
00000100
00000000
00000101
,
00000000
00000000
00000100
00000010
00001000
00000100
00000000
00000000
,
00010100
00000000
00010000
00001000
00100000
00001000
00010000
00000000
,
01000000
00000000
10000000
00100000
00010000
00001000
00000100
00001000
,
00000000
00000000
00010000
00001000
00000000
00001000
00010000
00000000
,
00010100
00000000
00001100
00000000
00001000
00000100
00000001
00000000
,
00000001
00000100
00001000
00000010
00001000
00010000
00100000
00000000
,
00100000
00000000
00010000
00000000
00001000
00000000
00010000
00000000
00100000
00000000
10000000
00000000
00100000
00000000
10000000
00100000
,
00010000
00000000
10000000
01000000
00000000
00000000
01000000
00010000
,
00000000
00000000
00000000
00000000
00010000
00000000
00001000
00000000
00000000
00000000
00011000
00000000
00001000
00000000
00010000
00000100
,
00001000
00000010
00000100
00000001
00000010
00001000
00000000
00000000
,
00010000
00000000
01000000
00000000
10000000
00000000
00100000
00000000
01000000
00000000
00010000
00000000
00100000
00000000
00001000
00010000
,
00001000
00010000
00000100
00001000
00000000
00001100
00000000
00000101
,
00000000
00000000
00000000
00001001
00000000
00000000
00000000
00000000
00000000
00000110
00000000
00000000
00000000
00000000
00000010
00000100
00000000
00000000
00000000
00000000
00000000
00000100
00000000
00000000
,
00001000
00010000
00100000
00010000
00000000
00010000
00001000
00011000
,
00000000
00000000
00110000
00000000
00000000
00000000
10100000
00000000
00000000
00000000
10010000
00000000
10000000
00000000
00010000
01000000
,
00100000
10000000
01000000
00010000
01000000
10000000
01000000
00010000
,
00001000
00000000
00000000
00000000
00011000
00000000
00010000
00000000
00000100
00010000
00001000
00000000
00000100
00000000
00000001
00000000
,
00000010
00000000
00000100
00000001
00000200
00000000
00000000
00000000
00000010
00000000
00000000
00000000
00000001
00000000
00000000
00000000
,
00001300
00000000
00001000
00000000
00010000
00000000
00000000
00010000
00100000
00000000
10000000
00000000
01000000
00000000
00010000
00001000
,
00010000
00000000
00010000
00000100
00000000
00001100
00000000
00000101
,
00000000
00000000
00000001
00000100
00000010
00010000
00001000
00000000
,
00011000
00000000
00010000
01000000
00100000
10000000
01000000
00000000
,
00110000
00000000
00100000
00010000
00001000
00010000
00100000
01000000
,
00000000
01000000
10000000
00100000
01000000
00010000
01000000
00100000
,
01100000
00000000
01010000
00000000
01000000
00001000
00010000
00000000
,
00011000
00000000
00010000
00000100
00000001
00000100
00001000
00000000
,
00011000
00000000
00000000
00000000
00010000
00000000
01000000
00000000
10000000
00000000
01000000
00000000
00010000
00000000
00001000
00010000
,
00001000
00000000
00001000
00000100
00000000
00001100
00000000
00000101
,
00000000
00000000
00000000
00000000
00000001
00000000
00000010
00000000
00001000
00000000
00010000
00000000
00000000
00000000
00001000
00010000
,
00001000
00000000
00001000
00100000
00010000
01000000
00000000
00000000
,
01010000
00000000
00000000
00000000
01000000
00000000
00100000
00000000
10000000
00000000
01000000
00000000
00010000
00000000
00001000
00010000
,
00001000
00000100
00001000
00011000
00000000
00110000
00000000
10100000
,
00000000
00000000
00000000
11000000
00000000
00000000
00000000
00000000
00000000
01010000
00000000
00000000
00000000
00000000
00010000
01000000
00000000
00000000
00000000
00000000
00000000
10000000
00000000
00000000
,
01000000
00010000
00001000
00011000
00000000
00010000
00000100
00001100
,
00000000
00000000
00001001
00000000
00000000
00000000
00000101
00000000
00000100
00000000
00000010
00000000
00010000
00000000
00001000
00010000
,
00100000
10000000
00100000
00010000
00100000
10000000
00100000
00010000
,
00011000
00000000
00010100
00000100
00010000
00001000
00100000
00010000
,
01000000
00000000
00100000
10000000
00200000
00000000
00000000
00000000
10000000
00000000
00000000
00000000
01000000
00000000
00000000
00000000
,
00310000
00000000
00010000
00000000
00001000
00000000
00000000
00001000
00000100
00000000
00000010
00000000
00000001
00000000
00000100
00000000
,
00001000
00010000
01000000
10000000
01000000
00010000
01000000
10000000
,
01000000
00000000
00020000
00000000
00032000
00000000
00003010
00000001
,
00000100
00001000
00000100
00000001
00000100
00001000
00000100
00000001
,
00000100
00002000
00023000
00230000
,
10300000
01000000
00010000
00001000
00000100
00000001
00000100
00001000
,
00011000
00000000
00011000
00010000
00001000
00000000
00001000
00100000
,
00010000
00000000
00100000
00010000
00100000
00000000
00001000
00000000
00010000
00000000
00000010
00000000
00010000
00000000
00001000
00000000
;

//---------------dance-single - ----------------
#NOTES:
     dance-single:
     :
     Easy:
     3:
     0.200519,0.269596,0.035091,0.114045,0.000000,160.000000,156.000000,4.000000,13.000000,0.000000,0.000000,0.200519,0.269596,0.035091,0.114045,0.000000,160.000000,156.000000,4.000000,13.000000,0.000000,0.000000:
0000
0000
0000
0000
,
0000
0000
0000
0000
,
0000
0000
0000
0000
,
0000
0000
0000
0000
,
0000
0000
0000
0000
,
1000
0000
0100
0000
,
0010
0000
0010
0010
,
0100
0000
0100
0100
,
1000
0000
0010
0100
,
0001
0010
0100
1000
,
0100
0000
0100
0000
,
0010
0001
0100
0010
,
0100
0001
0010
0100
,
2000
0000
3200
0000
,
1300
1000
0001
0001
,
0100
0010
1000
0001
,
0100
0010
1000
0001
,
0200
0000
0320
0000
,
2030
0000
3002
0000
,
1003
1000
1000
0000
,
0001
0001
0001
0000
,
0100
0000
0010
0000
0000
0000
0000
0010
,
0000
1000
0000
0100
0000
0000
0000
0000
,
0010
0000
0010
0000
0000
0000
0000
0001
,
0000
0100
0000
0010
0000
1000
0000
0000
,
1000
0100
1000
0100
,
0010
0000
0000
0000
0001
0000
0000
0100
,
0000
0100
0100
0100
,
0010
1000
0001
0100
,
0010
1000
0100
0010
,
0001
0000
0001
0000
,
0001
0100
0010
1000
,
0100
0000
0100
0000
,
1000
0010
0001
0010
,
1000
0000
1000
0000
,
0100
0001
0100
1000
,
0010
0100
0010
1000
,
0002
0000
0203
0000
,
0320
0000
2030
0000
,
3100
0100
0010
0010
,
0001
0001
1000
1000
,
1001
0000
1001
0000
0000
0000
0000
1000
,
0000
0100
0000
0010
0000
0000
0000
0000
,
1001
0000
1001
0000
0000
0000
0000
0001
,
0000
0100
0000
0010
0000
0100
0000
0000
,
0001
0000
0000
0010
0000
0010
0000
0010
,
0000
0000
0000
0000
0100
0000
0000
1000
,
0000
0010
0100
0001
,
0100
0010
2000
0000
,
3100
0020
0000
0000
,
0000
0001
0100
0001
,
0130
0200
0000
0000
,
0300
1000
0010
1000
,
0001
0000
0000
0100
0000
0010
0000
1000
,
0000
0000
1000
0000
0000
0001
0000
0000
,
0100
0000
0010
0000
0100
0000
0001
1000
;

//---------------dance-double - ----------------
#NOTES:
     dance-double:
     :
     Medium:
     5:
     0.309551,0.343122,0.105272,0.114045,0.008773,247.000000,235.000000,12.000000,13.000000,0.000000,0.000000,0.309551,0.343122,0.105272,0.114045,0.008773,247.000000,235.000000,12.000000,13.000000,0.000000,0.000000:
00000000
00000000
00000000
00000000
,
00000000
00000000
00000000
00000000
,
00000000
00000000
00000000
00000000
,
00000000
00000000
00000000
00000000
,
00000000
00000000
00000000
00000000
,
10000000
01000000
00010000
00001000
,
00000100
00000001
00000100
00001000
,
00010000
00100000
10000000
00100000
,
00010000
00001000
00000010
00000001
,
00000010
00000000
00000100
00001000
00000000
00000100
00000000
00010000
,
00000000
00000000
00001000
00100000
00000000
00010000
00000000
00000000
,
01000000
00000000
00100000
10000000
00000000
01000000
00000000
00000000
,
00100000
00000000
00001000
00010000
00001000
00010000
00000100
00002000
,
00000000
00000000
00003100
00000010
00000000
00000001
00000000
00000000
,
00001001
00000000
00000001
00000000
00000100
00000010
00001000
00000000
,
00001100
00000000
00000100
00010000
00000000
00001000
00010000
00000000
,
00011000
00000000
00001000
00100000
00000000
00010000
00100000
00000000
,
01000000
00000000
10000000
00100000
00000000
00000000
01000000
00010000
,
00000000
00000000
00001000
00000010
00000000
00000100
00000000
00000000
,
00000011
00000000
00000001
00001000
00000000
00000100
00000000
00000000
,
00011000
00000000
00100000
00010000
00000000
01000000
00000000
00100000
,
10000000
00100000
10000000
01000000
00000000
00010000
00000000
00001000
,
00000000
00000100
00000000
00000001
00000000
00000010
00000000
00000001
,
00000010
00000001
00000010
00000100
00000000
00010000
00001000
00200000
,
00000000
00320000
00000000
02030000
00000000
03200000
00000000
00300000
,
10100000
00000000
10000000
00100000
00000000
01000000
00010000
00100000
,
00000000
00000000
00000000
00001000
00010000
00000000
00000100
00001000
,
00000000
00000010
00000100
00000000
00000001
00000000
00000010
00000000
,
00000100
00000000
00000010
00000000
00000001
00000100
00001000
00000100
,
00001000
00000000
00010000
00001000
00000000
00100000
00000000
00010000
,
00000000
00000000
01000000
00100000
00000000
10000000
00000000
00000000
,
11000000
00000000
10000000
01000000
00000000
00100000
00000000
00000000
,
00001000
00010000
00001000
00010000
00001000
00010000
00000000
00000100
,
00000000
00000000
00001000
00000010
00000000
00000100
00000000
00000000
,
00000110
00000100
00000001
00000010
,
00001000
00000000
00010000
00001000
00000000
00100000
00010000
00000000
,
10000000
00000000
00100000
10000000
00000000
00010000
00100000
00000000
,
00101000
00000000
00100000
00001000
00000000
00010000
00000000
00000100
,
00001000
00000000
00000010
00000100
00000000
00000010
00000000
00000000
,
00000110
00000000
00000001
00000010
00000000
00000100
00000000
00000000
,
00000110
00000000
00000100
00001000
00000000
00000100
00000000
00010000
,
00001000
00010000
00001000
00100000
00000000
00010000
00000000
01000000
,
00000000
00100000
00000000
10000000
00000000
10000000
00000000
01000000
,
00100000
01000000
00100000
00001000
00000000
00010000
00000100
00001000
,
00000000
00000010
00000000
00000100
00000000
00000001
00000000
00000000
,
00000010
00000000
00000000
00000100
00000000
00010000
00000000
00011000
,
00000000
00000000
00000000
00001000
00010000
00000000
00010000
00001000
,
00000000
00001000
00100000
00000000
00100000
00000000
00010000
00000000
,
00010000
01000000
00100000
10000000
,
01000000
00000000
00100000
00000000
00010000
00000000
00100000
00000000
01000000
00000000
00000000
00100000
00000000
00000000
00010000
00000000
,
00200000
00302000
00023000
00030200
,
00001300
00000000
00000010
00000000
00000100
00000000
00000010
00000000
00001000
00000000
00000000
00000100
00000000
00000000
00000010
00000000
,
00000001
00000200
00002300
00023000
,
00230000
00000000
00000000
10000000
00000000
01000000
00000000
00310000
,
00000000
00000000
00000000
00010000
00001000
00000000
00010000
00000100
,
00000000
00001000
00000100
00000000
00010000
00000000
00001000
00010000
;

//---------------dance-single - ----------------
#NOTES:
     dance-single:
     :
     Beginner:
     1:
     0.081461,0.147052,0.035091,0.000000,0.000000,65.000000,61.000000,4.000000,0.000000,0.000000,0.000000,0.081461,0.147052,0.035091,0.000000,0.000000,65.000000,61.000000,4.000000,0.000000,0.000000,0.000000:
0000
0000
0000
0000
,
0000
0000
0000
0000
,
0000
0000
0000
0000
,
0000
0000
0000
0000
,
0000
0000
0000
0000
,
1000
0000
0000
0000
,
0001
0000
0000
0000
,
0100
0000
0000
0000
,
0010
0000
0000
0000
,
1001
0000
0000
0000
,
0000
0000
0000
0000
,
1000
0000
0000
0000
,
1000
0000
0000
0000
,
0100
0000
0000
0000
,
0000
0000
0000
0000
,
0010
0000
0000
0000
,
0010
0000
0000
0000
,
1001
0000
0000
0000
,
0000
0000
0000
0000
,
0001
0000
0001
0000
,
1000
0000
1000
0000
,
1000
1000
0000
0000
,
0000
0000
0000
0000
,
0100
0100
0000
0000
,
0000
0000
0000
0000
,
0010
0000
0000
0000
,
0010
0000
0000
0000
,
1001
0000
0000
0000
,
0000
0000
0000
0000
,
0001
0000
0000
0000
,
0000
0000
0000
0000
,
0001
0000
0001
0000
,
0100
0000
0100
0000
,
0100
0000
0000
0000
,
0000
0000
0000
0000
,
0010
0000
0010
0000
,
1000
0000
1000
0000
,
1001
0000
0000
0000
,
1000
0000
0000
0000
,
0100
0000
0100
0000
,
0010
0000
0010
0000
,
0001
0001
0000
0000
,
0000
0000
0000
0000
,
0010
0010
0000
0000
,
0000
0000
0000
0000
,
0100
0000
0100
0000
,
1000
0000
1000
0000
,
0010
0000
0010
0000
,
0100
0000
0100
0000
,
0001
0001
0000
0000
,
0000
0000
0000
0000
,
1000
1000
0000
0000
,
0000
0000
0000
0000
,
0010
0000
0100
0000
,
0001
0000
1000
0000
,
0001
0000
0000
0000
0000
0000
0001
1000
;

//---------------dance-double - ----------------
#NOTES:
     dance-double:
     :
     Easy:
     3:
     0.220571,0.269596,0.052636,0.000000,0.000000,176.000000,170.000000,6.000000,0.000000,0.000000,0.000000,0.220571,0.269596,0.052636,0.000000,0.000000,176.000000,170.000000,6.000000,0.000000,0.000000,0.000000:
00000000
00000000
00000000
00000000
,
00000000
00000000
00000000
00000000
,
00000000
00000000
00000000
00000000
,
00000000
00000000
00000000
00000000
,
00000000
00000000
00000000
00000000
,
10000000
00000000
01000000
00000000
,
00010000
00010000
00010000
00000000
,
00001000
00000000
00000100
00000000
,
00000001
00000001
00000001
00000010
,
00000100
00000000
00001000
00000000
,
00010000
00000000
00100000
00010000
,
00001000
00000000
00010000
00100000
,
10000000
00100000
00010000
00001000
,
00000100
00000000
00000010
00000000
,
00000001
00000100
00001000
00010000
,
00001000
00000100
00001000
00010000
,
00001000
00000100
00001000
00010000
,
00100000
00000000
10000000
00000000
,
01000000
00000000
00010000
00000000
,
00011000
00001000
00010000
00001000
,
00011000
00010000
00001000
00010000
,
00000100
00000000
00000100
00000000
00000000
00000010
00000000
00000001
,
00000000
00000100
00000000
00000010
00000000
00000000
00000000
00000000
,
00000010
00000000
00000010
00000000
00000000
00001000
00000000
00000100
,
00000000
00010000
00000000
00001000
00000000
00010000
00000000
00000000
,
00001000
00010000
00001000
00010000
,
00100000
00000000
00000000
00000000
10000000
00000000
00000000
01000000
,
00000000
00010000
00001000
00000100
,
00000001
00000100
00001000
00000100
,
00000001
00000000
00000010
00000000
,
00000100
00000000
00001000
00000000
,
00000100
00001000
00000100
00010000
,
00001000
00100000
00010000
01000000
,
00100000
00000000
10000000
00000000
,
01000000
00000000
00100000
00000000
,
00001000
00010000
00100000
00010000
,
00001000
00000010
00001000
00010000
,
00001000
00000000
00000100
00000000
,
00000001
00000000
00000010
00000000
,
00001000
00010000
01000000
10000000
,
01000000
00010000
00001000
00000010
,
00000001
00000000
00000011
00000000
00000000
00000001
00000000
00000100
,
00000000
00000010
00000000
00001000
00000000
00000100
00000000
00000000
,
00010000
00000000
00011000
00000000
00000000
00001000
00000000
00100000
,
00000000
00010000
00000000
01000000
00000000
00100000
00000000
00000000
,
10000000
00000000
00000000
01000000
00000000
00100000
00000000
00010000
,
00000000
00100000
00001000
00010000
,
00000100
00010000
00001000
00010000
,
00001000
00010000
00001000
00000100
,
00000101
00000001
00000010
00000010
,
00000100
00010000
00001000
00100000
,
00110000
00010000
01000000
01000000
,
00100000
10000000
01000000
00010000
,
00001000
00000100
00001000
00000100
,
00000001
00000001
00000010
00000010
,
00000100
00000000
00010000
00000000
00001000
00000000
00010000
00001000
;
