#VERSION:0.83;
#TITLE:†渚の小悪魔ラヴリィ~レイディオ†;
#SUBTITLE:;
#ARTIST:夏色ビキニのPrim;
#TITLETRANSLIT:Nagisa no koakuma lovely~radio;
#SUBTITLETRANSLIT:;
#ARTISTTRANSLIT:Natsuiro Bikini no Prim;
#GENRE:;
#ORIGIN:;
#CREDIT:;
#BANNER:Nagisa no koakuma lovely~radio.png;
#BACKGROUND:Nagisa no koakuma lovely~radio-bg.png;
#PREVIEWVID:;
#JACKET:Nagisa no koakuma lovely~radio-jacket.png;
#CDIMAGE:;
#DISCIMAGE:;
#LYRICSPATH:;
#CDTITLE:;
#MUSIC:Nagisa no koakuma lovely~radio.ogg;
#OFFSET:0.000000;
#SAMPLESTART:26.211000;
#SAMPLELENGTH:15.000000;
#SELECTABLE:YES;
#DISPLAYBPM:190.000000;
#BPMS:0.000=190.476,
4.000=190.002;
#STOPS:;
#DELAYS:;
#WARPS:;
#TIMESIGNATURES:0.000=4=4;
#TICKCOUNTS:0.000=4;
#COMBOS:0.000=1;
#SPEEDS:0.000=1.000=0.000=0;
#SCROLLS:0.000=1.000;
#FAKES:;
#LABELS:0.000=Song Start;
#BGCHANGES:;
#KEYSOUNDS:;
#ATTACKS:
;

//---------------dance-single - ----------------
#NOTEDATA:;
#CHARTNAME:;
#STEPSTYPE:dance-single;
#DESCRIPTION:;
#CHARTSTYLE:;
#DIFFICULTY:Easy;
#METER:6;
#RADARVALUES:0.369157,0.729336,0.473145,0.272968,0.000000,284.000000,232.000000,52.000000,30.000000,0.000000,0.000000,0.000000,0.000000,0.000000,0.369157,0.729336,0.473145,0.272968,0.000000,284.000000,232.000000,52.000000,30.000000,0.000000,0.000000,0.000000,0.000000,0.000000;
#CREDIT:;
#DISPLAYBPM:190.000000;
#NOTES:
0000
0000
0000
0000
,
0000
0000
0000
0000
,
0000
0000
0000
0000
,
0000
0000
0000
0000
,
0000
0000
0000
0000
,
1010
0000
0000
0000
,
0100
0010
1000
0001
0000
0000
0000
0000
,
1001
0000
0000
0000
,
0100
0010
0100
0010
,
0110
0000
0000
0000
,
1000
0100
1000
0100
0000
0000
0000
0000
,
0000
0000
0000
0000
,
1001
1001
1001
0000
,
2000
0000
3000
0000
,
0020
0030
0000
1000
,
1001
0001
0000
0000
0000
0000
0000
0000
,
0010
0100
0001
1000
0002
0003
0200
0300
,
0000
1001
0000
0000
,
1000
0010
0100
0001
0000
0000
0000
0000
,
1000
0001
1000
0000
,
0001
1000
0001
1000
0000
0000
0000
0000
,
2001
0000
0000
0000
,
3002
0003
0000
0000
,
1010
0000
0000
0000
,
0000
0000
0000
0000
1000
0001
1000
0001
,
0000
0100
0000
1000
,
0010
0100
0000
0000
,
0100
0000
0000
0000
,
1001
0110
1001
0110
,
0000
0100
0010
0100
,
0000
0000
0000
0000
,
1000
0000
0000
0000
,
1000
1000
0000
0000
0001
0001
0000
0000
,
0110
0000
0000
0000
,
1001
0000
0000
0000
,
0110
0000
0000
0000
,
1001
0000
0000
0000
,
1000
0001
1000
0001
0000
0000
0100
0010
,
0100
0010
0000
1000
0000
0001
0000
0000
,
1000
0010
1000
0010
0000
0000
0100
0010
,
0100
0010
0000
0000
0000
0000
0000
0000
,
2000
0000
3010
0000
,
0020
0000
0130
0102
,
0000
1003
0010
0100
,
0002
0000
0000
0103
,
1010
0000
0100
0000
0011
0000
1000
0001
,
1000
0010
0100
0001
,
1000
0100
0010
0001
,
0100
0010
1000
0100
,
1010
1010
1010
0101
,
0101
0101
0000
0000
,
1001
1001
1001
0110
,
0110
0110
0000
0000
,
2002
0000
3003
0000
,
2020
0000
3030
0100
,
0022
0000
0033
0000
,
0220
0000
0330
0000
,
2002
0000
3003
0000
,
0220
0000
0000
0330
,
2002
0000
0000
3003
,
1000
0000
0010
0000
,
0100
0000
0000
0000
,
2002
0000
0000
0003
,
3002
0000
0000
0000
,
2003
0000
3000
0010
0000
0000
0100
0000
,
0001
0100
0010
1000
,
0010
0000
0100
0000
0001
2000
0000
0000
,
3000
0010
0000
1000
,
0000
0100
0101
0101
,
0101
0000
0000
1000
,
0001
0000
1000
0000
0001
0000
0010
0100
,
1000
0100
0010
0001
,
0100
0010
1000
0001
1000
0000
0000
0000
,
0010
0000
0010
0000
0100
0001
0001
0000
,
1001
1001
1001
0000
1001
1001
1001
0000
,
1000
0100
0010
0001
0000
0100
0010
1000
,
0000
0001
1000
0001
1000
0001
0100
0010
,
0200
0000
0000
0300
,
1001
0000
0110
0000
,
1000
0001
1000
0001
0000
0000
0100
0010
,
0100
0010
0000
0000
1000
0000
1000
0000
,
0010
1000
0010
1000
0000
0000
0001
1000
,
0001
1000
0000
0000
1000
1000
0001
0001
,
0100
1000
0100
1000
0000
0010
0100
0010
,
0100
0010
0100
0010
0000
0000
0000
0000
;

//---------------dance-single - ----------------
#NOTEDATA:;
#CHARTNAME:;
#STEPSTYPE:dance-single;
#DESCRIPTION:;
#CHARTSTYLE:;
#DIFFICULTY:Medium;
#METER:9;
#RADARVALUES:0.568033,0.729336,0.200177,0.291166,0.109187,437.000000,415.000000,22.000000,32.000000,0.000000,0.000000,12.000000,0.000000,0.000000,0.568033,0.729336,0.200177,0.291166,0.109187,437.000000,415.000000,22.000000,32.000000,0.000000,0.000000,12.000000,0.000000,0.000000;
#CREDIT:;
#DISPLAYBPM:190.000000;
#NOTES:
0000
0000
0000
0000
,
0000
0000
0000
0000
,
0000
0000
0000
0000
,
0000
0000
0000
0000
,
0000
0000
0000
0000
,
2000
0100
0001
0010
,
0001
3100
0001
1000
,
0001
0010
0100
1000
0010
0100
0001
0000
,
1000
0001
1000
0001
,
2000
0100
0010
0001
,
0010
3100
0001
1000
,
0001
1000
0010
0010
,
1000
0010
0100
0001
0010
0100
1000
0000
,
1000
0100
0010
0001
0100
0010
0100
0010
,
1000
0010
0100
0010
0000
0100
0010
1000
,
0002
0000
1003
0010
0000
0000
1001
0000
,
0100
0010
0100
0010
0200
0000
0010
0000
,
0310
0000
1000
0011
0000
0000
1000
0010
,
0100
0001
0100
0010
0000
0010
0010
1000
,
0002
0000
0000
0000
,
1003
0001
1000
1010
,
1002
0000
0000
0000
,
2003
0000
0000
3020
0000
0000
0130
0000
,
0001
0010
0100
1000
0010
0100
0001
0000
,
1000
0100
0010
0100
,
0001
0100
0010
1000
0010
0100
0001
0100
,
0010
0100
0010
1000
0100
0010
0001
1000
,
0002
0000
0000
0000
1003
0010
0100
0001
,
1000
0001
1000
0001
,
1000
0000
0010
1000
0000
0010
0100
0001
,
1000
0000
0001
0000
1000
0000
0010
0100
,
0010
0000
1000
0001
1000
0100
0010
0100
,
1000
0001
1000
0000
0001
1000
0001
0000
,
1000
0010
0100
0001
0100
0010
1000
0002
,
0000
1003
0010
0100
0001
1000
0001
0000
,
2002
0000
0000
0000
3000
0003
0000
0000
,
1000
0000
0010
0100
0000
0000
0001
0000
,
1000
0001
1000
0001
1000
0001
1000
0000
0000
0000
0000
0000
0010
0100
0010
0100
,
0010
0100
0010
0000
0000
0000
0000
0000
2000
3000
0000
0000
0002
0003
0000
0000
,
0010
1000
0010
1000
0010
1000
0010
0000
0000
0000
0000
0000
0100
0001
0100
0001
,
0100
0001
0100
0000
0000
0000
0000
0000
1000
0000
0001
0000
1000
0000
0000
0000
,
1010
0100
0010
1000
,
1010
0000
0100
0010
1000
0001
0100
0000
,
1010
0000
0100
0100
0000
0010
1000
0001
,
1000
0010
0010
0010
,
1000
0100
0010
0001
1000
0100
0010
0001
,
0001
0010
0100
1000
0001
0010
0100
1000
,
0010
0100
0001
0100
0001
0100
0010
1000
,
0010
0100
0001
0010
0100
1000
0010
0100
,
0010
0010
0010
0010
0000
0000
0100
0100
,
0100
0100
0000
0000
0000
0000
0000
0000
,
1001
1001
1001
1001
0000
0000
0110
0110
,
0110
0110
0000
0000
0000
0000
0000
0000
,
2000
0000
0000
0000
,
3002
0000
0203
0000
,
0320
0000
2030
3001
,
0200
0000
0000
0300
,
0002
0000
0000
0000
,
2003
0000
3020
0030
,
0200
0000
0000
0000
0000
0000
0310
0100
,
0020
0000
0000
0000
0230
0000
0000
0300
,
0010
0100
0010
0100
0010
0100
0010
0100
,
0010
1000
0001
1000
0001
1000
0001
1000
,
0004
0000
0000
0000
,
0403
0000
0300
0040
0000
0030
4000
0000
,
3004
0403
0340
4030
3400
0340
0034
0000
,
4003
0000
0000
0000
,
3000
0010
0100
0001
0100
0010
1000
0010
,
0100
0010
0100
0001
0010
0100
1000
0001
,
2000
0000
0000
0000
3001
0100
0010
1000
,
0001
1000
0001
1000
,
0001
0000
0100
0001
0000
0100
0010
1000
,
0001
0000
1000
0000
0001
0000
0100
0010
,
0100
0000
0001
1000
0001
0010
0100
0010
,
0001
1000
0001
0000
1000
0001
1000
0000
,
0001
0100
0010
1000
0010
0100
0001
2000
,
0000
3001
0100
0010
1000
0001
1000
0000
,
2002
0000
0000
0000
0003
3000
0000
0000
,
1000
0000
0010
0100
0000
0000
0001
0000
,
1000
0001
1000
0001
1000
0001
1000
0000
0000
0000
0000
0000
0010
0100
0010
0100
,
0010
0100
0010
0000
0000
0000
0000
0000
2000
3000
0000
0000
0002
0003
0000
0000
,
0010
1000
0010
1000
0010
1000
0010
0000
0000
0000
0000
0000
0100
0001
0100
0001
,
0100
0001
0100
0000
0000
0000
0000
0000
0000
0000
0000
0000
0000
0000
0000
0000
,
1010
0010
1010
0010
0000
0010
0110
0010
,
0110
0010
0110
0010
0000
0000
0000
0000
;

//---------------dance-single - ----------------
#NOTEDATA:;
#CHARTNAME:;
#STEPSTYPE:dance-single;
#DESCRIPTION:;
#CHARTSTYLE:;
#DIFFICULTY:Hard;
#METER:13;
#RADARVALUES:0.930691,1.153290,0.400353,0.072791,0.655123,716.000000,672.000000,44.000000,8.000000,0.000000,0.000000,0.000000,0.000000,0.000000,0.930691,1.153290,0.400353,0.072791,0.655123,716.000000,672.000000,44.000000,8.000000,0.000000,0.000000,0.000000,0.000000,0.000000;
#CREDIT:;
#DISPLAYBPM:190.000000;
#NOTES:
// measure 0
0000
0000
0000
0000
,  // measure 1
1000
0001
1000
0001
1000
0000
0000
0000
,  // measure 2
0010
0100
0010
0100
0010
0000
0000
0000
,  // measure 3
1000
0001
0000
0000
1000
0010
0000
0000
,  // measure 4
0100
0010
0100
0000
0010
0100
0010
0000
,  // measure 5
1000
0000
0010
0100
0000
0010
0100
0001
,  // measure 6
1000
0100
0010
0001
0100
0010
1000
0010
,  // measure 7
0101
0000
0100
1001
0000
1100
0110
0011
,  // measure 8
1000
0010
0100
0001
,  // measure 9
1000
0010
0100
0001
0100
0000
0000
0000
,  // measure 10
0010
0100
0010
0100
0000
1000
0010
0100
,  // measure 11
0001
0000
0100
0010
1000
0001
0100
0010
,  // measure 12
1000
0001
1000
0000
0001
1000
0001
0000
1000
0001
1000
0000
0001
1000
0001
0000
,  // measure 13
1000
0000
0000
0000
0001
0010
0100
1000
0001
0000
0100
0000
0010
1000
0100
0010
,  // measure 14
0001
0000
0100
0000
0010
0000
1000
0000
0001
0010
0100
1000
0100
0000
0010
0000
,  // measure 15
0100
1000
0010
0110
0001
1000
0001
0000
,  // measure 16
1010
0000
0010
0000
1010
0000
0010
0000
1000
0100
0010
0001
0100
0000
0000
0000
,  // measure 17
1000
0000
0010
0000
0100
0000
0001
0010
0100
1000
0010
0000
0100
0000
0010
0000
,  // measure 18
0100
0000
0010
0000
1000
0100
0010
0001
0100
0010
1000
0000
0001
0000
1000
0000
,  // measure 19
0001
1000
0001
1000
0001
1000
0001
1000
,  // measure 20
0001
1000
0001
1000
0001
1000
0001
1000
0001
0000
1000
0100
0010
0001
0100
0010
,  // measure 21
1000
0000
0000
0000
1000
0100
0010
0001
0100
0000
0010
0000
0010
0100
0001
1000
,  // measure 22
0100
0000
1000
0001
,  // measure 23
0100
0000
0010
0100
0000
1000
0010
0100
,  // measure 24
0001
0000
0000
0000
1000
0010
0000
0000
0100
0010
0001
0010
0100
0000
0010
0000
,  // measure 25
0100
0001
1000
0010
0100
0001
1000
0010
,  // measure 26
0100
0001
0010
0100
1000
0000
0010
0000
,  // measure 27
2000
0000
3000
0000
1000
0001
0100
0010
,  // measure 28
1000
0010
0100
0001
,  // measure 29
1000
0000
0010
0000
0100
0000
0001
0000
1000
0100
0010
0001
0100
0000
0010
0000
,  // measure 30
0100
0010
0100
0001
0010
0100
1000
0010
,  // measure 31
0100
0000
0001
0010
0100
1000
0010
0100
0001
0010
0100
1000
0001
0010
0100
1000
,  // measure 32
0010
1000
0010
0000
1000
0000
0000
0000
0010
1000
0010
0000
1000
0000
0000
0000
,  // measure 33
1000
0100
0010
0001
0100
0000
0010
1000
0100
0010
0001
0000
0100
0000
0001
1000
,  // measure 34
0010
0100
0001
0000
1000
0000
0010
0000
0100
0000
0001
0010
0100
1000
0000
0000
,  // measure 35
0010
0000
0100
0000
0010
0100
0010
0000
0100
0000
0001
0000
1000
0001
1000
0000
,  // measure 36
0001
0000
1000
0000
0001
1000
0001
1000
0001
1000
0001
1000
0001
1000
0001
0000
,  // measure 37
1001
0000
1001
0000
1001
0000
1001
0000
0000
0000
0000
0000
0010
0100
0010
0100
,  // measure 38
0010
0000
0110
0000
0000
0000
1000
0100
0000
0000
0000
0000
1000
0100
0000
0000
,  // measure 39
1000
0001
1000
0001
1000
0000
1001
0000
0000
0000
0000
0000
0001
0100
0001
0100
,  // measure 40
0001
0101
0000
0000
0000
0000
0000
0000
,  // measure 41
1000
0100
1000
0010
0100
0010
1000
0100
,  // measure 42
0001
0010
0100
1000
0010
1000
0010
0100
,  // measure 43
0001
0100
0010
1000
0100
0010
0001
0010
,  // measure 44
0100
1000
0100
0010
0001
0000
1000
0000
0001
0010
0100
1000
0001
1000
0001
0000
,  // measure 45
0000
0000
0000
0000
1000
0001
0100
0001
1000
0001
0100
0010
1000
0010
0100
0001
,  // measure 46
1000
0001
1000
0010
1000
0100
0010
0001
0010
0100
1000
0001
0010
0100
1000
0000
,  // measure 47
0001
1000
0001
1000
0001
0000
0000
0000
,  // measure 48
1000
0001
1000
0001
1000
0001
0000
1000
0001
1000
0001
1000
0001
1000
0000
0000
,  // measure 49
1010
1010
1010
1010
0000
0000
0101
0101
,  // measure 50
0101
0101
0000
0000
0000
0000
0000
0000
,  // measure 51
1001
1001
1001
1001
0000
0000
0110
0110
,  // measure 52
0110
0110
0000
0000
0000
0000
0000
0000
,  // measure 53
1000
0100
0010
0001
1000
0100
0010
0001
,  // measure 54
1000
0100
0010
0001
1000
0100
0010
0001
,  // measure 55
0100
0010
1000
0001
1000
0001
1001
0000
,  // measure 56
2000
3000
0200
0300
,  // measure 57
0010
0100
0001
1000
0010
0100
0001
1000
,  // measure 58
0010
0100
0001
1000
0010
0100
0001
1000
,  // measure 59
0020
0000
0000
0030
,  // measure 60
2000
0000
0000
0000
3002
0000
0000
0003
,  // measure 61
1000
0001
1000
0001
1000
0001
1000
0001
,  // measure 62
1000
0100
0010
0001
0100
0001
0100
0001
1000
0010
1000
0010
1000
0100
0010
0001
,  // measure 63
0100
0001
0100
0001
0100
0001
0100
0001
,  // measure 64
1000
0200
0310
0001
0000
0000
0100
0000
0010
0100
0001
1000
0010
0000
0100
0000
,  // measure 65
1000
0100
0010
0000
0100
0010
0001
0000
0100
0000
0010
0000
1000
0100
0010
0001
,  // measure 66
1000
0100
0010
0001
0000
0000
0000
0000
0000
0000
0000
0000
0000
0000
0000
0000
,  // measure 67
0010
1000
0001
0100
0010
1000
0001
0100
,  // measure 68
0010
1000
0100
0010
0001
0000
0100
0000
,  // measure 69
0002
0000
0003
0000
0001
1000
0010
0100
,  // measure 70
0001
0100
0010
1000
,  // measure 71
0001
0000
0100
0000
0010
0000
1000
0000
0001
0010
0100
1000
0010
0000
0100
0000
,  // measure 72
0010
0100
0010
1000
0100
0010
0001
0100
,  // measure 73
0010
0000
1000
0100
0010
0001
0100
0010
1000
0100
0010
0001
1000
0100
0010
0001
,  // measure 74
0100
0001
0100
0000
0001
0000
0000
0000
0100
0001
0100
0000
0001
0000
0000
0000
,  // measure 75
0001
0010
0100
1000
0010
0000
0100
0001
0010
0100
1000
0000
0010
0000
1000
0001
,  // measure 76
0100
0010
1000
0000
0001
0000
0100
0000
0010
0000
1000
0100
0010
0001
0000
0000
,  // measure 77
0100
0000
0010
0000
0100
0010
0100
0000
0010
0000
1000
0000
0001
1000
0001
0000
,  // measure 78
1000
0000
0001
0000
1000
0001
1000
0001
1000
0001
1000
0001
1000
0001
1000
0000
,  // measure 79
1001
0000
1001
0000
1001
0000
1001
0000
0000
0000
0000
0000
0100
0010
0100
0010
,  // measure 80
0100
0000
0110
0000
0000
0000
0001
0010
0000
0000
0000
0000
0001
0010
0000
0000
,  // measure 81
0001
1000
0001
1000
0001
0000
1001
0000
0000
0000
0000
0000
1000
0010
1000
0010
,  // measure 82
1000
1010
0000
0000
0000
0000
0000
0000
,  // measure 83
1001
1000
1001
0001
0000
0110
0100
0110
,  // measure 84
0010
0000
0110
0000
0100
0010
0100
0010
0100
0000
0000
0000
0000
0000
0000
0000
;
