#TITLE:MilK;
#SUBTITLE:;
#ARTIST:モリモリあつし;
#TITLETRANSLIT:;
#SUBTITLETRANSLIT:;
#ARTISTTRANSLIT:Morimori Atsushi;
#GENRE:FUTURE BASS;
#CREDIT:ohaiimian;
#BANNER:MilK.png;
#BACKGROUND:MilK-bg.png;
#LYRICSPATH:;
#CDTITLE:;
#MUSIC:MilK.ogg;
#OFFSET:-0.103000;
#SAMPLESTART:14.503000;
#SAMPLELENGTH:15.000000;
#SELECTABLE:YES;
#DISPLAYBPM:150.000000;
#BPMS:0.000000=150.000000
;
#STOPS:
;
#BGCHANGES:;
#KEYSOUNDS:;
#ATTACKS:;

//---------------dance-single - ----------------
#NOTES:
     dance-single:
     :
     Hard:
     9:
     0.625640,0.905886,0.764149,0.534083,0.377966,533.000000,440.000000,93.000000,65.000000,0.000000,0.000000,0.625640,0.905886,0.764149,0.534083,0.377966,533.000000,440.000000,93.000000,65.000000,0.000000,0.000000:
0000
0000
0000
0000
,
0000
0000
0000
0000
,
0000
0000
0000
0000
,
0000
0000
0000
0000
,
0000
0000
0000
0000
,
2000
0000
3200
0000
,
0320
0000
0000
0000
0000
0031
0010
0200
,
0000
2300
0000
3002
0000
0203
0000
0320
,
0000
0000
0000
0000
0130
0000
0100
0001
,
2000
3100
0002
0103
,
0020
0000
1000
0000
0031
0010
0100
2000
,
0000
3200
0000
0320
0000
0032
0000
0203
,
0000
2300
0000
3200
0000
0301
1001
0000
,
1000
0000
0000
1000
0100
0000
0000
0100
0010
0000
0000
0010
0001
0000
0000
0001
,
1000
0100
1000
0001
0100
0001
0010
0100
,
1000
0100
1000
0100
0010
0001
0010
0001
0100
0010
1000
0100
0010
0001
0010
0100
,
0010
0000
0001
0101
0000
1000
1100
0000
,
0100
0000
0010
0001
0021
0000
1030
0010
,
0100
0000
0010
0001
0021
0000
1030
0010
,
0100
0000
1000
0100
2100
0000
3010
0100
,
0001
0010
0100
1000
0000
0100
0010
0000
0001
0010
0100
0000
0100
0000
0100
0000
,
1000
0000
0010
0100
0210
0000
0301
1000
,
0010
0000
0010
0100
0210
0000
0301
1000
,
0020
0000
0000
0000
0030
0000
1000
0001
0100
0000
0000
1001
0000
0000
0020
0000
,
0000
0000
0000
0000
0000
0000
0000
0000
1030
0100
0000
0010
0000
0100
1000
0000
,
2002
0000
0000
3003
1001
0000
0000
0000
,
0011
0000
0100
1000
2002
0000
3003
0000
,
1100
0000
0010
0001
2002
0000
3003
0000
,
1000
0100
0010
0001
0000
0010
0100
0000
1000
0100
0010
0000
0010
0000
0010
0000
,
0001
0000
1000
0100
2100
0000
3010
0100
,
0001
0000
1000
0100
2100
0000
3010
0100
,
0002
0000
0203
0000
2300
0000
3100
0000
0001
0000
0000
1000
0000
0000
2002
0000
,
0000
0000
0000
3003
1000
0001
1000
0001
,
0100
0100
0010
0010
,
1000
0000
1000
0000
0001
0010
0001
0010
,
0100
0100
1000
1000
,
0001
0001
0010
0010
,
0100
0000
0000
0100
1000
0000
0000
1000
0010
0000
0000
0010
0100
0000
0000
0100
,
0001
1000
0100
0010
0001
0010
0100
1000
,
0001
0100
0010
1000
0100
0010
0100
0010
0001
1000
0001
1000
0100
0010
0001
1000
,
0100
0000
0000
0000
1000
0000
1010
0000
0000
0000
0001
0000
0100
0010
0100
0010
,
1000
0000
0000
1001
0000
0000
1100
0000
0000
1010
0000
0000
0101
0000
0001
0000
,
1100
0000
0000
0110
0000
0000
1010
0000
0000
0110
0000
0000
0202
0000
0303
0000
,
1001
0000
0000
0101
0000
0000
1010
0000
0000
1100
0000
0000
0011
0000
0110
0000
,
1000
0000
0010
0000
0001
0000
0010
0000
1000
0000
0001
0000
1000
0100
0010
0001
,
0100
0000
0000
0110
0000
0000
0101
0000
0000
0110
0000
0000
0011
0000
0100
0000
,
1100
0000
0000
1001
0000
0000
0101
0000
0000
1010
0000
0000
2200
0000
3300
0000
,
1001
0000
0000
0011
0000
0000
0101
0000
0000
1010
0000
0000
1100
0000
0010
0000
,
0101
0000
0001
0101
0000
1000
1100
0000
,
2002
0000
3003
0000
0101
0000
0000
1010
0000
0000
1100
0000
0011
0000
0010
0000
,
0110
0000
0000
1100
0000
0000
0110
0000
0000
1010
0000
0000
0110
0000
0000
0000
,
0101
0000
0000
0110
0000
0000
0011
0000
0000
0110
0000
0000
0011
0000
0010
0000
,
0100
0000
1000
0000
0001
0000
0100
0000
1000
0000
0100
0000
0001
0010
0100
1000
,
0100
0000
0000
1100
0000
0000
1001
0000
0000
0101
0000
0000
0011
0000
0000
1100
,
0000
0000
0011
0000
0000
0101
0000
0000
1010
0000
0000
0110
0000
0000
0101
0000
,
0001
0010
0100
1000
0010
0100
0010
1000
0100
0010
0001
0100
0010
1000
0001
0010
,
0100
0000
1000
0100
1000
0100
1000
0000
0001
0100
0001
0100
0001
0000
0100
0000
,
0010
0000
1000
0100
2100
0000
3010
0100
,
0001
0000
1000
0100
2100
0000
3010
0100
,
0001
0000
0010
0001
0012
0000
0103
0010
,
1000
0100
0010
0001
0000
0010
0100
0000
1000
0100
0010
0000
0010
0000
0010
0000
,
0001
0000
1000
0010
2010
0000
3010
0100
,
0001
0000
1000
0010
2010
0000
3001
0100
,
0020
0000
0000
0000
0000
0000
0031
0010
0100
0000
0000
0110
0000
0000
2020
0000
,
0000
0000
0000
0000
0000
0000
0030
0000
3001
0010
0000
0100
0000
0010
0001
0000
,
2002
0000
0000
3003
1001
0000
0001
0100
,
1000
0000
0100
0001
0201
0000
1300
0100
,
0001
0000
0001
0100
1200
0000
1300
0010
,
0100
0010
1000
0001
0000
0100
0010
0000
1000
0010
0100
0000
0100
0000
0100
0000
,
0010
0000
1000
0001
2001
0000
3010
0100
,
0001
0000
1000
0001
2001
0000
3010
0100
,
0002
0000
0023
0000
2030
0000
3010
0000
0101
0000
0000
1010
0000
0000
0220
0000
,
0000
0000
0000
0330
0100
0010
0100
0010
,
0220
0000
0330
0000
;

//---------------dance-single - ----------------
#NOTES:
     dance-single:
     :
     Medium:
     6:
     0.345100,0.422747,0.295800,0.320450,0.110925,294.000000,258.000000,36.000000,39.000000,0.000000,0.000000,0.345100,0.422747,0.295800,0.320450,0.110925,294.000000,258.000000,36.000000,39.000000,0.000000,0.000000:
// measure 0
0000
0000
0000
0000
,  // measure 1
0000
0000
0000
0000
,  // measure 2
0000
0000
0000
0000
,  // measure 3
0000
0000
0000
0000
,  // measure 4
0000
0000
0000
0000
,  // measure 5
2000
0000
3002
0000
,  // measure 6
0203
0000
0000
0310
,  // measure 7
0020
0000
2030
0000
,  // measure 8
3200
0000
0310
0010
,  // measure 9
0001
0000
0001
0000
,  // measure 10
0200
0000
0000
0310
,  // measure 11
0010
0000
0010
0000
,  // measure 12
1000
0000
1000
0001
,  // measure 13
0100
0100
0010
0010
,  // measure 14
1000
1000
0001
0001
,  // measure 15
0010
0100
0010
0000
0100
0010
0100
0000
,  // measure 16
1000
0000
0000
0001
0000
0000
1001
0000
,  // measure 17
0010
0000
1002
0000
,  // measure 18
0103
0001
2001
0000
,  // measure 19
3100
0100
0120
0000
,  // measure 20
0031
0000
0000
0110
0000
0000
1000
0001
,  // measure 21
1000
0100
1200
0000
,  // measure 22
0310
0001
0201
0000
,  // measure 23
0320
0000
0000
0030
1001
0000
0000
1001
,  // measure 24
0000
0000
0000
0000
0010
0100
0010
0100
,  // measure 25
0020
0000
0130
0000
,  // measure 26
0010
1000
1002
0000
,  // measure 27
0103
0001
2001
0000
,  // measure 28
3010
0010
0100
0100
,  // measure 29
0001
0100
0102
0000
,  // measure 30
1003
0100
2100
0000
,  // measure 31
3010
0000
0000
0000
0100
0000
0000
0000
1001
0000
0000
0100
0000
0000
0020
0000
,  // measure 32
0000
0000
0030
0000
,  // measure 33
1000
1000
0010
0010
,  // measure 34
0100
0100
0001
0001
,  // measure 35
0010
0010
0100
0100
,  // measure 36
1000
0000
1000
0000
0010
0000
0010
0100
,  // measure 37
0001
1100
0001
1010
,  // measure 38
1000
0011
1000
0101
,  // measure 39
1000
0001
1000
0001
,  // measure 40
0100
0010
0100
0010
0100
0010
0200
0000
,  // measure 41
0310
0000
0000
0010
0000
0000
0010
0000
0000
0010
0000
0000
0010
0000
0000
0000
,  // measure 42
1000
0000
0000
1000
0000
0000
1000
0000
0000
1000
0000
0000
2000
0000
0000
0000
,  // measure 43
3001
0000
0000
0001
0000
0000
0001
0000
0000
0001
0000
0000
0001
0000
0000
0000
,  // measure 44
0100
0000
0010
0000
0100
0000
0010
0100
,  // measure 45
0010
0000
0000
0100
0000
0000
0010
0000
0000
0100
0000
0000
0010
0000
0000
0000
,  // measure 46
1000
0000
0000
0001
0000
0000
1000
0000
0000
0001
0000
0000
2000
0000
0000
0000
,  // measure 47
3001
0000
0000
0100
0000
0000
0010
0000
0000
1000
0000
0000
0100
0000
0010
0000
,  // measure 48
0001
0000
0001
1000
0000
1000
0010
0000
,  // measure 49
0220
0000
0330
0000
0001
0000
0000
1000
0000
0000
0100
0000
1000
0000
0001
0000
,  // measure 50
0100
0000
0000
0010
0000
0000
1000
0000
0000
0001
0000
0000
0100
0000
0000
0000
,  // measure 51
0010
0000
0000
1000
0000
0000
0100
0000
0000
0010
0000
0000
0001
0000
0010
0000
,  // measure 52
0100
0000
0100
0000
1000
0000
0001
1000
,  // measure 53
0001
0000
0000
0010
0000
0000
0100
0000
0000
1000
0000
0000
0100
0000
0000
0010
,  // measure 54
0000
0000
0001
0000
0100
0000
0000
0010
0000
0000
1000
0000
0000
0010
0000
0000
,  // measure 55
0100
0000
0000
0001
0000
0000
0010
0000
0000
0100
0000
0000
1000
0000
0000
0000
,  // measure 56
1001
0000
0000
0110
0000
0000
1001
0000
,  // measure 57
0010
1000
2010
0000
,  // measure 58
3010
0001
0012
0000
,  // measure 59
0103
0010
0210
0000
,  // measure 60
0310
1000
0001
0100
0010
1000
0001
0100
,  // measure 61
0010
0100
1002
0000
,  // measure 62
0103
0010
2001
0000
,  // measure 63
3200
0000
0000
0000
0000
0000
0000
0000
0310
0000
0000
0010
0000
0000
0020
0000
,  // measure 64
0000
0000
0000
0000
1030
0100
0010
0001
,  // measure 65
0200
0000
0310
1000
,  // measure 66
2001
0000
3010
0001
,  // measure 67
1002
0000
0103
0010
,  // measure 68
1001
0000
0000
0110
0000
0000
1001
0000
,  // measure 69
0100
0010
2010
0000
,  // measure 70
3100
0010
0012
0000
,  // measure 71
0103
0000
0000
0000
0010
0000
0000
0000
1001
0000
0000
0100
0000
0000
0020
0000
,  // measure 72
0000
0000
0031
1000
,  // measure 73
2002
0000
3003
0000
;

//---------------dance-single - ----------------
#NOTES:
     dance-single:
     :
     Easy:
     4:
     0.273497,0.362355,0.262933,0.304016,0.016433,233.000000,201.000000,32.000000,37.000000,0.000000,0.000000,0.273497,0.362355,0.262933,0.304016,0.016433,233.000000,201.000000,32.000000,37.000000,0.000000,0.000000:
// measure 0
0000
0000
0000
0000
,  // measure 1
0000
0000
0000
0000
,  // measure 2
0000
0000
0000
0000
,  // measure 3
0000
0000
0000
0000
,  // measure 4
0000
0000
0000
0000
,  // measure 5
1000
0000
0001
0000
,  // measure 6
0200
0000
0000
0310
,  // measure 7
0010
0000
1000
0000
,  // measure 8
0001
0000
0010
0010
,  // measure 9
0100
0000
0100
0000
,  // measure 10
1000
0000
1000
0000
,  // measure 11
0001
0000
0001
0000
,  // measure 12
0010
0000
0010
0000
,  // measure 13
0100
0100
0100
0100
,  // measure 14
0010
0010
0010
0010
,  // measure 15
0001
1000
0001
1000
,  // measure 16
1001
0000
0000
0110
0000
0000
1001
0000
,  // measure 17
0010
0000
0020
0000
,  // measure 18
0130
0000
0200
0000
,  // measure 19
0301
0000
0002
0000
,  // measure 20
0013
0010
0100
0100
,  // measure 21
1000
0000
2000
0000
,  // measure 22
3010
0000
0020
0000
,  // measure 23
0130
0000
0000
0000
0000
0000
0000
0000
1000
0000
0000
0001
0000
0000
1001
0000
,  // measure 24
0000
0000
0100
0010
,  // measure 25
0110
0000
1001
0000
,  // measure 26
0100
0000
0200
0000
,  // measure 27
0310
0000
0020
0000
,  // measure 28
1030
1000
0001
0001
,  // measure 29
1000
0000
2000
0000
,  // measure 30
3001
0000
0002
0000
,  // measure 31
0013
0000
0000
0000
0100
0000
0000
0000
1000
0000
0000
0001
0000
0000
2000
0000
,  // measure 32
0000
0000
3010
0010
,  // measure 33
1000
0000
0001
0000
,  // measure 34
0020
0000
0000
0100
,  // measure 35
0130
1000
0001
0100
,  // measure 36
0010
1000
0001
1001
,  // measure 37
1000
1000
0100
0100
,  // measure 38
0010
0010
0001
0001
,  // measure 39
0100
0010
1000
0001
,  // measure 40
1001
0000
0000
0110
0000
0000
1001
0000
,  // measure 41
0100
0000
0000
0100
0000
0000
0010
0000
,  // measure 42
0010
0000
0000
0010
0000
0000
2000
0000
,  // measure 43
3001
0000
0000
0001
0000
0000
1000
0000
,  // measure 44
1000
0010
0001
0100
,  // measure 45
1000
0000
0000
1000
0000
0000
0010
0000
,  // measure 46
0010
0000
0000
0010
0000
0000
0200
0000
,  // measure 47
0301
0000
0000
0001
0000
0000
0010
0000
,  // measure 48
0110
0000
0000
1001
0000
0000
0110
0000
,  // measure 49
0200
0310
1000
0100
,  // measure 50
0010
0000
0000
0001
0000
0000
0200
0000
,  // measure 51
0310
0000
0000
1000
0000
0000
0100
0000
,  // measure 52
0010
0010
0100
0100
,  // measure 53
1000
0000
0000
0010
0000
0000
0100
0000
,  // measure 54
0000
0001
0000
0000
0010
0000
0000
0100
,  // measure 55
0000
0000
1000
0000
0000
0010
0000
0000
,  // measure 56
1001
0000
0000
0110
0000
0000
1001
0000
,  // measure 57
0100
0010
0220
0330
,  // measure 58
0001
1000
2002
3003
,  // measure 59
1000
0001
2002
3003
,  // measure 60
0100
0100
0010
0010
,  // measure 61
0100
0010
0220
0330
,  // measure 62
0010
0100
0220
0330
,  // measure 63
2000
0000
0000
0000
0000
0000
0000
0000
3010
0000
0000
0100
0000
0000
2002
0000
,  // measure 64
0000
0000
0000
3003
0100
0000
0010
0000
,  // measure 65
0220
0330
1001
0000
,  // measure 66
0100
0010
0012
0000
,  // measure 67
0013
0100
2100
0000
,  // measure 68
3010
0010
0100
0100
,  // measure 69
0110
0010
1001
0000
,  // measure 70
0110
0100
1001
0000
,  // measure 71
1000
0000
0000
0000
0100
0000
0000
0000
0010
0000
0000
0100
0000
0000
2002
0000
,  // measure 72
0000
3003
0100
0010
,  // measure 73
0220
0000
0330
0000
;
