#TITLE:Man of Mystery;
#SUBTITLE:;
#ARTIST:Muse (Originally by The Shadows);
#TITLETRANSLIT:;
#SUBTITLETRANSLIT:;
#ARTISTTRANSLIT:;
#CREDIT:;
#BANNER:;
#BACKGROUND:;
#LYRICSPATH:;
#CDTITLE:;
#MUSIC:Man of Mystery.mp3;
#OFFSET:-4.800;
#SAMPLESTART:10.200;
#SAMPLELENGTH:10.200;
#SELECTABLE:YES;
#BPMS:0.000=155.000,88.000=156.500,92.000=160.000,108.000=155.000,168.000=161.100,188.000=161.500,192.000=161.600,208.000=155.500;
#STOPS:;
#BGCHANGES:;

//---------------dance-single - ----------------
#NOTES:
     dance-single:
     :
     Hard:
     10:
     0.715,0.685,0.158,1.000,0.154: // measure 1
1000
0000
0010
1000
0010
0000
0010
1000
0010
0000
0010
1000
0010
0000
0010
1000
,  // measure 2
0002
0000
0000
0023
,  // measure 3
0130
0000
1000
0100
1000
0000
1000
0100
1000
0000
1000
0100
0010
0000
0010
0000
,  // measure 4
0011
0000
0002
0000
0020
0003
0200
0030
,  // measure 5
2000
0300
0020
3000
0130
0001
0100
0001
,  // measure 6
2000
0000
0020
3000
0200
0030
0002
0300
,  // measure 7
0020
0003
0200
0030
1300
0010
1000
0010
,  // measure 8
0200
0000
2000
0300
0200
3000
0002
0300
,  // measure 9
0020
0003
0200
0030
1300
0010
0100
0001
,  // measure 10
2000
0000
0200
3000
2000
0300
0200
3000
,  // measure 11
2000
0300
0200
3000
1300
0001
0010
0100
,  // measure 12
2200
3300
0000
0000
0000
0000
0000
0000
2000
0000
0000
0000
0000
0000
0000
0000
0200
0000
0000
0000
3000
0000
0000
0000
0020
0000
0000
0000
0300
0000
0000
0000
,  // measure 13
0002
0030
0020
0003
0130
1000
0010
0100
,  // measure 14
0002
0000
0020
0003
0200
0030
2000
0300
,  // measure 15
0020
3000
0200
0030
0301
1000
0100
0010
,  // measure 16
0200
0000
2000
0300
0200
3000
0020
0300
,  // measure 17
0002
0030
0200
0003
0310
1000
0100
0010
,  // measure 18
0001
0001
0010
0010
2200
3300
2020
3030
,  // measure 19
0002
0000
0000
0000
0000
0000
0000
0000
0000
0000
0000
0000
0000
0000
0000
0000
0200
0000
0000
0000
0000
0000
0000
0000
0000
0000
0000
0000
0000
0000
0000
0000
20M0
3000
0000
0000
0000
0000
0000
0000
0000
0000
0000
0000
0000
0000
0000
0000
M3M3
0000
0000
0000
0000
0000
0000
0000
0000
0000
0000
0000
0000
0000
0000
0000
,  // measure 20
2200
0300
0020
0030
0002
0003
0200
3300
,  // measure 21
0202
0300
2000
3000
0010
0010
0010
0013
,  // measure 22
0020
0230
2300
3200
,  // measure 23
1300
0000
1000
0100
0010
0000
0100
0000
1000
0000
0010
0000
0100
0000
0001
0000
,  // measure 24
1000
0100
1000
0000
0100
0000
0010
0000
MMMM
0000
0100
0000
0010
0000
0100
0000
,  // measure 25
1000
0010
1000
0000
0001
0000
0010
0000
MMMM
0000
0001
0000
0010
0000
0000
0000
,  // measure 26
0100
1000
0100
0000
1000
0000
0010
0000
0100
0001
0100
0000
0001
0000
0010
0000
,  // measure 27
0022
0000
0000
0033
0022
0000
0000
0033
0001
1000
0001
0100
0001
0000
0010
0001
,  // measure 28
2000
0000
0020
3000
0200
0030
0302
0000
,  // measure 29
0020
0003
0002
0030
1003
0100
0001
0100
,  // measure 30
2000
0000
0002
3000
0020
0003
0200
0030
,  // measure 31
2000
0300
0020
3000
0031
0010
1000
0010
,  // measure 32
0200
0000
0002
0300
0020
0003
0200
0030
,  // measure 33
2000
0300
0002
3000
1003
0100
1000
0100
,  // measure 34
0010
0010
0001
0001
0200
0000
0020
0330
,  // measure 35
2000
0000
0000
0000
0000
0000
0000
0000
0000
0000
0000
0000
0000
0000
0000
0000
0200
0000
0000
0000
0000
0000
0000
0000
0000
0000
0000
0000
0000
0000
0000
0000
00M2
0003
0000
0000
0000
0000
0000
0000
0000
0000
0000
0000
0000
0000
0000
0000
33MM
0000
0000
0000
0000
0000
0000
0000
0000
0000
0000
0000
0000
0000
0000
0000
,  // measure 36
2010
0000
0001
0001
0MMM
0000
3001
0000
,  // measure 37
1002
0000
1000
1000
MMM0
0000
1003
0000
,  // measure 38
2000
0000
0000
0000
0000
0000
0000
0000
0000
0000
0000
0000
0000
0000
0000
0000
0200
0000
0000
0000
0000
0000
0000
0000
0000
0000
0000
0000
0000
0000
0000
0000
00M2
0003
0000
0000
0000
0000
0000
0000
0000
0000
0000
0000
0000
0000
0000
0000
00M2
0003
0000
0000
0000
0000
0000
0000
3300
0000
0000
0000
0000
0000
0000
0000
,  // measure 39
0022
0000
0000
0033
0022
0000
0000
0033
0001
0010
0001
0010
0100
0000
1000
0000
,  // measure 40
2100
0000
0001
0001
0MMM
0000
3001
0000
,  // measure 41
1002
0000
1000
1000
MMM0
0000
1003
0000
,  // measure 42
1000
1000
0001
0001
0010
0010
0100
0100
,  // measure 43
1000
0000
0100
1000
0100
0000
0001
0000
0100
0000
1000
0100
1000
0000
0100
0000
,  // measure 44
0001
0000
0100
1000
0100
0000
0001
0000
0100
0000
1000
0100
1000
0000
0100
0000
,  // measure 45
MMMM
0000
0010
0000
0200
0000
0000
0300
0200
0000
0000
0300
0200
0000
0000
0000
,  // measure 46
1300
0100
0001
0100
1000
0010
0001
0010
,  // measure 47
1000
0010
0100
0001
1000
0100
0010
0002
,  // measure 48
0020
0000
0000
0030
0020
0000
0000
0033
0001
0010
0001
0010
0100
0000
0010
0000
,  // measure 49
0011
0010
0001
0010
0110
0100
0010
0100
,  // measure 50
1100
1000
0100
1000
0100
0010
0100
1000
,  // measure 51
0010
0100
0001
0010
0100
1000
0100
0010
,  // measure 52
MM2M
0030
0000
0000
0000
0000
0000
0000
0000
0000
0000
0000
0000
0000
0000
0000
2MM2
3003
0000
0000
0000
0000
0000
0000
0000
0000
0000
0000
0000
0000
0000
0000
1000
0000
0000
0000
0100
0000
0000
0000
0010
0000
0000
0000
0001
0000
0000
0000
0010
0000
0000
0000
0000
0000
0000
0000
0100
0000
0000
0000
1000
0000
0000
0000
,  // measure 53
0200
0000
2000
0300
0002
3000
0200
0003
,  // measure 54
0020
0300
2000
0030
3100
0010
0100
0010
,  // measure 55
0002
0000
0020
0003
0200
0030
0020
0300
,  // measure 56
0002
0030
0200
0003
0301
0100
0001
0100
,  // measure 57
0020
0000
2000
0030
0200
3000
0020
0300
,  // measure 58
0200
0030
2000
0300
3010
0100
0010
0100
,  // measure 59
0001
0010
1000
0010
0002
0000
0100
0003
,  // measure 60
0200
0000
0000
0000
0000
0000
0000
0000
0000
0000
0000
0000
0000
0000
0000
0000
0002
0000
0000
0000
0000
0000
0000
0000
0000
0000
0000
0000
0000
0000
0000
0000
20M0
3000
0000
0000
0000
0000
0000
0000
0000
0000
0000
0000
0000
0000
0000
0000
0303
0000
0000
0000
0000
0000
0000
0000
0000
0000
0000
0000
0000
0000
0000
0000
,  // measure 61
2000
0000
0200
3000
0020
0300
0200
0030
,  // measure 62
2000
0300
0002
3000
1003
0001
1000
0001
,  // measure 63
0200
0000
0020
0300
2000
0030
0200
3000
,  // measure 64
0020
0300
0002
0030
1003
0100
1000
0100
,  // measure 65
2000
0000
0002
3000
0200
0003
0020
0300
,  // measure 66
2000
0030
0200
3000
0310
0001
0010
0001
,  // measure 67
1000
0010
0001
0010
2000
0000
3020
0000
,  // measure 68
0230
0000
0000
0000
0000
0000
0000
0000
0000
0000
0000
0000
0000
0000
0000
0000
0002
0000
0000
0000
0000
0000
0000
0000
0000
0000
0000
0000
0000
0000
00M0
00M0
20M0
30M0
00M0
00M0
00M0
00M0
00M0
00M0
0000
0000
0000
0000
0000
0000
0000
0000
0303
0000
0000
0000
0000
0000
0000
0000
0000
0000
0000
0000
0000
0000
0000
0000
;

//---------------dance-single - ----------------
#NOTES:
     dance-single:
     :
     Beginner:
     3:
     0.320,0.358,0.167,0.246,0.000:
0000
0000
0000
0000
,
2002
0000
3003
0000
,
0000
0000
0000
0000
,
0001
1001
0000
1000
,
0001
1001
0000
1000
,
0010
0110
0000
0100
,
0100
0110
0000
0001
,
0010
0110
0000
1000
,
0100
0110
0000
1000
,
0001
0001
1000
1000
,
0001
0001
1000
1000
,
1000
0000
2000
0000
0000
3000
1000
0000
,
0001
0000
0002
0000
0000
0003
0001
0000
,
0010
0000
0020
0000
0000
0030
0010
0000
,
0100
0000
0200
0000
0000
0300
0100
0000
,
1000
0000
0020
0000
0000
0030
0100
0000
,
0010
0000
2000
0000
0000
3000
0100
0000
,
0001
0001
1000
2000
,
0002
0000
0000
3003
,
0020
0000
0000
0030
,
0200
0000
0000
0300
0100
0000
0100
0000
,
0200
0000
0000
0000
0000
0000
0000
0300
,
1000
1000
0001
0001
,
0001
0000
0000
1001
0000
0000
0000
0000
,
1000
0000
0000
1100
0000
0000
0000
0000
,
0010
0010
0100
0100
,
0220
0000
0000
0330
,
1000
1000
0001
0001
,
1000
0001
1000
0000
,
0001
0001
1000
1000
,
0001
1000
0001
0000
,
0010
0010
0100
0100
,
0010
0100
0010
0000
,
0100
0100
0010
0010
,
0220
0000
0000
0330
,
0002
0010
0000
0013
,
0020
0001
0000
0031
,
1000
0001
1000
0001
,
0110
0110
0110
0110
,
0020
0100
0000
0030
,
0200
0010
0000
0300
,
1000
0100
0010
0001
,
1000
0000
0000
1000
0000
0000
1000
0000
,
1000
0000
0000
1000
0000
0000
1000
0000
,
0010
0010
0010
0100
,
0001
0001
0001
0010
,
0100
0100
0100
1000
,
0010
0100
0110
0000
,
1000
0000
0000
1000
0000
0000
1000
0000
,
0001
0000
0000
0001
0000
0000
0001
0000
,
0010
0000
0000
0010
0000
0000
0010
0000
,
0100
0100
0200
0300
,
1000
1000
0001
0001
,
1000
0001
1000
0001
,
0010
0010
0100
0100
,
0010
0100
0010
0100
,
1000
1000
0001
0001
,
0100
0010
0100
0010
,
1000
0100
0010
0001
,
2002
0000
0000
3003
,
0001
0001
0010
0010
,
0100
0100
1000
1000
,
0001
0001
0010
0010
,
0100
0100
0010
0010
,
0001
1000
0001
1000
,
0100
1000
0100
1000
,
0010
0100
0001
1000
,
0220
0330
2002
3003
;

//---------------dance-single - ----------------
#NOTES:
     dance-single:
     :
     Easy:
     5:
     0.447,0.566,0.238,0.325,0.000:
0000
0000
0000
0000
0000
0000
0000
0001
,
1001
0000
0000
0000
,
1001
1001
1001
1001
,
1000
0000
0100
1000
0000
0000
0100
0000
,
0010
0000
0100
0010
0000
0000
0001
0000
,
0010
0000
0100
1000
0000
0000
0010
0000
,
0100
0000
0001
0010
0000
0000
0100
0000
,
0100
0000
1000
0100
0000
0000
0010
0000
,
0001
0000
1000
0001
0000
0000
1000
0000
,
0020
0230
0320
0230
,
0320
0130
0110
0110
,
1000
0000
0010
1000
0000
0000
0010
0000
,
0100
0000
0010
0100
0000
0000
0010
0000
,
0100
0000
0001
0100
0000
0000
0001
0000
,
0010
0000
0001
0010
0000
0000
0100
0000
,
1000
0000
0010
0100
0000
0000
0010
0000
,
1000
0000
0100
0010
0000
0000
0001
0000
,
0001
0010
0000
0010
0100
0000
0100
1000
,
0000
1000
0100
0000
1200
0000
0000
0000
,
1300
1000
0001
0001
,
1000
0000
1000
0000
0001
0010
0001
0010
,
0100
1000
0010
0100
,
0001
0001
0001
0000
1001
0000
1001
0000
,
0100
0000
1000
0100
0000
1000
0100
0000
,
1000
0000
0100
1000
0000
0100
1000
0000
,
1000
1000
0100
0100
,
0022
0033
0022
0033
0022
0000
0000
0033
,
1000
0000
0001
0100
0000
0000
0001
0000
,
1000
0000
0100
0010
0000
0000
0001
0000
,
0010
0000
0100
1000
0000
0000
0100
0000
,
0010
0000
0001
0010
0000
0000
0100
0000
,
1000
0000
0001
0100
0000
0000
0010
0000
,
1000
0000
0100
0010
0000
0000
0100
0000
,
1000
1000
1000
0000
0001
0000
1000
0000
,
2002
3003
2002
3003
2002
0000
0000
3003
,
0002
1000
1000
0010
,
2003
0001
0010
0001
,
3010
0100
0001
1000
,
2002
0000
0000
3003
,
0020
1000
0100
1000
,
0230
0001
0010
0001
,
0310
0100
0000
0100
0010
0100
0010
0000
,
1000
0100
1000
0100
1000
0000
1000
0000
,
0001
0100
0001
0100
0001
0000
0001
0000
,
1000
0001
1000
0000
1000
0000
1000
0000
,
0001
1000
0001
0000
0001
0000
0001
0000
,
1000
0001
1000
0000
0001
1000
0001
0000
,
0220
0330
0220
0330
0220
0000
0000
0330
,
1000
0010
1000
0010
1000
0000
0010
0000
,
0100
0001
0100
0001
0100
0000
0001
0000
,
0001
0010
0100
2000
,
0001
0000
0000
0000
0000
0000
0000
0000
0MM2
0003
0000
0000
0000
0000
0000
0000
0MM2
0003
0000
0000
0000
0000
0000
0000
0001
0000
0000
0000
3000
0000
0000
0000
,
1000
0000
1000
0100
1000
0000
1000
0100
,
1000
0000
1000
0100
1000
0000
0000
0000
,
0001
0000
0001
0100
0001
0000
0001
0100
,
0001
0000
0001
0100
0001
0000
0000
0000
,
1000
1000
0000
1000
1000
0000
1000
1000
,
0000
1000
1000
0000
1000
1000
0000
1000
,
0001
0010
0001
0010
,
0110
0000
0101
0000
2002
0000
0000
3003
,
0001
0000
0001
0010
0001
0000
0001
0010
,
0001
0000
0001
0010
0001
0000
0000
0000
,
1000
0000
1000
0010
1000
0000
1000
0010
,
1000
0000
1000
0010
1000
0000
0000
0000
,
1000
1000
0010
0010
,
0100
0100
0001
0001
,
1000
0100
0010
0100
1000
0000
1001
0000
,
1001
0110
2002
3003
;

//---------------dance-single - Copied from----------------
#NOTES:
     dance-single:
     Copied from:
     Medium:
     8:
     0.607,0.653,0.361,0.378,0.053:
1000
1000
0100
0100
1000
1000
0100
0100
,
1100
0000
0000
2000
,
3001
0001
0010
0010
0001
0001
0010
0010
,
2100
0100
0010
3100
,
0012
0000
0100
0000
1003
0001
0100
0001
,
2000
0010
0001
0010
,
3200
0000
1000
0000
1300
0100
0001
0100
,
2000
0001
0010
3001
,
0020
0000
0100
0000
1030
0010
0100
0001
,
1000
1000
0100
0100
1000
1000
0100
0100
,
1000
1000
0100
0100
1000
0100
1000
0100
,
1000
0010
0100
0000
0001
0000
0010
0000
,
0001
0010
0100
0010
0001
0010
0100
1000
,
0010
1000
0100
0000
1000
0000
0001
0000
,
1000
0010
0100
0001
0010
0001
0010
0100
,
1000
0001
0010
0000
0001
0000
0010
0000
,
0001
0010
0001
0010
0100
0010
0100
1000
,
0100
0010
0100
1000
0002
0003
0200
0300
,
0202
0000
0303
0000
,
0001
0000
0001
0100
0000
0100
0001
0010
,
0001
0000
0010
0000
0100
1000
0100
1000
,
0001
0001
0010
0010
0100
0100
1000
1000
,
MMMM
0000
0000
0000
MMMM
0000
0000
0000
10MM
0100
1000
0100
10MM
0000
0100
0000
,
1000
0100
1000
0000
1000
0010
1000
0000
,
1000
0100
1000
0000
1000
0010
1000
0000
,
1000
0100
1000
0100
0010
0001
0010
0002
,
2MM0
3000
2MM0
3000
2MM0
0000
0MM0
3003
,
0002
0010
0100
1003
,
0020
0000
0100
0000
1030
0010
1000
0010
,
0200
0001
1000
0301
,
2010
0000
0100
0000
3001
0100
0001
0100
,
0020
1000
0100
0031
,
2000
0000
0010
0000
3001
1000
0001
1000
,
0001
0100
0001
0010
0200
0000
2300
0000
,
0MM2
0MM0
3MM3
MMMM
,
1001
0000
0010
0100
0000
0100
0010
0000
,
0011
0000
0001
0010
0000
0010
0001
0000
,
0001
0001
0010
0010
0100
0100
1000
2000
,
0200
0000
0000
3000
2000
0000
0000
0300
02MM
00MM
00MM
00MM
00MM
0000
33MM
0000
,
0110
0000
0001
0010
0000
0010
0100
0000
,
1100
0000
0001
0100
0000
0100
0010
0000
,
1000
1000
0001
0001
2000
0000
3020
0000
,
0130
0000
0000
0001
0100
0000
0001
0000
0100
0000
0000
0001
0100
0000
0001
0000
,
0100
0000
0000
0001
0100
0000
0001
0000
0100
0000
0000
0001
0100
0000
0001
0100
,
0002
0023
0002
0033
0022
0033
0001
0001
,
0010
0010
0100
0100
1000
1000
0100
0100
,
1000
0100
0010
0001
0010
0100
1000
0010
,
0200
0000
0000
0000
0000
0000
0000
0000
0000
0000
0000
0000
0000
0000
0000
0000
0002
0003
0000
0000
0000
0000
0000
0000
0000
0000
0000
0000
0000
0000
0000
0000
0002
0003
0000
0000
0000
0000
0000
0000
0001
0000
0000
0000
0000
0000
0000
0000
0001
0000
0000
0000
0000
0000
0000
0000
0301
0000
0000
0000
0000
0000
0000
0000
,
0001
0010
0100
1000
0100
0010
0100
1000
,
0000
0001
0010
0000
0001
0010
0100
0010
,
0001
0010
0100
0001
0100
1000
0010
0100
,
0001
0000
0000
0000
0000
0000
0000
0001
1000
0000
0000
0000
0000
0000
0000
0001
1000
0000
0000
0000
0000
0000
0000
0000
0000
0000
0000
0000
0000
0000
0000
0000
,
1100
1010
0110
0101
,
0011
0000
0101
0000
0110
0110
0110
0110
,
0011
0101
0110
1010
,
1100
0000
1010
0000
0110
0110
0110
0110
,
0011
0101
0110
1010
,
0110
0000
0101
0000
0011
0011
0011
0011
,
0001
0001
0010
0010
0002
0000
0020
0000
,
0000
0000
0000
0033
,
1000
0100
1000
0100
1000
0010
1000
0010
,
1000
0001
1000
0001
1000
0100
0010
0100
,
1000
0100
1000
0100
1000
0010
1000
0010
,
1000
0001
1000
0001
1000
0100
0010
0001
,
0010
0001
0010
0001
0010
0100
0010
0100
,
0010
1000
0010
1000
0010
0100
0010
0001
,
0010
0100
1000
0100
0020
0230
0010
0000
,
0010
0000
0000
0000
0000
0000
0000
0000
0000
0000
0000
0000
0000
0000
0000
0000
0020
0000
0000
0000
0000
0000
0000
0000
0000
0000
0000
0000
0000
0000
0000
0000
0330
0110
0000
0000
0000
0000
0000
0000
0000
0000
0000
0000
0000
0000
0000
0000
0000
0000
0000
0000
0000
0000
0000
0000
0000
0000
0000
0000
0000
0000
0000
0000
;
