#TITLE:Magikarp Festival;
#SUBTITLE:;
#ARTIST:Hiroki Hashimoto;
#TITLETRANSLIT:;
#SUBTITLETRANSLIT:;
#ARTISTTRANSLIT:;
#GENRE:;
#CREDIT:;
#BANNER:[Qualifier] - Magikarp Festival.png;
#BACKGROUND:[Qualifier] - Magikarp Festival-bg.png;
#LYRICSPATH:;
#CDTITLE:cdtitle.png;
#MUSIC:[Qualifier] - Magikarp Festival.ogg;
#OFFSET:-0.510000;
#SAMPLESTART:28.628000;
#SAMPLELENGTH:13.250000;
#LASTBEATHINT:331.017517;
#SELECTABLE:YES;
#BPMS:0.000000=145.000000
,132.000000=72.500000
,132.500000=145.000000
,133.500000=217.500000
,135.000000=145.000000
,196.000000=72.500000
,197.000000=145.000000
,198.000000=290.000000
,328.000000=145.000000
;
#STOPS:
;
#BGCHANGES:;
#KEYSOUNDS:;
#ATTACKS:;

//---------------dance-single - ----------------
#NOTES:
     dance-single:
     :
     Beginner:
     3:
     0.193329,0.362649,0.150367,0.017690,0.000000,153.000000,136.000000,17.000000,2.000000,0.000000,0.000000,0.193329,0.362649,0.150367,0.017690,0.000000,153.000000,136.000000,17.000000,2.000000,0.000000,0.000000:
0000
0000
0000
0000
,
0000
0000
0000
0000
,
0000
0000
0000
0000
,
0000
0000
0000
0000
,
1000
0000
0100
0000
,
1000
0000
0100
0000
,
0010
0000
0001
0000
,
0010
0000
0001
0000
,
0100
0000
0001
0000
,
0100
0000
0001
0000
,
1000
0000
0010
0000
,
1000
0000
0010
0000
,
0100
0100
0100
0000
,
0010
0010
0010
0000
,
1000
0000
0001
0000
,
0010
0000
0100
0000
,
1001
0000
0000
0000
,
0010
0000
0001
0000
,
0100
0000
0001
0000
,
0010
0000
0100
0000
,
1000
0000
0100
0000
,
1000
0000
0010
0000
,
0001
0000
0010
0000
,
0100
0000
0001
0000
,
0010
0000
0001
0000
,
1000
1000
1000
0000
,
0001
0001
0001
0000
,
0010
0010
0010
0000
,
0100
0100
0100
0000
,
1000
0000
0001
0000
,
0100
0000
1000
0000
,
0001
0000
0010
0000
,
0100
0000
1001
0000
,
0110
0000
0000
0000
,
0010
0000
0010
0000
,
0100
0000
0100
0000
,
1000
0000
1000
0000
,
0001
0000
0001
0000
,
0100
0000
0100
0000
,
0001
0000
0001
0000
,
1000
0000
1000
0000
,
0010
0000
0010
0000
,
1100
0000
1100
0000
,
0101
0000
0101
0000
,
0011
0000
0011
0000
,
1010
0000
1010
0000
,
0110
0000
0110
0000
,
1001
0000
1001
0000
,
0002
0000
2003
0000
,
3010
0000
0000
0000
,
0001
0000
0000
0000
,
0001
0000
0000
0000
,
1000
0000
1000
0000
,
1000
0000
0000
0000
,
0100
0000
0000
0000
,
0100
0000
0000
0000
,
1000
0000
1000
0000
,
1000
0000
0000
0000
,
0010
0000
0000
0000
,
0010
0000
0000
0000
,
0100
0000
0100
0000
,
0100
0000
0000
0000
,
0001
0000
0000
0000
,
0001
0000
0000
0000
,
0010
0000
0010
0000
,
0110
0000
0000
0000
,
1000
0000
0000
0000
,
1000
0000
0000
0000
,
0001
0000
0001
0000
,
0001
0000
0000
0000
,
0100
0000
0000
0000
,
0100
0000
0000
0000
,
0001
0000
0001
0000
,
0001
0000
0000
0000
,
0010
0000
0000
0000
,
0010
0000
0000
0000
,
0100
0000
0100
0000
,
0100
0000
0000
0000
,
1000
0000
0000
0000
,
1000
0000
0000
0000
,
0010
0000
0010
0000
,
0010
0000
0000
0000
,
1001
0000
0000
0000
;

//---------------dance-single - ----------------
#NOTES:
     dance-single:
     :
     Easy:
     5:
     0.343695,0.543973,0.291888,0.053071,0.000000,272.000000,239.000000,33.000000,6.000000,0.000000,0.000000,0.343695,0.543973,0.291888,0.053071,0.000000,272.000000,239.000000,33.000000,6.000000,0.000000,0.000000:
0000
0000
0000
0000
,
0000
0000
0000
0000
,
0000
0000
0000
0000
,
0000
0000
0000
0000
,
1000
0100
0200
0000
,
0301
0100
0100
0010
,
0001
0100
0200
0000
,
1300
0100
0100
0010
,
1000
0001
0001
1000
,
0010
0100
0100
0110
,
0001
1000
1000
0001
,
0010
0100
0100
1001
,
1000
0100
0001
1000
,
0010
0001
0100
1000
,
0001
0010
1000
0001
,
0010
0100
0010
0100
,
0000
0000
0000
1001
,
1000
0100
0010
0010
,
0001
0100
0010
0110
,
1000
0010
0100
0100
,
0001
0010
0100
1001
,
1000
0100
0001
0100
,
1000
0010
0001
0010
,
0100
0001
0010
0100
,
1000
0010
0110
1001
,
1100
1100
0010
0001
,
0101
0101
1000
0010
,
0110
0110
0100
0001
,
1001
1001
1000
0010
,
1010
1010
0100
0001
,
0011
0011
1000
0100
,
0010
0010
0001
0001
,
1000
1000
0100
0100
,
2002
0000
0000
3003
,
1000
1000
1000
1000
,
0001
0001
0001
0001
,
0100
0100
0100
0100
,
0010
0010
0010
0010
,
1000
0010
1000
0010
,
0100
0001
1000
0000
,
0001
0010
0100
1000
,
0010
0100
0100
0000
,
0001
0010
1000
0010
,
0001
1000
0100
0000
,
1000
0001
0010
0100
,
1000
0001
0100
0110
,
1000
0010
0001
0010
,
1000
0001
0100
0000
,
0100
0001
1000
0010
,
2002
0000
3003
0000
,
1000
0000
1000
0000
,
0010
0000
0100
0000
,
0001
0000
0010
0001
,
0100
0000
0000
0000
,
0001
0000
0001
0000
,
1000
0000
0100
1000
,
0010
0000
0100
0000
,
0100
0000
0000
0000
,
0001
0000
0001
0000
,
0010
0000
0100
0000
,
1000
0000
0010
1000
,
0100
0000
0000
0000
,
1000
0000
1000
0000
,
0001
0000
0100
0001
,
0010
0000
0100
0000
,
1001
0000
0110
0000
,
1010
0000
1010
0000
,
0101
0000
0101
0000
,
0001
1000
0001
1000
,
0001
0000
0000
0000
,
0011
0000
0011
0000
,
1100
0000
1100
0000
,
0100
0010
0100
0010
,
0100
0000
0000
0000
,
1000
0000
1000
0000
,
0001
0000
0001
0000
,
0100
0000
0100
0010
,
0100
0000
0000
0000
,
0001
0100
0001
0000
,
1000
0100
1000
0000
,
0010
0000
0100
0000
,
0001
0000
1000
0000
,
1001
0000
0000
0000
;

//---------------dance-single - ----------------
#NOTES:
     dance-single:
     :
     Medium:
     7:
     0.509225,0.616503,0.486480,0.035380,0.000000,403.000000,348.000000,55.000000,4.000000,0.000000,0.000000,0.509225,0.616503,0.486480,0.035380,0.000000,403.000000,348.000000,55.000000,4.000000,0.000000,0.000000:
0000
0000
0000
0000
,
0000
0000
0000
0000
,
0000
0000
0000
0000
,
0000
0000
0000
0000
,
1001
0000
1000
0100
1000
0100
0000
0000
,
1001
0000
0001
0100
0001
0100
0001
0000
,
1001
0000
1000
0001
1000
0001
0000
0000
,
0010
0000
0100
0010
0100
0010
0001
0000
,
1000
0100
1000
0100
0010
0000
0011
0000
,
0001
0100
0001
0100
0010
0000
1010
0000
,
1000
0010
1000
0010
0100
0000
0101
0000
,
0001
0010
0001
0010
0100
0000
1100
0000
,
1000
0100
0001
0000
0001
0100
1000
0000
,
1000
0010
0001
0000
0001
0010
1000
0000
,
0100
1000
0100
1000
0001
0100
0001
0100
,
0010
1000
0010
1000
0001
0010
0001
0000
,
1001
0000
0000
0110
,
0101
0000
1010
0000
0010
1000
0100
0000
,
1010
0000
0101
0000
0100
0010
1000
0000
,
1100
0000
0011
0000
0010
0001
0100
0000
,
0011
0000
1100
0000
1000
0010
0100
0000
,
0001
0000
0100
1000
0100
0010
1000
0000
,
1000
0000
0100
0001
0100
0010
0001
0000
,
1000
0000
0100
0010
0001
1000
0010
0000
,
1000
0000
0010
0001
0010
1000
0001
0000
,
0101
0000
1100
0000
1000
0010
0001
0010
,
1000
0000
0011
0000
0001
0100
0010
0000
,
0110
0000
1001
0000
1000
0100
0010
0001
,
1000
0000
0110
0000
1000
0001
0100
0000
,
0001
0010
0100
0010
0001
0100
0010
0000
,
1000
0100
0010
0100
1000
0010
0100
0000
,
0001
0100
0001
0100
0010
1000
0010
1000
,
0001
1000
0001
1000
0010
0000
0110
0000
,
2002
0000
0000
3003
,
1000
0100
1000
0100
1000
0000
0110
0000
,
0001
0100
0001
0100
0001
0000
0110
0000
,
1000
0010
1000
0010
1000
0000
1001
0000
,
0001
0010
0001
0010
0001
0000
1001
0000
,
1000
0100
1000
0100
0010
0000
0001
0010
,
0001
0000
0100
0010
0100
0000
0110
0000
,
0001
0100
0001
0100
0010
0000
1000
0010
,
1000
1100
0011
1001
,
0001
1000
0100
1000
0001
0100
0001
0000
,
1000
0001
0010
0001
1000
0010
1000
0000
,
0100
0010
0001
0100
1000
0100
0001
0000
,
1001
1100
0101
0110
,
1000
0010
1000
0010
0100
0001
0010
0000
,
0001
0010
0001
0010
0100
1000
0010
0000
,
1000
0001
1000
0001
0010
0000
0100
0000
,
2002
0000
3003
0000
,
1000
0000
0100
1000
,
0010
0000
0100
0010
,
1000
0000
0001
0010
,
0100
0000
0110
0000
,
0010
0000
0100
1000
,
0010
0000
0100
0001
,
1000
0000
1100
0000
,
0101
0000
1000
0000
,
0001
0000
0010
0001
,
0100
0000
0010
0100
,
0001
0000
1000
0100
,
0010
0000
0110
0000
,
0100
0000
1000
0001
,
0010
0000
0001
1000
,
0010
0000
1010
0000
,
0011
0000
0001
0000
,
0100
0000
0001
0100
,
0010
0000
1000
0010
,
0100
0000
1000
0100
,
0010
0000
1001
0000
,
1000
0000
0100
1000
,
0010
0100
0001
0000
,
0011
0000
1100
0000
,
1010
0000
0101
0000
,
0010
0000
1000
0010
,
0100
0000
0001
0100
,
0010
0000
0001
0010
,
0100
0000
1001
0000
,
0001
0000
0010
0001
,
0100
0010
1000
0000
,
1100
0000
0011
0000
,
0101
0000
1010
0000
,
1001
0000
0000
0000
;

//---------------dance-single - ----------------
#NOTES:
     dance-single:
     :
     Hard:
     9:
     0.603994,0.906622,0.238818,0.141522,0.314001,478.000000,451.000000,27.000000,16.000000,0.000000,0.000000,0.603994,0.906622,0.238818,0.141522,0.314001,478.000000,451.000000,27.000000,16.000000,0.000000,0.000000:
// measure 0
0000
0000
0000
0000
,  // measure 1
0000
0000
0000
0000
,  // measure 2
0000
0000
0000
0000
,  // measure 3
0000
0000
0000
0000
,  // measure 4
1000
0000
0000
1000
0000
0000
0010
0100
0001
0000
0001
0000
0000
0000
0000
0000
,  // measure 5
0001
0000
0000
0001
0000
0000
1000
0100
0010
0000
0100
0000
1000
0000
0000
0000
,  // measure 6
0100
0000
0000
0100
0000
0000
1000
0001
0010
0000
0001
0000
0000
0000
0000
0000
,  // measure 7
0010
0000
0000
0010
0000
0000
0001
1000
0010
0000
1000
0000
0100
0000
0000
0000
,  // measure 8
1000
0000
0000
1000
0100
0000
0010
0000
0001
0000
0100
0000
0110
0000
0000
0000
,  // measure 9
0100
0000
0000
0100
0001
0000
0010
0000
0100
0000
1000
0000
1001
0000
0000
0000
,  // measure 10
0001
0000
0000
0001
0010
0000
0100
0000
1000
0000
0010
0000
0110
0000
0000
0000
,  // measure 11
0010
0000
0000
0010
1000
0000
0100
1000
0100
0000
0010
0000
0001
0000
0000
0000
,  // measure 12
0100
0000
0000
0100
0000
0000
0001
0100
0010
0000
1000
0000
1000
0001
0010
0000
,  // measure 13
0100
0000
0000
0100
0000
0000
1000
0001
0010
0000
0001
0000
0100
0000
0000
0000
,  // measure 14
0001
0000
0000
0001
1000
0000
0000
1000
0010
0000
0000
0010
0100
0000
0000
0100
,  // measure 15
1000
0100
0001
0010
1000
0001
0100
2000
,  // measure 16
0002
0000
3003
1001
,  // measure 17
0001
0000
0000
0100
0000
0000
0001
0100
0010
0000
0100
0000
0010
0000
0100
0000
,  // measure 18
1000
0000
0000
0100
0000
0000
0001
0100
0010
0000
1000
0000
0100
0000
0000
0000
,  // measure 19
1000
0000
0000
0100
0000
0000
0001
0100
0010
0000
0100
0000
0010
0000
0100
0000
,  // measure 20
0001
0000
0000
0100
0000
0000
1000
0010
0001
0000
0010
0000
0100
0000
0000
0000
,  // measure 21
0001
0000
0000
1000
0000
0000
0100
0000
0010
0001
0010
0000
0100
1000
0100
0000
,  // measure 22
1000
0000
0000
0001
0000
0000
0100
0010
1000
0000
0010
0000
0100
0000
0000
0000
,  // measure 23
0001
0000
0000
0100
0000
0000
0010
0000
1000
0010
0100
0000
0001
0100
0010
0000
,  // measure 24
1000
0000
0000
0001
0000
0000
0001
0000
1000
0000
0000
0000
0110
0000
0000
0000
,  // measure 25
0001
0000
0000
0100
0010
0000
1000
0000
0100
0000
0100
0000
0010
0000
0010
0000
,  // measure 26
0100
0000
0000
1000
0010
0000
0100
0000
0001
0000
0001
0000
1000
0000
0000
0000
,  // measure 27
0100
0000
0000
1000
0010
0000
0100
0000
0001
0000
0001
0000
1000
0000
1000
0000
,  // measure 28
0001
0000
0000
0100
0010
0000
1000
0000
0100
0000
0100
0000
0010
0000
0000
0000
,  // measure 29
0100
1000
0100
1000
0001
0100
0001
0100
,  // measure 30
0010
1000
0010
1000
0001
0010
0001
0010
,  // measure 31
0100
0010
0100
0000
0010
0001
0010
0000
0001
1000
0001
0000
1000
0100
1000
0000
,  // measure 32
0001
1000
0001
1000
0001
1000
0001
1000
0001
0000
1000
0000
0010
0000
0000
0000
,  // measure 33
0220
0000
0000
0330
,  // measure 34
0001
0000
0000
1000
0100
0000
0010
0000
0100
1000
0000
0000
0001
0000
0000
0000
,  // measure 35
1000
0000
0000
0001
0100
0000
0010
0000
0100
0001
0000
0000
1000
0000
0000
0000
,  // measure 36
0100
0000
0000
1000
0010
0000
0100
0000
0010
1000
0000
0000
0100
0000
0000
0000
,  // measure 37
0010
0000
0000
0001
0100
0000
0010
0000
0100
0001
0000
0000
0010
0000
0000
0000
,  // measure 38
0001
0000
0000
1000
0100
0000
1000
0000
0010
0100
0000
0000
0001
0000
0000
0000
,  // measure 39
1000
0000
0000
0001
0010
0000
0001
0000
0100
0010
0000
0000
1000
0000
0000
0000
,  // measure 40
0100
0000
0000
1000
0010
0000
0100
0000
0001
0010
0000
0000
0100
0000
0010
0000
,  // measure 41
0002
2003
3020
0130
,  // measure 42
0001
0100
0000
0001
0100
0000
0010
0000
1000
0000
0010
0000
0110
0000
0000
0000
,  // measure 43
1000
0100
0000
1000
0100
0000
0010
0000
0001
0000
1000
0000
1001
0000
0000
0000
,  // measure 44
1000
0010
0000
1000
0010
0000
0100
0000
0001
0000
0010
0000
0001
0000
0100
0000
,  // measure 45
0202
0303
2020
3030
2200
3300
0022
0033
,  // measure 46
0101
0000
0101
0100
0110
0000
0110
0010
,  // measure 47
1010
0000
1010
1000
1100
0000
1100
0100
,  // measure 48
0010
0001
0100
0001
1000
0010
1000
0001
,  // measure 49
0020
0130
0000
0000
,  // measure 50
0001
0000
0000
0001
0010
0000
0100
0000
,  // measure 51
1000
0000
0000
1000
0100
0000
0010
0000
,  // measure 52
0001
0000
0000
0001
0100
0000
0010
0000
,  // measure 53
1000
0000
1001
0000
,  // measure 54
0100
0000
0000
0100
1000
0000
0001
0000
,  // measure 55
0010
0000
0000
0010
0001
0000
1000
0000
,  // measure 56
0010
1000
0000
0000
0001
0100
0000
0000
,  // measure 57
0010
0100
0000
0000
1001
0000
0000
0000
,  // measure 58
1000
0000
0000
1000
0100
0000
0010
0000
,  // measure 59
0001
0000
0000
0001
0010
0000
0100
0000
,  // measure 60
1000
0000
0000
1000
0010
0000
0100
0000
,  // measure 61
0001
0000
1001
0000
,  // measure 62
0010
0000
0000
0010
0001
0000
1000
0000
,  // measure 63
0100
0000
0000
0100
1000
0000
0001
0000
,  // measure 64
0010
0001
0000
0000
1000
0010
0000
0000
,  // measure 65
0100
0010
0000
0000
1001
0000
0000
0000
,  // measure 66
1000
0000
0000
0100
0001
0000
0100
0000
,  // measure 67
0010
0000
0000
0001
0010
0000
1000
0000
,  // measure 68
0001
0000
0000
0100
1000
0000
0010
0000
,  // measure 69
0100
0000
0110
0000
,  // measure 70
0001
0000
0000
0100
1000
0000
0100
0000
,  // measure 71
0010
0000
0000
1000
0001
0000
0100
0000
,  // measure 72
0001
0100
0000
0000
1000
0100
0000
0000
,  // measure 73
0010
0100
0000
0000
1001
0000
0000
0000
,  // measure 74
0001
0010
1000
0010
,  // measure 75
0001
0100
1000
0100
,  // measure 76
0001
0010
0100
1000
,  // measure 77
0010
0100
0001
1000
,  // measure 78
0010
1000
0010
0000
0100
0001
0100
0000
,  // measure 79
0001
0010
0001
0000
1000
0100
1000
0000
,  // measure 80
0001
1000
0001
1000
0001
1000
0001
1000
,  // measure 81
0001
0100
0010
0000
,  // measure 82
0110
0000
0000
0000
;
