#TITLE:Loveless;
#SUBTITLE:;
#ARTIST:YOSA;
#TITLETRANSLIT:;
#SUBTITLETRANSLIT:;
#ARTISTTRANSLIT:;
#GENRE:;
#CREDIT:;
#BANNER:Loveless.png;
#BACKGROUND:Loveless-bg.png;
#LYRICSPATH:;
#CDTITLE:;
#MUSIC:Loveless.mp3;
#OFFSET:-0.856709;
#SAMPLESTART:78.919998;
#SAMPLELENGTH:12.000000;
#SELECTABLE:YES;
#BPMS:0.000000=123.000000
;
#STOPS:
;
#BGCHANGES:;
#KEYSOUNDS:;
#ATTACKS:;

//---------------dance-single - ----------------
#NOTES:
     dance-single:
     :
     Beginner:
     1:
     0.073220,0.123716,0.000000,0.000000,0.000000,58.000000,0.000000,0.000000,0.000000,0.000000,0.000000,0.073220,0.123716,0.000000,0.000000,0.000000,58.000000,0.000000,0.000000,0.000000,0.000000,0.000000:
0000
0000
0000
0000
,
0000
0000
0000
0000
,
0000
0000
0000
0000
,
0000
0000
0000
0000
,
0001
0000
0000
0000
,
0000
0000
0000
0000
,
1000
0000
0000
0000
,
0000
0000
0000
0000
,
0010
0000
0000
0000
,
0100
0000
0000
0000
,
0010
0000
0000
0000
,
0100
0000
0000
0000
,
0010
0000
0000
0000
,
0100
0000
0000
0000
,
0010
0000
0000
0000
,
0100
0000
0000
0000
,
1000
0000
0000
0000
,
0001
0000
0000
0000
,
1000
0000
0000
0000
,
0001
0000
0000
0000
,
1000
0000
0000
0000
,
0001
0000
0000
0000
,
0010
0000
0000
0000
,
0010
0000
0000
0000
,
0100
0000
0000
0000
,
1000
0000
0000
0000
,
0100
0000
0000
0000
,
0001
0000
0000
0000
,
0010
0000
0000
0000
,
1000
0000
0000
0000
,
0001
0000
0000
0000
,
0100
0000
0000
0000
,
0000
1000
0000
0000
,
0000
0001
0000
0000
,
0000
1000
0000
0000
,
0000
0001
0000
0000
,
0000
0010
0000
0010
,
0000
0010
0000
0010
,
0000
0100
0000
0100
,
0000
0100
0000
0000
,
0001
0000
0001
0000
,
1000
0000
0000
0000
,
1000
0000
1000
0000
,
0001
0000
0000
0000
,
0010
0000
0010
0000
,
0100
0000
0000
0000
,
0100
0000
0100
0000
,
0010
0000
0000
0000
,
1000
0000
0000
0000
,
0100
0000
0000
0000
,
0010
0000
0000
0000
,
0001
0000
0000
0000
,
1000
0000
0000
0000
,
0100
0000
0000
0000
,
0010
0000
0000
0000
,
0001
0000
0000
0000
,
0100
0000
0000
0000
;

//---------------dance-single - ----------------
#NOTES:
     dance-single:
     :
     Easy:
     3:
     0.228497,0.274606,0.256270,0.017674,0.000000,150.000000,29.000000,2.000000,0.000000,0.000000,0.000000,0.228497,0.274606,0.256270,0.017674,0.000000,150.000000,29.000000,2.000000,0.000000,0.000000,0.000000:
0000
0000
0000
0000
,
0000
0000
0000
0000
,
0000
0000
0000
0000
,
0000
0000
0000
0000
,
0000
0100
0000
0100
,
0000
0010
0000
0010
,
1000
1000
1000
0000
,
0001
0000
1000
1001
,
0001
0000
0100
0000
,
1000
0000
0010
0110
,
0010
0000
1000
0000
,
0100
0000
0001
0000
,
1000
0000
0010
0000
,
0100
0000
0001
1001
,
0001
0000
0100
0000
,
0010
0000
1000
1000
,
0100
1100
0000
0101
,
0000
0110
0000
1001
,
0001
1001
0000
1010
,
0000
0110
0000
1001
,
0100
0101
0000
1100
,
0000
0011
0000
0110
,
0001
1001
0000
1010
,
0000
0110
0001
1000
,
0100
1000
1000
0001
,
0001
0010
0010
0110
,
0001
0100
0100
0001
,
0001
1000
1000
0100
,
0010
0001
0001
1000
,
1000
0010
0010
0110
,
0100
0010
0010
0001
,
1000
0000
0001
1001
,
0000
0100
0000
1000
,
0000
0100
0000
1001
,
0000
0100
0000
0001
,
0000
0100
0000
1001
,
0000
0010
0000
1000
,
0000
0010
0000
0110
,
0000
0010
0000
0001
,
1000
1000
0001
0001
,
1000
0100
1000
1000
,
0001
0100
0001
0001
,
1000
0010
1000
1000
,
0001
0010
0001
0001
,
1000
0010
0100
0100
,
0001
0010
0100
0100
,
1000
0100
0001
0001
,
0001
0100
1000
1001
,
0000
1000
0000
0010
,
0000
0001
0000
1001
,
0000
0001
0000
0010
,
0000
1000
0000
1001
,
0100
1000
0000
0001
,
0000
0100
0000
0110
,
0010
1000
0000
0001
,
0000
1000
0000
0010
,
0220
0000
0330
0000
;

//---------------dance-single - ----------------
#NOTES:
     dance-single:
     :
     Hard:
     9:
     0.579447,0.624105,0.318128,0.035348,0.609745,419.000000,36.000000,4.000000,0.000000,0.000000,0.000000,0.579447,0.624105,0.318128,0.035348,0.609745,419.000000,36.000000,4.000000,0.000000,0.000000,0.000000:
// measure 0
0000
0000
0000
0000
,  // measure 1
0000
0000
0000
0000
,  // measure 2
0000
0000
0000
0000
,  // measure 3
0000
0000
0000
0000
,  // measure 4
1200
0000
0000
0000
0000
0000
0001
0000
0000
0300
0000
0000
0000
0000
0000
0000
,  // measure 5
1000
0001
1000
0010
,  // measure 6
0210
1000
0001
0300
,  // measure 7
1000
0000
0000
0000
0001
0000
0000
0000
0010
0100
0010
0100
0010
0100
0010
0100
,  // measure 8
0010
0000
0000
0001
0010
0000
0100
0000
0010
0000
0000
1000
0100
0000
0010
0000
,  // measure 9
0100
0000
0000
0010
0001
0000
0100
0000
0001
0000
1000
0000
1001
0000
0000
0000
,  // measure 10
1010
0000
0000
0001
0100
0000
0010
0000
1000
0000
0000
1000
0100
0000
0010
0000
,  // measure 11
0001
0000
0000
0100
0010
0000
1000
0000
0001
0000
0100
0000
0010
0000
0000
0000
,  // measure 12
0110
0000
0000
0001
1000
0000
0100
0000
1000
0000
0000
1000
0001
0000
0100
0000
,  // measure 13
0001
0000
0000
0010
0100
0000
0010
0000
1000
0000
0001
0000
0101
0000
0000
0000
,  // measure 14
1100
0000
0000
1000
0010
0000
0100
0000
0001
0000
0000
0100
0010
0000
1000
0000
,  // measure 15
0001
0000
0000
0001
0100
0000
1000
0000
0100
0000
1001
0000
1001
0000
0000
0000
,  // measure 16
1000
0000
0001
0100
0001
0000
0100
0000
0010
0000
1000
0100
1000
0000
0001
0000
,  // measure 17
0100
0000
0010
0100
0010
0000
1000
0000
0001
0000
1000
0000
1001
0000
0000
0000
,  // measure 18
0001
0000
0010
0001
0010
0000
0100
0000
1000
0000
0010
1000
0010
0000
0100
0000
,  // measure 19
0001
0000
1000
0001
1000
0000
0010
0000
0100
0000
0001
0000
1000
0000
0000
0000
,  // measure 20
0010
0000
0100
0001
1000
0000
0010
0000
1000
0000
0100
1000
0001
0000
0010
0000
,  // measure 21
0100
0000
1000
0100
0010
0000
0001
0100
0010
0000
0100
0000
0110
0000
0000
0000
,  // measure 22
0001
0000
1000
0010
0100
0000
0001
0000
1000
0000
0001
0010
0100
0000
1000
0000
,  // measure 23
0100
0000
0010
0001
0100
0000
0001
0000
1000
0001
1000
0001
1000
0001
1000
0001
,  // measure 24
1000
0000
0100
0010
0000
0000
0110
0000
0001
0000
1000
0010
0000
0000
0110
0000
,  // measure 25
0100
0000
0001
1000
0000
0000
0110
0000
0010
0000
0001
0100
0000
0000
0000
0000
,  // measure 26
1000
0000
0100
1000
0000
0000
1001
0000
0010
0000
0100
0001
0000
0000
1001
0000
,  // measure 27
0100
0000
0010
1000
0000
0000
1001
0000
0100
0000
0010
0001
0000
0000
0000
0000
,  // measure 28
1000
0000
0001
0010
0000
0010
0001
0000
0100
0000
0010
1000
0000
1000
0010
0000
,  // measure 29
0100
0000
0001
0100
0000
0100
0001
0000
1000
0000
0100
1000
0000
1000
0100
0000
,  // measure 30
0010
0000
0100
0010
0000
0010
0100
0000
0001
0000
1000
0010
0000
0010
0100
0000
,  // measure 31
0001
0000
1000
0100
0000
0100
0010
0000
0001
0000
1001
0000
1001
0000
0000
0000
,  // measure 32
0010
1100
0001
0110
,  // measure 33
1000
0000
0101
0000
0010
1000
1001
0000
,  // measure 34
0100
1010
0001
1100
,  // measure 35
0010
0000
0101
0000
0100
0001
1001
0000
,  // measure 36
1000
0100
1100
0000
0001
0100
0101
0000
,  // measure 37
1000
0010
1010
0000
0001
0010
0011
0000
,  // measure 38
0110
0001
1001
0000
0110
1000
1001
0000
,  // measure 39
0001
0000
0100
0000
1000
0000
0100
0000
0001
1000
0001
1000
0001
1000
0001
1000
,  // measure 40
0001
0000
0100
0000
0010
0100
0000
0010
0000
1000
0000
0100
0000
0000
0010
0000
,  // measure 41
0100
0000
0001
0000
0010
0100
0000
1000
0000
0001
0000
1000
0000
0010
1000
0000
,  // measure 42
0100
0000
0001
0000
0100
0010
0000
1000
0000
0100
0000
0010
0000
0000
0001
0000
,  // measure 43
1000
0000
0010
0000
1000
0001
0000
0010
0000
0100
0000
1000
0000
0001
0100
0000
,  // measure 44
0010
0000
1000
0000
0100
1000
0000
0010
0000
0100
0000
0001
0000
0000
1000
0000
,  // measure 45
0100
0000
0010
0000
0001
0010
0000
0100
0000
1000
0000
0010
0000
1000
0001
0000
,  // measure 46
1000
0000
0010
0000
0100
0001
0000
1000
0000
0100
0000
1000
0000
0000
0001
0000
,  // measure 47
0010
0000
0100
0000
1000
0001
0000
1000
0000
0010
0000
0100
0000
0001
1000
0000
,  // measure 48
0010
0000
1000
0000
0100
1000
0000
0001
0000
0010
0000
0100
0000
1000
0001
0000
,  // measure 49
1000
0000
0010
0000
0100
0001
0000
0100
0000
0010
0000
1000
0000
0100
1000
0000
,  // measure 50
0001
0000
0010
0100
0010
0100
0000
1000
0000
0010
0000
0100
0000
0000
0001
0000
,  // measure 51
0100
0000
0010
0000
1000
0100
0000
0001
0000
0100
0000
0010
0000
1000
0100
0000
,  // measure 52
0010
0000
0001
0100
0001
0100
0000
0010
0000
1000
0000
0001
0000
0100
0010
0000
,  // measure 53
0100
0000
0001
0010
0001
0010
0000
0100
0000
1000
0000
0010
0000
1000
0001
0000
,  // measure 54
1000
0000
0010
1000
0010
1000
0000
0100
0000
1000
0001
0100
0000
0010
0100
0000
,  // measure 55
0001
0000
1000
0100
0010
0001
0000
1000
0000
0010
1000
0001
0000
0000
0100
0000
,  // measure 56
0220
0000
0330
0000
;

//---------------dance-single - ----------------
#NOTES:
     dance-single:
     :
     Medium:
     6:
     0.396398,0.449356,0.353476,0.017674,0.225341,272.000000,40.000000,2.000000,0.000000,0.000000,0.000000,0.396398,0.449356,0.353476,0.017674,0.225341,272.000000,40.000000,2.000000,0.000000,0.000000,0.000000:
// measure 0
0000
0000
0000
0000
,  // measure 1
0000
0000
0000
0000
,  // measure 2
0000
0000
0000
0000
,  // measure 3
0000
0000
0000
0000
,  // measure 4
1001
0000
0000
1001
0000
0000
0000
0000
,  // measure 5
0010
0100
0010
0100
,  // measure 6
0110
0110
0110
0000
,  // measure 7
1000
0000
0000
0000
0001
1000
0001
1000
,  // measure 8
0100
1000
0100
0001
,  // measure 9
0100
0000
1000
0000
0001
1000
1001
0000
,  // measure 10
0010
1000
0010
0001
,  // measure 11
0010
0000
1000
0000
0001
0010
0100
0000
,  // measure 12
1000
0010
0001
0100
,  // measure 13
1000
0000
0010
0000
0001
0100
0101
0000
,  // measure 14
0010
1000
0100
0001
,  // measure 15
0010
0000
1000
0000
0001
1000
1001
0000
,  // measure 16
0010
1100
0001
0101
,  // measure 17
1000
0100
0001
0100
1000
0000
0110
0000
,  // measure 18
0001
0011
1000
1010
,  // measure 19
0001
0010
1000
0010
0001
1000
0001
0000
,  // measure 20
0100
0011
0100
1010
,  // measure 21
0100
0000
0011
0000
1000
0001
1001
0000
,  // measure 22
0010
1100
0010
0101
,  // measure 23
1000
0001
1000
0001
1000
0010
0010
0000
,  // measure 24
0100
0000
0001
0100
1000
0000
1000
0100
,  // measure 25
0001
0000
1000
0001
1000
0000
0110
0000
,  // measure 26
0001
0000
1000
0010
0001
0000
0001
0010
,  // measure 27
1000
0000
0001
1000
0001
0000
1000
0000
,  // measure 28
0100
0000
0000
0101
0000
0000
0001
0000
0100
0000
0000
1100
0000
0000
1000
0000
,  // measure 29
0100
0000
0000
1001
0000
0000
0001
0000
1000
0000
0000
0000
1001
0000
0000
0000
,  // measure 30
0010
0000
0000
1010
0000
0000
1000
0000
0010
0000
0000
0011
0000
0000
0001
0000
,  // measure 31
1000
0100
0010
0001
1000
0001
1001
0000
,  // measure 32
0001
0101
0000
1100
,  // measure 33
0000
0110
0000
1001
,  // measure 34
0000
1010
0000
0011
,  // measure 35
0000
0110
0000
1001
,  // measure 36
0001
0010
0100
1000
,  // measure 37
0001
0010
0100
1000
,  // measure 38
0001
1000
0001
1000
0010
0100
0010
0100
,  // measure 39
0001
0000
1000
0000
0100
0010
0110
0000
,  // measure 40
0001
0000
1000
0000
0100
0000
0000
1000
0000
0001
0000
0100
0000
0000
0010
0000
,  // measure 41
1000
0000
0100
0000
0010
0000
0000
0001
0000
0100
0000
0010
0000
0000
1000
0000
,  // measure 42
0001
0000
0010
0000
0100
0000
0000
1000
0000
0010
0000
0100
0000
0000
0001
0000
,  // measure 43
1000
0000
0100
0000
0001
0000
0000
0001
0000
0100
0000
1000
0000
0000
1001
0000
,  // measure 44
1000
0000
0010
0000
0100
0000
0000
0001
0000
0010
0000
0100
0000
0000
1000
0000
,  // measure 45
0001
0000
0100
0000
1000
0000
0000
1000
0000
0100
0000
0001
0000
0000
1000
0000
,  // measure 46
0010
0000
1000
0000
0100
0000
0000
0010
0000
0001
0000
0100
0000
0000
0010
0000
,  // measure 47
1000
0000
0001
0000
1000
0000
0000
0010
0000
0000
0110
0000
0110
0000
0000
0000
,  // measure 48
0001
0000
0010
0000
0001
0000
0000
0100
0000
0010
0000
0100
0000
0000
0000
0000
,  // measure 49
0010
0000
1000
0000
0010
0000
0000
0100
0000
0010
0000
0100
0000
0000
0000
0000
,  // measure 50
0001
0000
0100
0000
0001
0000
0000
1000
0000
0001
0000
1000
0000
0000
0000
0000
,  // measure 51
1000
0000
0100
0000
1000
0000
0000
0001
0000
1000
0000
0001
0000
0000
0000
0000
,  // measure 52
0010
0000
0100
0000
0010
0000
0000
1000
0000
0010
0000
1000
0000
0000
0000
0000
,  // measure 53
0010
0000
0100
0000
0010
0000
0000
0001
0000
0010
0000
0001
0000
0000
0000
0000
,  // measure 54
0100
0000
0010
0000
1000
0000
0000
0100
0000
0010
0000
0001
0000
0000
0000
0000
,  // measure 55
1000
0000
0001
0000
1000
0000
0000
0001
0000
1000
0000
0001
0000
0000
0100
0000
,  // measure 56
0220
0000
0330
0000
;
