#TITLE:かくしん的☆めたまるふぉ~ぜっ!;
#SUBTITLE:干物妹!うまるちゃん;
#ARTIST:田中あいみ;
#TITLETRANSLIT:Kakushinteki☆Metamaruphose!;
#SUBTITLETRANSLIT:Himouto! Umaru-chan;
#ARTISTTRANSLIT:Aimi Tanaka;
#CREDIT:Lisek;
#BANNER:[Qualifier] - Kakushinteki Metamaruphose.png;
#BACKGROUND:[Qualifier] - Kakushinteki Metamaruphose-bg.png;
#LYRICSPATH:;
#CDTITLE:cdtitle.png;
#MUSIC:[Qualifier] - Kakushinteki Metamaruphose.ogg;
#OFFSET:-1.678;
#SAMPLESTART:59.053;
#SAMPLELENGTH:14.000;
#SELECTABLE:YES;
#BPMS:0.000=138.970,90.000=132.770,112.000=138.970;
#STOPS:88.000=0.216
,88.500=0.216
,89.000=0.216
,89.500=0.216
;
#BGCHANGES:-3.750=[Qualifier] - Kakushinteki Metamaruphose.avi=1.000=1=0=1,
196.000=[Qualifier] - Kakushinteki Metamaruphose-bg.png=1.000=1=0=1,
99999=-nosongbg-=1.000=0=0=0 // don't automatically add -songbackground-
;

//---------------dance-single - Lisek----------------
#NOTES:
     dance-single:
     Lisek:
     Hard:
     8:
     0.512,0.554,0.283,0.079,0.305: // measure 1
0000
0000
0000
0000
,  // measure 2
1000
0000
0001
0000
0100
0100
0100
0000
,  // measure 3
0002
0000
0000
0003
2000
0000
0000
3000
,  // measure 4
0001
0000
1000
0000
0010
0010
0010
0000
,  // measure 5
1010
0000
0110
0000
,  // measure 6
0101
0000
1001
0000
,  // measure 7
1100
0000
0011
0000
,  // measure 8
1001
0000
0110
0000
,  // measure 9
1000
0000
0001
0000
0100
0010
1000
0100
,  // measure 10
0010
0000
0000
0001
0000
0000
1000
0000
0001
0000
0000
0000
1000
0000
0000
0000
,  // measure 11
0001
0010
0100
0010
0002
0000
0000
1000
,  // measure 12
1003
0100
0001
0100
1000
0100
0001
0100
,  // measure 13
1000
0000
0100
0000
0001
0000
0100
0000
1000
0001
0000
0001
1000
0000
0010
0000
,  // measure 14
0100
0001
0100
1000
0100
0001
0100
1000
,  // measure 15
0100
0000
0000
0001
0000
0000
0100
0000
0010
0000
0000
0000
0000
0000
0000
0000
,  // measure 16
1000
0000
0000
0100
0000
0000
0010
0000
0001
0000
0000
0000
0000
0000
0000
0000
,  // measure 17
0100
0000
0000
0010
0000
0000
1000
0000
0001
0000
0000
0000
0000
0000
1000
0000
,  // measure 18
0100
0000
0000
0010
0000
0000
0100
0000
0010
0000
0001
0000
0100
0000
0010
0000
,  // measure 19
1000
0000
0000
0010
0000
0000
0100
0000
0001
0000
0000
0000
0000
0000
1000
0000
,  // measure 20
0001
0000
0000
0010
0000
0000
0001
0000
0100
0000
0000
0000
0000
0000
0010
1000
,  // measure 21
0010
0000
0000
0100
0000
0000
0001
0000
1000
0000
0000
0000
0000
0000
0001
0010
,  // measure 22
0001
0000
0000
0100
0000
0000
0010
0000
1000
0000
0001
0000
1000
0000
0000
0000
,  // measure 23
1001
0000
0000
0110
0000
0000
1001
0000
0000
M00M
0000
0000
1000
0000
0000
0000
0000
0000
0010
0000
0100
0000
0001
0000
,  // measure 24
0010
0000
0100
0000
1000
0000
0001
0010
0100
1000
0001
0100
,  // measure 25
0010
0000
0000
0000
1000
0000
0010
0000
0000
0100
0001
0000
,  // measure 26
0010
0000
0100
0000
1000
0000
0001
0000
0000
1000
0010
0100
,  // measure 27
0001
0000
0000
0000
1000
0100
0010
0000
0000
0001
0010
0000
,  // measure 28
0100
0000
1000
0000
0001
0000
1000
0010
0100
0001
0010
0100
,  // measure 29
1000
0000
0000
0000
0001
0000
0100
0000
0010
0000
0000
1000
0000
0000
0010
0000
,  // measure 30
0100
0000
0001
0000
1000
0000
0100
0000
0010
0000
0000
0001
0000
0000
0100
0000
,  // measure 31
0010
0000
1000
0100
0001
0100
0010
0100
,  // measure 32
1000
0001
0100
0000
0000
0010
0010
0010
,  // measure 33
0010
0000
0000
0000
1000
0100
0010
0001
,  // measure 34
0100
0010
1000
0100
1000
0001
0100
0001
,  // measure 35
0010
0000
0100
1000
0100
1100
0000
0011
,  // measure 36
0000
0101
0000
1010
0010
0100
0001
1000
,  // measure 37
0001
0000
0000
0001
0010
0000
0000
0000
0001
0000
1000
0000
0010
0000
1000
0000
,  // measure 38
0001
0100
0010
0100
0001
1000
0100
1000
,  // measure 39
0010
0000
0100
0001
0010
0011
0000
1100
,  // measure 40
0000
0101
0000
1010
0010
0100
0001
1000
,  // measure 41
0200
0000
0320
0000
0031
0100
0101
0000
,  // measure 42
1000
0000
0010
0000
1010
0000
0000
0000
0001
1000
0010
0100
0001
0000
1000
0000
,  // measure 43
0010
0110
1001
0000
0001
0000
1000
0000
,  // measure 44
0010
0000
0000
0000
0100
0000
0000
0000
0001
0010
0001
0100
0001
0000
0000
0000
,  // measure 45
1000
0010
1000
0100
1000
0000
0000
0000
0001
0000
0100
0000
0010
0000
0100
0000
,  // measure 46
0001
0000
1000
0000
1001
0000
0000
0001
0010
0000
0000
0100
1000
0000
0000
1000
,  // measure 47
0100
0000
0000
0010
0001
0000
0000
0001
0100
0000
0000
0010
1000
0000
0000
1000
,  // measure 48
0010
0000
0000
0100
0001
0000
0000
0000
2002
0000
0000
0000
0000
0000
0000
0000
,  // measure 49
0000
0000
0000
0000
3003
0000
0000
0000
1000
0000
0000
0001
0000
0000
0100
0000
,  // measure 50
0010
0000
0000
0000
;

//---------------dance-single - Lisek----------------
#NOTES:
     dance-single:
     Lisek:
     Medium:
     6:
     0.315,0.332,0.102,0.170,0.057:
0000
0000
0000
0000
,
0000
0000
0000
0000
,
1000
1000
0001
0001
,
0100
0000
0010
0000
0100
0010
0100
0000
,
0002
0000
0023
0000
,
0230
0000
2300
0000
,
3002
0000
0203
0000
,
0320
0000
2030
0000
,
3001
0010
0100
0010
,
0001
0100
0010
1000
,
2002
0000
0000
3003
,
1000
0100
1000
0000
0001
0010
0001
0000
,
1000
0100
1000
0000
0001
0000
1000
0000
,
0001
0100
0001
0000
1000
0010
1000
0000
,
0001
0100
0010
0100
0001
0000
0000
0000
,
0001
0100
0010
0000
,
1000
0010
0100
0000
,
0001
1000
0010
0100
,
0010
1000
0001
0000
,
1000
0100
0010
0000
,
0001
0100
0010
0000
,
1000
0100
0010
0001
,
0100
0010
0110
0000
1000
0000
0000
0000
,
0010
0000
0000
0000
0000
0000
0100
0000
0001
0000
1000
0000
,
0010
0000
1000
0000
,
0001
0000
0000
0000
0000
0000
0100
0000
0010
0000
1000
0000
,
0001
0000
1000
0000
,
0100
0000
0000
0000
0000
0000
0010
0000
0001
0000
1000
0000
,
0001
0000
0001
1000
0100
0000
0010
0000
,
0001
1000
0010
0100
,
0010
0000
1000
0100
0020
0000
0000
0032
,
0000
0000
1003
0010
2000
0000
0000
0000
,
3000
0000
0001
0100
,
0010
0000
0000
0000
0100
0000
0000
0000
0001
0000
0000
1000
0000
0000
0001
0000
,
1000
0000
1010
0000
,
0101
0000
0001
1000
,
0010
0000
0000
0100
0010
0000
0000
0000
1000
0000
0000
0000
0100
0000
0000
0000
,
0010
0000
0000
0000
0100
0000
0000
0000
1000
0000
0000
0001
0000
0000
1000
0000
,
0001
0000
0011
0000
,
1100
0000
1000
0001
,
0100
0010
0110
0000
,
1001
0000
0000
0000
1000
0001
0100
0010
,
0100
0010
0010
0000
1000
0000
0000
0000
,
0001
0000
0100
0100
,
0010
0010
1000
0001
,
1000
0001
1000
0000
0010
0000
0010
0000
,
0100
0100
0001
1000
,
0001
1000
0001
0000
2002
0000
0000
0000
,
0000
0000
3003
0000
0000
0000
0000
0000
1000
0000
0000
0001
0000
0000
1000
0000
,
0010
0000
0000
0000
;

//---------------dance-single - Lisek----------------
#NOTES:
     dance-single:
     Lisek:
     Beginner:
     1:
     0.068,0.105,0.000,0.011,0.000:
0000
0000
0000
0000
,
0000
0000
0000
0000
,
0000
0000
0000
0000
,
0000
0000
0000
0000
,
1000
0000
0000
0000
,
0000
0000
0000
0000
,
0001
0000
0000
0000
,
0000
0000
0000
0000
,
0100
0000
0000
0000
,
0000
0000
0000
0000
,
0010
0000
0000
0000
,
1000
0000
0000
0000
,
0000
0000
0000
0000
,
0001
0000
0000
0000
,
0000
0000
0000
0000
,
1000
0000
0000
0000
,
0100
0000
0000
0000
,
0010
0000
0000
0000
,
0001
0000
0000
0000
,
1000
0000
0000
0000
,
0010
0000
0000
0000
,
0100
0000
0000
0000
,
0002
0003
1000
0000
,
0000
0000
0001
0000
,
0000
0000
1000
0000
,
0000
0000
0001
0000
,
0000
0000
1000
0000
,
0000
0000
0001
0000
,
0000
0000
1000
0000
,
0000
0000
0001
0000
,
0000
0000
0100
0000
,
0000
0000
0010
0000
,
0000
0000
1000
0000
,
0000
0000
0100
0000
,
0000
0000
0010
0000
,
0000
0000
0001
0000
,
0000
0000
1000
0000
,
0000
0000
0010
0000
,
0000
0000
0100
0000
,
0000
0000
0001
0000
,
0000
0000
1000
0000
,
1000
0000
1000
0000
,
0000
0000
0000
0000
,
0000
0000
0001
0000
,
1000
0000
0001
0000
,
0000
0000
1000
0000
,
0001
0000
1000
0000
;

//---------------dance-single - Lisek----------------
#NOTES:
     dance-single:
     Lisek:
     Easy:
     2:
     0.121,0.166,0.000,0.023,0.000:
0000
0000
0000
0000
,
0000
0000
0000
0000
,
1000
0000
0001
0000
,
2000
0000
0000
3000
,
0001
0000
0000
0000
,
1000
0000
0000
0000
,
0010
0000
0000
0000
,
0100
0000
0000
0000
,
0001
0000
0000
0000
,
0010
0000
0000
0000
,
0100
0000
0000
0000
,
1000
0000
0001
0000
,
1000
0000
0000
0000
,
0010
0000
0100
0000
,
0010
0000
0000
0000
,
1000
0000
0000
0000
,
0001
0000
0000
0000
,
0100
0000
0000
0000
,
0010
0000
0000
0000
,
1000
0000
0000
0000
,
0001
0000
0000
0000
,
0100
0000
0000
0000
,
0001
1000
0001
0000
1000
0000
0000
0000
,
0000
0000
0010
0000
,
0000
0000
0100
0000
,
0000
0000
0001
0000
,
0000
0000
1000
0000
,
0000
0000
0001
0000
,
0000
0000
1000
0000
,
0001
0000
0100
0000
,
0010
0000
1000
0000
,
0001
0000
1000
0000
,
0000
0000
0001
0000
,
0100
0000
0001
0000
,
0100
0000
0010
0000
,
0010
0000
1000
0000
,
0001
0000
1000
0000
,
0100
0000
0010
0000
,
0001
0000
1000
0000
,
1000
0000
0001
0000
,
0100
0000
0001
0000
,
1000
0000
0001
1000
,
0001
0000
0100
0000
,
0010
0000
1000
0000
,
1000
0000
0001
0001
,
0001
0000
0100
0000
,
0100
0000
0010
0010
,
0010
0000
0000
0000
,
0000
0000
0200
0000
,
0300
0000
0000
0000
;
