#TITLE:처음만 힘들지;
#SUBTITLE:;
#ARTIST:015B feat. 요조;
#TITLETRANSLIT:It's Only Hard the First Time;
#SUBTITLETRANSLIT:;
#ARTISTTRANSLIT:015B feat. Yozoh;
#GENRE:Chip Tune;
#CREDIT:;
#BANNER:;
#BACKGROUND:bg.png;
#LYRICSPATH:;
#CDTITLE:;
#MUSIC:[Qualifier] - It's Only Hard the First Time.ogg;
#OFFSET:-0.626000;
#SAMPLESTART:21.197001;
#SAMPLELENGTH:13.714287;
#SELECTABLE:YES;
#BPMS:0.000000=140.000000
;
#STOPS:
;
#BGCHANGES:;
#KEYSOUNDS:;
#ATTACKS:;

//---------------dance-single - ----------------
#NOTES:
     dance-single:
     :
     Easy:
     3:
     0.186521,0.224862,0.000000,0.172273,0.000000,144.000000,144.000000,0.000000,19.000000,0.000000,0.000000,0.186521,0.224862,0.000000,0.172273,0.000000,144.000000,144.000000,0.000000,19.000000,0.000000,0.000000:
0000
0000
0000
0000
,
0000
0000
0000
0000
,
0000
0000
0000
0000
,
0000
0000
0000
0000
,
0000
0001
0000
0001
,
0000
1000
0000
1000
,
0000
0001
0000
0001
,
0000
1000
0000
1000
,
0010
0010
0010
0000
,
0100
0100
0100
0000
,
0010
0010
0010
0000
,
1000
1000
1000
0000
,
0001
0001
0001
0000
,
0010
0100
0010
0000
,
0001
0001
0001
0000
,
0010
0100
0010
0000
,
1000
1000
1000
0000
,
0010
0100
0010
0000
,
1000
1000
1000
0000
,
0010
0100
0010
0000
,
1000
0000
1000
0000
,
0001
0100
0001
0100
,
0002
0003
2000
3000
,
0002
0000
0103
0000
,
0020
0030
2000
3000
,
0001
0001
0001
0000
,
0100
0100
0100
0100
,
0100
0000
0000
0000
,
0002
0000
0003
0000
,
0002
0000
0003
0000
,
2000
0000
0000
0000
,
0001
0000
0000
0000
,
3001
0001
0000
0000
,
0000
0000
0000
0000
,
1000
0010
1000
0000
,
1000
0010
0010
0000
,
0100
0010
0100
0000
,
0100
0001
0001
0000
,
0001
0100
0001
0100
,
0002
0003
0200
0300
,
0010
0100
0010
0000
,
0010
1000
1000
0000
,
0002
0003
2000
3000
,
0001
0001
0001
0000
,
2000
3000
0002
0003
,
1000
1000
1000
0000
,
0002
0003
0200
0300
,
0001
0100
0001
0000
,
2000
3000
0020
0030
,
2000
0000
0000
3000
,
0010
0000
0010
0000
0010
0000
0000
1000
,
0000
1000
1000
0000
,
0001
0000
0001
0000
0001
0000
0000
0100
,
0000
0100
0010
0000
,
1000
0000
1000
0000
1000
0000
0000
0010
,
0000
0010
0010
0000
,
0100
0000
0100
0000
0100
0000
0000
0010
,
0000
0010
0100
0000
,
0001
0000
0000
0000
,
1000
0000
0001
0000
,
1000
0000
1000
0000
,
0001
0000
0001
0000
,
0001
0000
0000
0000
;

//---------------dance-single - ----------------
#NOTES:
     dance-single:
     :
     Medium:
     5:
     0.266829,0.340013,0.072536,0.117871,0.000000,206.000000,198.000000,8.000000,13.000000,0.000000,0.000000,0.266829,0.340013,0.072536,0.117871,0.000000,206.000000,198.000000,8.000000,13.000000,0.000000,0.000000:
0000
0000
0000
0000
,
0000
0000
0000
0000
,
0000
0000
0000
0000
,
0000
0000
0000
0000
,
0000
0001
0000
0001
,
0000
1000
0000
1000
,
0000
0001
0000
0001
,
0000
1000
0000
1000
,
0010
0010
0010
0000
,
0100
0100
0100
0000
,
0010
0010
0010
0000
,
1000
1000
1000
0000
,
0001
0000
0001
0010
0001
0000
0000
0000
,
0100
0000
0100
0010
0100
0000
0000
0000
,
0001
0000
0001
0100
0001
0000
0000
0000
,
0100
0000
0010
0100
0010
0000
0000
0000
,
1000
0000
1000
0010
1000
0000
1000
0000
,
0100
0000
0010
0001
0010
0000
0000
0000
,
0001
0000
0001
0010
0001
0000
0000
0000
,
0010
0000
0100
0010
0100
0000
0000
0000
,
1000
0000
0000
0100
1000
0000
0000
1000
,
0001
0100
0001
0000
,
0001
0000
1000
0000
1000
0100
1000
0000
,
0002
0100
2000
3003
,
0010
0000
0000
0100
0010
0000
1000
0000
,
0001
0001
0001
0000
,
0100
0000
0000
0010
0100
0000
0100
0000
,
0200
0000
0000
0300
,
0002
0000
0003
2000
0000
0000
3000
0000
,
0002
0000
0003
2000
0000
0000
3000
0000
,
0001
0010
0100
2000
,
0001
0000
0001
0000
,
3001
0000
0000
0001
0000
0000
0000
0000
,
1000
1000
1000
0000
,
0001
0000
0010
0001
0010
0000
0000
0000
,
0100
0000
0010
0100
0010
0000
0000
0000
,
0100
0000
0010
0001
0010
0000
0000
0000
,
0100
0000
0100
0010
0100
0000
0000
0000
,
1000
0010
0100
0001
,
1000
0000
0001
0010
0001
0000
0000
0000
,
0100
0000
0010
0100
0010
0000
0000
0000
,
0010
0000
1000
0100
1000
0000
0000
0000
,
0001
0000
0000
0001
1000
0000
0000
1000
,
0001
0001
0001
0000
,
1000
0000
0000
1000
0001
0000
0000
0000
,
1000
0000
1000
0100
1000
0000
0000
0000
,
0002
0003
0200
0300
,
0001
0000
0100
0001
0100
0000
0000
0010
,
2000
0000
3000
0100
0010
0000
0010
0000
,
0002
0000
0000
0003
,
1000
0000
0010
0000
1010
0000
0000
0010
,
0000
1000
0010
0000
1010
0000
0000
0000
,
0001
0000
0100
0000
0101
0000
0000
0001
,
0000
0100
0001
0000
0100
0000
0101
0000
,
0010
0000
1000
0000
1010
0000
0000
1000
,
0000
0010
1000
0000
1010
0000
0000
0000
,
0010
0000
0100
0000
0110
0000
0000
0110
,
0000
0010
0100
0010
0100
0000
0100
0000
,
0001
0000
0000
0000
,
1000
0000
0000
1000
0001
0000
0001
0000
,
1000
0000
0100
0000
1000
0000
0000
0001
,
1000
0001
0100
0010
,
2000
0000
3000
0000
;

//---------------dance-single - ----------------
#NOTES:
     dance-single:
     :
     Hard:
     6:
     0.356204,0.425016,0.090670,0.154139,0.000000,275.000000,265.000000,10.000000,17.000000,0.000000,0.000000,0.356204,0.425016,0.090670,0.154139,0.000000,275.000000,265.000000,10.000000,17.000000,0.000000,0.000000:
// measure 0
0000
0000
0000
0000
,  // measure 1
0000
0000
0000
0000
,  // measure 2
0000
0000
0000
0000
,  // measure 3
0000
0000
0000
0000
,  // measure 4
0010
0000
0001
0000
0010
0010
0001
0000
,  // measure 5
0100
0000
0010
0000
0100
0100
0010
0000
,  // measure 6
1000
0000
0010
0000
1000
1000
0010
0000
,  // measure 7
0100
0000
0010
0000
0100
0100
0010
0000
,  // measure 8
0010
1000
0010
1000
0010
0000
0100
0001
,  // measure 9
0100
0000
0010
1000
0010
0000
1010
0000
,  // measure 10
1000
0100
1000
0100
1000
0000
0001
0010
,  // measure 11
0001
0000
0010
0100
0010
0000
0110
0000
,  // measure 12
1000
0000
1000
0100
0010
0000
0000
0100
,  // measure 13
0000
0010
0100
0010
0100
0000
0000
0000
,  // measure 14
1000
0000
1000
0100
0010
0000
0000
0100
,  // measure 15
0000
0100
0010
0100
0010
0000
0000
0000
,  // measure 16
0001
0010
0001
0010
0001
0000
1000
0001
,  // measure 17
1000
0000
0010
0100
0010
0000
0000
0000
,  // measure 18
0010
1000
0010
1000
0010
0000
0000
0100
,  // measure 19
0000
0010
0100
0010
0100
0000
0000
0000
,  // measure 20
0001
0000
1000
0100
0010
0000
0100
1000
,  // measure 21
0001
0000
0100
0010
1000
0000
0000
0000
,  // measure 22
0001
0000
1000
0000
1000
0100
1000
0000
,  // measure 23
0001
0010
0100
0000
2000
0000
3000
0000
,  // measure 24
0010
0000
0000
0100
0010
0000
1000
0000
,  // measure 25
0001
0001
0001
0000
,  // measure 26
1000
0000
0000
0100
0010
0000
0010
0000
,  // measure 27
0002
1000
1000
1003
,  // measure 28
0002
0000
1003
2000
0000
0000
3010
0000
,  // measure 29
0200
0000
0301
0002
0000
0000
1003
0000
,  // measure 30
0002
0023
0230
2300
,  // measure 31
0001
0001
0001
0001
,  // measure 32
3001
0000
1000
0002
0000
0000
0003
0000
,  // measure 33
1000
0000
0001
0010
0100
0000
1000
0000
,  // measure 34
0001
0010
0001
0100
0001
0000
0000
0100
,  // measure 35
0000
0100
0010
1000
0010
0000
0000
0000
,  // measure 36
0100
0010
0100
0001
0100
0000
0000
0010
,  // measure 37
0000
0010
1000
0100
1000
0000
0000
0000
,  // measure 38
1000
0000
0100
0010
0001
0000
1000
0100
,  // measure 39
0001
0000
0001
0100
1000
0000
0000
0000
,  // measure 40
0001
0000
0010
0100
1000
0000
0000
0001
,  // measure 41
0000
1000
0001
0100
0001
0000
0000
0000
,  // measure 42
0001
0000
0001
0010
1000
0000
1000
0010
,  // measure 43
0001
0000
1000
0010
0100
0000
0000
0000
,  // measure 44
0001
0000
0000
1000
0001
0010
0100
0000
,  // measure 45
0010
0000
0100
0010
0100
0000
0000
0000
,  // measure 46
2000
0000
3000
0010
0200
0000
0301
0000
,  // measure 47
0001
0000
0100
0001
0100
0000
0000
0010
,  // measure 48
2000
0000
3000
0001
0100
0000
0010
0000
,  // measure 49
2000
0000
0000
3000
,  // measure 50
1000
0000
0010
0000
1010
0000
0000
0010
,  // measure 51
0000
1000
0010
0100
0010
0000
1010
0000
,  // measure 52
0001
0000
0100
0000
0101
0000
0000
0001
,  // measure 53
0000
0100
0001
0010
0001
0000
0101
0000
,  // measure 54
0010
0000
1000
0000
0110
0000
0000
0001
,  // measure 55
0000
1000
0010
0100
0001
0000
1001
0000
,  // measure 56
0001
0000
0100
0000
1010
0000
0000
0110
,  // measure 57
0000
0001
0100
0010
1000
0000
0001
0000
,  // measure 58
2000
0000
0000
3000
,  // measure 59
1000
0000
0000
1000
0100
0000
0100
0000
,  // measure 60
0010
0000
0010
0000
0001
0000
0000
0001
,  // measure 61
1000
0001
0100
0010
,  // measure 62
2000
0001
3001
0000
;

//---------------dance-single - ----------------
#NOTES:
     dance-single:
     :
     Beginner:
     1:
     0.098442,0.168646,0.072536,0.045335,0.000000,76.000000,68.000000,8.000000,5.000000,0.000000,0.000000,0.098442,0.168646,0.072536,0.045335,0.000000,76.000000,68.000000,8.000000,5.000000,0.000000,0.000000:
0000
0000
0000
0000
,
0000
0000
0000
0000
,
0000
0000
0000
0000
,
0000
0000
0000
0000
,
0001
0000
0000
0000
,
1000
0000
0000
0000
,
0001
0000
0000
0000
,
1000
0000
0000
0000
,
0010
0000
0000
0000
,
0100
0000
0000
0000
,
0010
0000
0000
0000
,
0100
0000
0000
0000
,
0001
0000
0000
0000
,
0100
0000
0100
0000
,
0010
0000
0000
0000
,
1000
0000
1000
0000
,
0001
0000
0000
0000
,
1000
0000
1000
0000
,
0001
0000
0000
0000
,
1000
0000
1000
0000
,
0010
0000
0000
0000
,
0100
0000
0100
0000
,
0002
0000
0000
0000
,
0003
0000
1000
0000
,
1000
0000
0000
0000
,
0001
0000
0000
0000
,
0200
0000
0000
0000
,
0300
0000
0000
0000
,
0001
0000
0000
0000
,
0001
0000
0000
0000
,
2000
0000
0000
0000
,
0000
0000
0000
0000
,
3001
0000
0000
0000
,
0000
0000
0000
0000
,
1000
0000
0000
0000
,
0010
0000
1010
0000
,
0100
0000
0000
0000
,
0001
0000
0101
0000
,
0010
0000
0000
0000
,
0010
0000
0110
0000
,
0100
0000
0000
0000
,
1000
0000
1001
0000
,
0002
0000
0000
0000
,
0003
0000
1000
0000
,
1000
0000
0000
0000
,
0001
0000
0000
0000
,
1000
0000
0000
0000
,
1000
0000
0001
0000
,
0200
0000
0000
0000
,
0300
0000
0000
0000
,
0010
0000
0010
0000
,
0110
0000
0000
0000
,
1000
0000
1000
0000
,
1001
0000
0000
0000
,
0001
0000
0001
0000
,
0101
0000
0000
0000
,
1000
0000
1000
0000
,
1010
0000
0000
0000
,
0000
0000
0000
0000
,
1000
0000
0000
0000
,
0001
0000
0000
0000
,
0100
0000
0000
0000
,
0010
0000
0000
0000
;
