#VERSION:0.82;
#TITLE:Ground Shake;
#SUBTITLE:;
#ARTIST:kors k;
#TITLETRANSLIT:;
#SUBTITLETRANSLIT:;
#ARTISTTRANSLIT:;
#GENRE:;
#ORIGIN:;
#CREDIT:;
#BANNER:[Qualifier] - Ground Shake.png;
#BACKGROUND:[Qualifier] - Ground Shake-bg.png;
#PREVIEWVID:;
#JACKET:[Qualifier] - Ground Shake-jacket.png;
#CDIMAGE:;
#DISCIMAGE:;
#LYRICSPATH:;
#CDTITLE:;
#MUSIC:[Qualifier] - Ground Shake.mp3;
#OFFSET:-0.620000;
#SAMPLESTART:19.759914;
#SAMPLELENGTH:15.000003;
#SELECTABLE:YES;
#BPMS:0.000=200.000,
128.000=100.000,
160.000=200.000;
#STOPS:;
#DELAYS:;
#WARPS:;
#TIMESIGNATURES:0.000=4=4;
#TICKCOUNTS:0.000=4;
#COMBOS:0.000=1;
#SPEEDS:0.000=1.000=0.000=0;
#SCROLLS:0.000=1.000;
#FAKES:;
#LABELS:0.000=Song Start;
#BGCHANGES:;
#KEYSOUNDS:;
#ATTACKS:
;

//---------------dance-single - ----------------
#NOTEDATA:;
#CHARTNAME:;
#STEPSTYPE:dance-single;
#DESCRIPTION:;
#CHARTSTYLE:;
#DIFFICULTY:Hard;
#METER:9;
#RADARVALUES:0.817872,1.000000,0.357261,0.884221,0.250083,502.000000,40.000000,99.000000,0.000000,0.000000,0.000000,0.000000,0.000000,0.817872,1.000000,0.357261,0.884221,0.250083,502.000000,40.000000,99.000000,0.000000,0.000000,0.000000,0.000000,0.000000;
#CREDIT:;
#NOTES:
// measure 0
0000
0000
0000
0000
,  // measure 1
0000
0000
0000
0000
,  // measure 2
0000
0000
0000
0000
,  // measure 3
0000
0000
0000
0000
,  // measure 4
1001
0001
0001
0001
,  // measure 5
0100
0100
0100
0100
,  // measure 6
0010
0010
0010
0010
,  // measure 7
1000
0000
1000
0000
1000
0001
1000
0000
,  // measure 8
0010
0001
0010
0001
0010
0001
0000
1000
,  // measure 9
0010
1000
0010
1000
0000
0000
0001
0010
,  // measure 10
0001
0010
0100
0000
1000
0100
1000
0100
,  // measure 11
0010
0100
0010
0100
0000
0110
0000
0000
,  // measure 12
1001
0000
0010
1000
0010
1000
0000
0001
,  // measure 13
0010
0001
0010
0001
0000
0000
1000
0010
,  // measure 14
1000
0100
0010
0001
1000
0010
0100
0001
,  // measure 15
2000
0000
0000
0000
3200
0000
0000
0000
0320
0000
0031
0010
0001
0000
0000
0000
,  // measure 16
1000
0000
0200
0300
1000
0000
0010
0000
1000
0000
0100
0000
0020
0000
0000
0000
,  // measure 17
0031
0000
0100
0000
0010
0000
1000
0000
1000
0000
0100
0010
0200
0000
2300
0000
,  // measure 18
3001
0000
0010
0001
0101
0000
1020
0000
,  // measure 19
1030
0000
0100
0010
0100
0000
0010
0000
0001
0000
0100
0010
0100
0000
0000
0000
,  // measure 20
1001
0000
2000
3000
0001
0000
0010
0000
0001
0000
0100
0000
0020
0000
0000
0000
,  // measure 21
1030
0000
0100
0000
1000
0000
0010
0000
0010
0000
0100
0000
0001
0000
0100
0001
,  // measure 22
0100
0000
0001
1000
1100
0000
0012
0000
,  // measure 23
1003
0020
0130
0002
2003
3200
0320
0030
,  // measure 24
0110
0000
0200
0300
1000
0000
0010
0000
0001
0000
0010
0000
2000
0000
0000
0000
,  // measure 25
3001
0000
0100
0000
1000
0000
0100
0000
0100
0000
0010
0100
0010
0000
1000
0000
,  // measure 26
0001
0000
0010
0001
0101
0000
2100
0000
,  // measure 27
3001
0010
0010
1000
0200
0000
0320
0030
,  // measure 28
0011
0000
0002
0003
1000
0000
0010
0000
1000
0000
0100
0000
0020
0000
0000
0000
,  // measure 29
0031
0000
1000
0000
0010
0000
0100
0000
0100
0000
0001
0010
0200
0000
2300
0000
,  // measure 30
3001
0011
0000
1000
1010
0000
0210
0000
,  // measure 31
0301
0020
0032
0203
0310
0000
2000
3000
,  // measure 32
0220
0000
0000
0000
0000
0000
0000
0330
0000
0000
0000
0000
0000
0000
0000
0000
,  // measure 33
0002
0000
0013
0000
0200
0310
0200
0310
0001
0001
2000
0000
3020
0000
0130
0000
,  // measure 34
0110
0000
0000
0000
0000
0000
0000
0002
,  // measure 35
2003
0000
3020
0000
0130
0002
0103
0010
2000
0000
0200
3000
0000
0300
0000
0000
,  // measure 36
1001
0000
0000
0000
0000
0000
0000
0000
0200
0000
0000
0000
0300
0000
0000
0000
1001
0000
0000
0000
0000
0000
0000
0000
1000
0100
1000
0100
0010
0001
0010
0001
,  // measure 37
1000
0000
0000
1000
0200
0000
0000
0000
0310
0000
0000
0001
0200
0000
0000
0000
,  // measure 38
0302
0000
0000
0000
0000
0000
0000
0000
0000
0000
0000
0000
1003
0000
0100
0000
0010
0000
0001
0000
0010
0000
0100
0000
1000
0000
0000
0000
0000
0000
0000
0000
0000
1000
0000
0000
0010
0000
0000
0100
0000
0000
0002
0000
0000
0000
0000
0000
,  // measure 39
1003
0000
0000
0000
0000
0000
0000
0000
0000
0000
0000
0000
0000
0000
0000
0000
0000
0000
0000
0000
0000
0000
0000
0000
0100
0000
0000
0000
0000
0000
0000
0000
0000
0000
0000
0000
1000
0000
0000
0000
0000
0000
0000
0000
0000
0000
0000
0000
0010
0000
0000
0000
0000
0000
0000
0000
0000
0000
0000
0000
0000
0000
0000
0000
0010
0000
0000
0000
0000
0000
0000
0000
0000
0000
0000
0000
0000
0000
0000
0000
0010
0000
0000
0000
0000
0000
0000
0000
0000
0000
0000
0000
0000
0000
0000
0000
2000
0000
0000
0000
0000
0000
0000
0000
0000
0000
0000
0000
0000
0000
0000
0000
0000
0000
0000
0000
0000
0000
0000
0000
3001
0000
0000
0000
0000
0000
0010
0000
0000
0000
0000
0000
0001
0000
0000
0000
0000
0000
0010
0000
0000
0000
0000
0000
0200
0000
0000
0000
0000
0000
0000
0000
0000
0000
0000
0000
0000
0000
0000
0000
0000
0000
0000
0000
0000
0000
0000
0000
0310
0000
0000
0000
0000
0000
0000
0000
0000
0000
0000
0000
0000
0000
0000
0000
0000
0000
0000
0000
0000
0000
0000
0000
,  // measure 40
0001
0000
0010
0001
0100
0000
0101
0000
,  // measure 41
1000
0000
0010
1000
0100
0000
1100
0000
,  // measure 42
0001
0000
0010
0100
1000
0000
1001
0000
,  // measure 43
0100
0000
0100
1000
0010
0010
0200
0000
,  // measure 44
0301
0000
0010
0001
0001
0000
0101
0000
,  // measure 45
1000
0000
0100
1000
1000
0000
1100
0000
,  // measure 46
0010
0000
0100
0010
0010
0000
0110
0000
,  // measure 47
2002
0000
0000
3003
,  // measure 48
1000
0002
0203
0320
,  // measure 49
2030
0000
0000
0000
3200
0000
0000
0000
0320
0000
0031
0010
0002
0000
0000
0000
,  // measure 50
1003
0000
0000
0000
0002
0000
0000
0000
0203
0000
0310
0100
0020
0000
0000
0000
,  // measure 51
0230
0000
0302
0000
2003
0000
3200
0300
,  // measure 52
0110
1100
1010
0101
,  // measure 53
0011
0000
0000
0000
1001
0000
0000
0000
1100
0000
0000
1000
0100
0000
0010
0000
,  // measure 54
0001
0000
0100
0001
0100
0000
0001
0000
1001
0000
0000
0000
0110
0000
0000
0000
,  // measure 55
2000
3000
0000
0000
,  // measure 56
1001
0000
0001
0100
0010
1000
0100
0001
,  // measure 57
0100
1000
0010
0100
0001
0010
0002
0000
,  // measure 58
1003
0000
0001
0100
1000
0100
0010
0100
,  // measure 59
0001
0000
0010
0000
0100
0000
1000
0000
0010
0000
0100
0010
0100
0000
0010
0000
,  // measure 60
1000
0000
0001
0010
0100
0001
0100
0010
,  // measure 61
0001
1000
0010
0001
0010
1000
0000
1000
,  // measure 62
0001
0000
0010
0001
0010
0000
0110
0000
,  // measure 63
1000
0000
0100
1000
0010
0000
0000
0000
1000
0000
0000
0000
0001
0000
0010
0001
,  // measure 64
1000
0000
0001
0100
1000
0001
0010
1000
,  // measure 65
0001
0200
0310
2000
3100
0020
0032
0000
,  // measure 66
1003
0000
0001
1000
0010
0001
0010
1000
,  // measure 67
0100
0000
1000
0000
0000
0000
2000
3000
0001
0000
0100
0000
0002
0000
0000
0000
,  // measure 68
1003
0000
0000
0000
0002
0003
1000
0000
0001
0000
0200
0000
0320
0030
2000
0000
,  // measure 69
3100
0000
0020
0032
2003
0000
3020
0000
,  // measure 70
1030
0000
0100
0000
0010
0001
0010
0000
0001
0000
0100
0010
0100
0000
0001
0000
,  // measure 71
1000
0010
0010
0100
0100
0001
2000
0000
,  // measure 72
3001
0010
0001
0000
1000
0000
0001
0000
1000
0000
0000
0000
0010
0000
2000
3000
,  // measure 73
0001
0000
0000
0000
0010
0000
0001
0000
0010
0000
0000
0000
0001
0100
0000
0001
,  // measure 74
0100
0000
0010
0000
1000
0100
1000
0100
2000
0000
0000
0000
3010
0000
0000
0000
,  // measure 75
1000
0000
1000
0000
0100
0000
0100
0000
0010
0000
0001
0010
0002
0000
0000
0000
,  // measure 76
1003
0000
0000
0000
0010
1000
0010
1000
0002
0003
0010
0001
0020
0000
0000
0000
,  // measure 77
0130
1000
0100
1000
0010
0000
0100
0000
0001
0000
0010
0100
0020
0000
0000
0000
,  // measure 78
0031
0000
1000
0000
0010
0100
0010
0100
0001
0000
0000
0000
1001
0000
1000
0100
,  // measure 79
0020
0032
0203
0320
2030
3200
0320
0031
,  // measure 80
2002
0000
0000
0000
,  // measure 81
0000
0000
0000
3003
,  // measure 82
1001
0000
0000
0000
;

//---------------dance-single - ----------------
#NOTEDATA:;
#CHARTNAME:;
#STEPSTYPE:dance-single;
#DESCRIPTION:;
#CHARTSTYLE:;
#DIFFICULTY:Beginner;
#METER:2;
#RADARVALUES:0.216908,0.329573,0.107178,0.089315,0.000000,148.000000,12.000000,10.000000,0.000000,0.000000,0.000000,0.000000,0.000000,0.216908,0.329573,0.107178,0.089315,0.000000,148.000000,12.000000,10.000000,0.000000,0.000000,0.000000,0.000000,0.000000;
#CREDIT:;
#NOTES:
0000
0000
0000
0000
,
0000
0000
0000
0000
,
0000
0000
0000
0000
,
0000
0000
0000
0000
,
1001
0000
0000
0000
,
0000
0000
0000
0000
,
0000
0000
0000
0000
,
0000
0000
0000
0000
,
1001
0000
0000
0000
,
0000
0000
0000
0000
,
0000
0000
0000
0000
,
0000
0000
0000
0000
,
1001
0000
0000
0000
,
0000
0000
0000
0000
,
1000
0000
1000
0000
,
2000
0000
3000
0000
,
0001
0000
0001
0000
,
0010
0000
0010
0000
,
0100
0000
0100
0100
,
0100
0000
0100
0100
,
0100
0000
0100
0000
,
1000
0000
1000
0000
,
0010
0000
0010
0010
,
0020
0000
0030
0000
,
0001
0000
0001
0000
,
1000
0000
1000
0000
,
0010
0000
0010
0010
,
0010
0000
0100
0100
,
0100
0000
0100
0000
,
0010
0000
0010
0000
,
0001
0000
1000
0000
,
0010
0010
0010
0000
,
0220
0000
0330
0000
,
0000
0000
0000
0000
,
0110
0000
0000
0000
,
0000
0000
0000
0000
,
1001
0000
1001
0000
,
1000
0000
0001
0000
,
0110
0000
0110
0000
,
0100
0000
0010
0000
,
1000
0000
1000
1000
,
1000
0000
0100
0100
,
0100
0000
0010
0010
,
0010
0000
0001
0000
,
0001
0000
1000
1000
,
1000
0000
0010
0010
,
0010
0000
0100
0100
,
0200
0000
0300
0000
,
0110
0000
0000
0000
,
0000
0000
0000
0000
,
0000
0000
0000
0000
,
0000
0000
0000
0000
,
1000
1000
1000
0000
,
0001
0001
0001
0000
,
0100
0100
0100
0100
,
0200
0300
0000
0000
,
0001
0000
0010
0000
,
0100
0100
0100
0000
,
1000
0000
0010
0000
,
0100
0100
0100
0000
,
0001
0000
1000
0000
,
0010
0010
0010
0000
,
1000
0000
0001
0000
,
0010
0010
0010
0010
,
0010
0000
0100
0000
,
1000
1000
1000
0000
,
0100
0000
0010
0000
,
0001
0000
0001
0000
,
1000
0000
1000
0000
,
0010
0000
0010
0000
,
0100
0100
0100
0100
,
0100
0000
0000
0000
,
0001
0001
0001
0000
,
1000
1000
1000
0000
,
0010
0010
0010
0000
,
0100
0000
0100
0100
,
0100
0000
0020
0030
,
0010
0000
0002
0003
,
0001
0000
1000
0000
,
0001
0001
0001
0000
,
2002
0000
0000
0000
,
0000
0000
0000
3003
,
1001
0000
0000
0000
;

//---------------dance-single - ----------------
#NOTEDATA:;
#CHARTNAME:;
#STEPSTYPE:dance-single;
#DESCRIPTION:;
#CHARTSTYLE:;
#DIFFICULTY:Easy;
#METER:5;
#RADARVALUES:0.395539,0.659146,0.250083,0.241151,0.000000,255.000000,28.000000,27.000000,0.000000,0.000000,0.000000,0.000000,0.000000,0.395539,0.659146,0.250083,0.241151,0.000000,255.000000,28.000000,27.000000,0.000000,0.000000,0.000000,0.000000,0.000000;
#CREDIT:;
#NOTES:
// measure 0
0000
0000
0000
0000
,  // measure 1
0000
0000
0000
0000
,  // measure 2
0000
0000
0000
0000
,  // measure 3
0000
0000
0000
0000
,  // measure 4
1001
0000
0000
0000
,  // measure 5
0000
0000
0000
0000
,  // measure 6
0000
0000
0000
0000
,  // measure 7
0000
0000
0000
0000
0000
1001
0000
0000
,  // measure 8
1001
0000
0000
0000
,  // measure 9
0000
0000
0000
0000
,  // measure 10
0000
0000
0000
0000
,  // measure 11
0000
0000
0000
0000
0000
0110
0000
0000
,  // measure 12
0110
0000
0000
0000
,  // measure 13
0000
0000
0000
0000
,  // measure 14
1000
0100
0010
0001
,  // measure 15
2000
0000
0000
3000
,  // measure 16
1000
1000
0100
0100
,  // measure 17
0010
0010
0001
0001
,  // measure 18
1000
1000
0010
0100
,  // measure 19
0001
0001
0010
0100
,  // measure 20
1000
1000
0010
0010
,  // measure 21
0100
0100
0001
0001
,  // measure 22
1000
1000
0001
0100
,  // measure 23
0010
0000
0000
0000
,  // measure 24
0110
0100
0010
0010
,  // measure 25
1000
0000
1000
0000
0001
1000
0001
0000
,  // measure 26
0010
0001
0100
0010
,  // measure 27
2000
0000
0001
3001
,  // measure 28
1000
1000
0010
0010
,  // measure 29
0100
0100
0001
0001
,  // measure 30
1000
0001
0000
1000
0001
0000
1000
0000
,  // measure 31
1001
0000
0110
0000
,  // measure 32
2002
0000
3003
0000
,  // measure 33
0000
0000
0000
0000
,  // measure 34
1001
0000
0000
0000
,  // measure 35
0000
0000
0000
0000
,  // measure 36
1000
0200
1300
0020
,  // measure 37
1030
0002
1003
0020
,  // measure 38
0130
0002
0103
0020
,  // measure 39
0130
0002
0013
0100
,  // measure 40
0001
0000
0000
1000
0001
0000
1000
0000
,  // measure 41
0010
0000
0000
0100
0010
0000
0100
0000
,  // measure 42
0001
0000
0000
1000
0001
0000
1000
0000
,  // measure 43
0001
0000
2000
0000
,  // measure 44
3010
0000
0000
1000
0010
0000
1000
0000
,  // measure 45
0001
0000
0000
0010
0001
0000
0010
0000
,  // measure 46
0100
0000
0000
0010
0100
0000
0010
0000
,  // measure 47
0220
0000
0000
0330
,  // measure 48
1001
1000
0100
1000
,  // measure 49
0100
0010
0001
0010
,  // measure 50
0001
0100
0010
0100
,  // measure 51
0001
0010
0100
1000
,  // measure 52
1001
1001
0110
0110
,  // measure 53
1010
1010
0101
0101
,  // measure 54
0011
0011
1100
1100
,  // measure 55
2000
3000
0000
0000
,  // measure 56
1001
0001
0010
0100
,  // measure 57
0010
0001
1000
0001
,  // measure 58
1000
0010
0100
0010
,  // measure 59
1000
0000
0100
0000
0010
0001
0010
0000
,  // measure 60
0001
1000
0010
0100
,  // measure 61
0001
0000
0010
0000
0100
1000
0000
1000
,  // measure 62
0100
0000
0010
0001
0010
0000
0001
0000
,  // measure 63
1000
0010
1000
0000
0001
0000
1000
0001
,  // measure 64
1000
0001
0010
0100
,  // measure 65
1000
0001
0100
0010
,  // measure 66
1000
0100
0010
0001
,  // measure 67
1000
0020
0000
0000
1030
0002
0000
0000
,  // measure 68
1003
0000
0000
0001
1000
0000
0001
0000
,  // measure 69
0100
0000
0000
0010
0200
0000
0300
0000
,  // measure 70
0010
1000
0010
0000
0100
0001
0100
0000
,  // measure 71
1001
0000
0000
0000
,  // measure 72
1000
0100
1000
0100
1000
0000
0100
0000
,  // measure 73
0010
0000
0001
0100
0001
0000
0010
0000
,  // measure 74
0001
0010
0001
0010
0002
0000
1003
0000
,  // measure 75
0020
0100
0100
0130
,  // measure 76
1000
0000
0001
1000
0000
1000
0001
0000
,  // measure 77
0020
0000
0130
0010
0100
0010
0200
0000
,  // measure 78
1300
0100
1000
0000
0001
0100
0001
0000
,  // measure 79
2000
3200
0320
0031
,  // measure 80
2002
0000
0000
0000
,  // measure 81
0000
0000
0000
3003
,  // measure 82
1001
0000
0000
0000
;

//---------------dance-single - ----------------
#NOTEDATA:;
#CHARTNAME:;
#STEPSTYPE:dance-single;
#DESCRIPTION:;
#CHARTSTYLE:;
#DIFFICULTY:Medium;
#METER:7;
#RADARVALUES:0.586929,0.769004,0.312603,0.437645,0.013397,376.000000,35.000000,49.000000,0.000000,0.000000,0.000000,0.000000,0.000000,0.586929,0.769004,0.312603,0.437645,0.013397,376.000000,35.000000,49.000000,0.000000,0.000000,0.000000,0.000000,0.000000;
#CREDIT:;
#NOTES:
// measure 0
0000
0000
0000
0000
,  // measure 1
0000
0000
0000
0000
,  // measure 2
0000
0000
0000
0000
,  // measure 3
0000
0000
0000
0000
,  // measure 4
1001
1000
1000
1000
,  // measure 5
0010
0010
0010
0010
,  // measure 6
0100
0100
0100
0100
,  // measure 7
0001
0000
0001
0000
0001
1000
0001
0000
,  // measure 8
1001
1000
0010
0010
,  // measure 9
0100
0100
0001
0001
,  // measure 10
0010
0010
0100
0100
,  // measure 11
1000
0000
1000
0000
0001
1000
0001
0000
,  // measure 12
1001
1000
0010
0010
,  // measure 13
1000
1000
0100
0100
,  // measure 14
0010
0001
0100
0010
,  // measure 15
2000
3200
0320
0031
,  // measure 16
1000
0010
1000
0100
0010
0000
0110
0000
,  // measure 17
0001
0100
0001
0010
0010
0100
1000
0000
,  // measure 18
0001
0000
1000
0010
1010
0000
0012
0000
,  // measure 19
1003
0010
0100
0001
2000
0000
3002
0000
,  // measure 20
1003
0100
0010
0001
0100
0000
0110
0000
,  // measure 21
0001
0100
0010
1000
1000
0100
0010
0000
,  // measure 22
0001
0000
0100
0010
1010
0000
0012
0000
,  // measure 23
2003
0001
0010
3100
,  // measure 24
0001
0010
0100
0010
0001
0000
1001
0000
,  // measure 25
1000
0010
0100
0001
0001
0010
0100
0000
,  // measure 26
1000
0000
0010
0100
0110
0000
2001
0000
,  // measure 27
3020
0000
2030
3002
,  // measure 28
1003
0001
0010
0100
1000
0000
1001
0000
,  // measure 29
0001
1000
0010
0100
0100
0001
0010
0000
,  // measure 30
1000
0100
0000
0010
0001
0000
1001
0000
,  // measure 31
1000
0010
0100
0001
1000
0000
0001
0000
,  // measure 32
2002
0000
3003
0000
,  // measure 33
0000
0000
0000
0000
,  // measure 34
1001
0000
0000
0000
,  // measure 35
0000
0000
0000
0000
,  // measure 36
1001
0000
0020
0000
1030
0000
0200
0320
,  // measure 37
0031
0000
0000
0001
2000
0000
0000
0000
3010
0000
0000
0010
0200
0000
0000
0000
,  // measure 38
0301
0000
0000
0000
2000
0000
3020
0000
0130
0000
0000
0100
0002
0000
0000
0000
,  // measure 39
1003
0100
0010
0010
0001
0100
0010
0010
,  // measure 40
1000
0000
0000
0100
1000
0000
1100
0000
,  // measure 41
0001
0000
0000
0100
0001
0000
0101
0000
,  // measure 42
1000
0000
0000
0010
1000
0000
1010
0000
,  // measure 43
0001
0000
0010
0001
0200
0000
0310
0000
,  // measure 44
1000
0000
0000
0010
1000
0000
1010
0000
,  // measure 45
0001
0000
0000
0010
0001
0000
0011
0000
,  // measure 46
1000
0000
0000
0001
1000
0000
1001
0000
,  // measure 47
0220
0000
0000
0330
,  // measure 48
1001
2000
3200
0320
,  // measure 49
0032
0000
0203
0000
0310
0100
0020
0000
,  // measure 50
1030
0000
0200
0000
0310
0001
0020
0000
,  // measure 51
0032
0203
0320
1030
,  // measure 52
1001
0011
1100
1001
,  // measure 53
0101
0000
1010
0000
1001
0000
1000
0001
,  // measure 54
0010
0100
1000
0001
0100
0000
0010
0000
,  // measure 55
2000
3000
0000
0000
,  // measure 56
1001
0000
0001
0010
0001
0100
0010
0000
,  // measure 57
1000
0100
0010
0001
1000
0000
0001
0000
,  // measure 58
1000
0000
0010
1000
0100
1000
0010
0000
,  // measure 59
0100
0001
0010
0100
1000
0010
1000
0010
,  // measure 60
0100
0000
0001
0100
0010
1000
0100
0000
,  // measure 61
1000
0001
0010
0001
1000
0100
0000
0100
,  // measure 62
1000
0000
0010
0100
0010
0000
1000
0000
,  // measure 63
0001
0010
0001
0000
1000
0000
0010
1000
,  // measure 64
0010
0000
1000
0100
0010
0001
1000
0000
,  // measure 65
0001
0100
0010
1000
0001
0000
2000
0000
,  // measure 66
3001
0000
0100
0010
1000
0010
0100
0000
,  // measure 67
0001
0010
0000
0100
1000
0100
0020
0000
,  // measure 68
0031
0000
0000
1000
0001
0000
1000
0010
,  // measure 69
0100
0000
0001
0100
0002
0000
2003
0000
,  // measure 70
3010
0100
0010
1000
0100
0010
0001
1000
,  // measure 71
0002
0000
0000
0003
,  // measure 72
1000
0100
0010
0100
1000
0000
0001
0000
,  // measure 73
0010
0000
0001
0100
0010
0000
1000
0100
,  // measure 74
0010
0001
0100
0001
0020
0000
0130
0000
,  // measure 75
2000
0000
3200
0000
0320
0000
0031
0010
,  // measure 76
0001
0000
1000
0010
0100
0001
0010
0000
,  // measure 77
0100
1000
0100
0010
0100
1000
0001
0000
,  // measure 78
1000
0010
0200
0000
0301
0000
0100
0010
,  // measure 79
1000
0100
1000
0010
0100
0001
0010
0000
,  // measure 80
2002
0000
0000
0000
,  // measure 81
0000
0000
0000
3003
,  // measure 82
1001
0000
0000
0000
;
