#VERSION:0.82;
#TITLE:Feels Like Summer;
#SUBTITLE:;
#ARTIST:Samba D;
#TITLETRANSLIT:;
#SUBTITLETRANSLIT:;
#ARTISTTRANSLIT:;
#GENRE:UK Hardcore;
#ORIGIN:;
#CREDIT:darkanine;
#BANNER:Feels Like Summer-bn.png;
#BACKGROUND:Feels Like Summer-bg.png;
#PREVIEWVID:;
#JACKET:Feels Like Summer-jk.png;
#CDIMAGE:;
#DISCIMAGE:;
#LYRICSPATH:;
#CDTITLE:darkanine.png;
#MUSIC:Feels Like Summer.ogg;
#OFFSET:0.000000;
#SAMPLESTART:54.210293;
#SAMPLELENGTH:21.942860;
#SELECTABLE:YES;
#BPMS:0.000=87.500,
48.000=175.000,
176.000=150.000,
240.958=151.563,
242.958=153.125,
244.958=154.688,
246.958=156.250,
248.958=157.813,
250.958=159.375,
252.958=160.938,
254.958=162.500,
256.958=164.063,
258.958=165.625,
260.958=167.188,
262.958=168.750,
264.958=170.313,
266.958=171.875,
268.958=173.250,
270.958=175.000;
#STOPS:;
#DELAYS:;
#WARPS:;
#TIMESIGNATURES:0.000=4=4;
#TICKCOUNTS:0.000=4;
#COMBOS:0.000=1;
#SPEEDS:0.000=1.000=0.000=0;
#SCROLLS:0.000=1.000,
46.250=0.500,
46.313=1.125,
46.500=1.250,
46.750=0.500,
46.813=1.375,
47.000=0.500,
47.063=1.500,
47.125=0.500,
47.188=1.500,
47.250=0.500,
47.313=1.625,
47.500=0.500,
47.563=1.750,
47.750=0.500,
47.813=1.875,
48.000=1.000,
172.500=0.500,
172.625=1.000,
173.500=0.500,
173.625=1.000,
174.000=0.500,
174.125=1.000,
174.250=0.500,
174.375=1.000,
174.500=0.500,
174.625=1.000,
175.000=1.250,
175.125=1.050,
175.250=0.950,
175.375=0.850,
176.000=1.000,
331.958=0.750,
335.958=0.600;
#FAKES:;
#LABELS:0.000=Song Start;
#BGCHANGES:;
#KEYSOUNDS:;
#ATTACKS:
;

//---------------dance-single - ----------------
#NOTEDATA:;
#CHARTNAME:;
#STEPSTYPE:dance-single;
#DESCRIPTION:;
#CHARTSTYLE:;
#DIFFICULTY:Hard;
#METER:10;
#RADARVALUES:0.596338,0.581504,0.512277,0.034613,0.294213,524.000000,74.000000,5.000000,0.000000,0.000000,0.000000,0.000000,0.000000,0.596338,0.581504,0.512277,0.034613,0.294213,524.000000,74.000000,5.000000,0.000000,0.000000,0.000000,0.000000,0.000000;
#CREDIT:;
#NOTES:
0000
0000
0000
0000
,
0000
0000
0000
0000
,
0000
0000
0000
0000
,
0000
0000
0000
0000
,
1000
0000
1010
0000
0000
1000
0101
0100
,
0001
0000
0000
0000
0000
0000
0000
0000
0011
0000
0000
0000
0000
0000
0000
0000
0000
0000
0000
0000
0100
0000
0000
0000
1100
0000
0000
0000
1000
0000
0001
0100
,
0001
0000
1001
0000
0000
0001
0110
0010
,
1000
0000
0000
0000
0000
0000
0000
0000
1100
0000
0000
0000
0000
0000
0000
0000
0000
0000
0000
0000
0010
0000
0000
0000
0101
0000
0000
0000
0001
0000
1000
0010
,
1000
0000
0011
0000
0000
0100
1001
1000
,
0001
0000
0000
0000
0000
0000
0000
0000
1010
0000
0000
0000
0000
0000
0000
0000
0000
0000
0000
0000
0100
0000
0000
0000
0110
0000
0000
0000
0010
0000
1000
0001
,
1000
0000
0100
0000
0000
1000
0010
0010
,
0200
0000
0000
0000
0000
0000
0000
0300
,
1010
0000
0000
0010
1000
0000
0100
0000
0010
0000
0100
0000
1000
0010
0100
0000
,
0001
0000
0000
0001
1000
0000
0010
0000
0100
0000
0010
0000
1000
0100
0010
0000
,
0001
0000
0000
0001
1000
0000
0001
0000
0100
0000
0010
0000
1000
0001
0100
0000
,
0010
0000
0000
0010
1000
0000
0001
0000
0010
0000
0100
0000
0010
0001
1000
0000
,
0001
0000
0000
1000
0100
0000
0010
0000
0100
0000
1000
0000
0001
0100
0010
0000
,
1000
0000
0000
1000
0001
0000
0100
0000
0010
0000
0100
0000
0001
1000
0010
0000
,
0100
0000
0000
0100
0001
0000
1000
0000
0100
0000
0010
0000
0100
1000
0001
0000
,
1001
0000
0000
1010
0000
0000
0110
0000
0000
0000
0101
0000
0000
0000
1001
0000
,
1000
0000
0000
1000
0010
0000
0100
0000
0001
0000
0100
0000
0101
0000
0001
0000
,
0010
0000
0000
0010
0100
0000
1000
0000
0001
0000
1000
0000
1100
0000
0100
0000
,
0010
0000
0000
0010
0001
0000
0100
0000
0010
0000
1000
0000
1001
0000
0001
0000
,
0100
0000
0000
0100
0010
0000
1000
0000
0001
0000
0100
0000
0101
0000
0001
0000
,
1000
0000
0011
0100
0000
0100
1010
0000
,
0001
0000
1100
0010
0000
0010
0101
0000
,
1000
0000
0010
0100
0000
0001
1000
0000
,
0220
0000
0330
1001
,
1000
0000
0010
0000
1010
0000
1000
0000
0001
0100
0001
0000
0011
0000
0000
0000
,
1000
0000
0100
0000
1100
0000
1000
0000
0001
0010
0001
0000
1001
0000
0000
0000
,
0010
0000
1000
0000
1010
0000
0010
0000
0100
0001
0100
0000
0110
0000
0000
0000
,
1000
0000
0001
0000
1001
0000
1000
0000
0100
0010
0100
0000
1100
0000
0000
0000
,
0001
0000
0010
0000
0011
0000
0001
0000
0100
0010
0100
0000
0101
0000
0000
0000
,
1000
0000
0010
0000
1010
0000
1000
0000
0100
0010
0100
0000
1100
0000
0000
0000
,
0010
0000
1000
0000
1001
0000
0001
0000
0010
0100
0010
0000
0011
0000
0000
0000
,
0100
0000
0001
0000
1001
0000
1000
0000
0010
1000
0010
0000
0110
0000
0000
0000
,
1001
0000
1000
0000
0100
0000
0010
0000
0001
0100
0001
0000
0011
0000
0000
0000
,
1000
0000
0010
0000
0110
0000
0100
0000
0001
1000
0001
0000
0101
0000
0000
0000
,
0010
0000
0001
0000
0011
0000
0010
0000
0100
1000
0100
0000
0110
0000
0000
0000
,
1000
0000
0001
0000
0101
0000
0100
0000
0010
1000
0010
0000
0110
0000
0000
0000
,
1000
0100
0010
0001
0000
1000
0001
0000
,
0100
0000
0010
1000
0000
0001
0000
0010
,
0000
0020
0000
0000
0000
0000
0000
0000
,
0130
0000
0000
0000
,
1000
0000
0000
1000
0000
0000
1000
0000
0000
0000
0100
0000
0010
0000
0001
0000
,
0100
0000
0000
0100
0000
0000
0100
0000
0000
0000
0001
0000
0010
0000
0100
0000
,
1000
0000
0000
1000
0000
0000
1000
0000
0000
0000
0010
0000
0100
0000
0001
0000
,
0010
0000
0000
0010
0000
0000
0010
0000
0000
0000
0001
0000
1000
0000
0010
0000
,
0100
0000
0000
0100
0000
0000
0001
0000
0000
0000
1000
0000
0100
0000
0010
0000
,
0001
0000
0000
0001
0000
0000
1000
0000
0000
0000
0001
0000
0100
0000
0010
0000
,
1000
0000
0000
1000
0000
0000
0010
0000
0000
0000
0100
0000
0001
0000
1000
0000
,
0100
0000
0000
0100
0000
0000
0010
0000
0000
0000
0001
0000
1000
0000
0010
0000
,
0100
0000
0000
0100
0001
0000
0000
0000
1000
0000
0010
0000
0110
0000
0000
0000
,
1000
0000
0000
1000
0100
0000
0000
0000
1000
0000
0001
0000
0011
0000
0000
0000
,
0100
0000
0000
0100
1000
0000
0000
0000
0001
0000
1000
0000
1010
0000
0000
0000
,
0001
0000
0000
0001
0010
0000
0000
0000
0100
0000
1000
0000
1001
0000
0000
0000
,
0100
0000
0000
0100
0010
0000
0000
0000
1000
0000
0001
0000
0101
0000
0000
0000
,
1000
0000
0000
1000
0100
0000
0000
0000
1000
0000
0010
0000
0110
0000
0000
0000
,
0001
0000
0000
0001
0100
0000
0000
0000
0010
0000
1000
0000
1001
0000
0000
0000
,
0011
0000
0000
0110
0000
0000
1100
0000
0000
0000
1000
0000
1010
0000
0100
0000
,
1001
0000
0000
0001
0010
0000
0100
0000
1000
0000
0010
0000
0101
0000
0000
0000
,
1000
0000
0000
1000
0100
0000
0010
0000
0001
0000
0100
0000
1010
0000
0000
0000
,
0010
0000
0000
0010
1000
0000
0001
0000
0100
0000
0010
0000
1001
0000
0000
0000
,
1000
0000
0000
1000
0001
0000
0010
0000
0100
0000
1000
0000
0011
0000
0000
0000
,
1000
0000
0000
1000
0010
0000
0100
0000
0001
0000
0010
0000
1100
0000
0000
0000
,
0100
0000
0000
0100
1000
0000
0001
0000
0100
0000
0010
0000
0101
0000
0000
0000
,
1000
0000
0000
0010
0000
0000
0001
0000
0000
0000
1000
0000
0100
0000
0001
0000
,
0020
0000
0000
0030
,
0001
0000
0000
0001
0000
0000
0010
0000
0100
1000
0100
0000
0010
0000
0001
0000
,
1000
0000
0000
1000
0000
0000
0001
0000
0000
0000
0100
0000
0010
0000
1000
0000
,
0100
0000
0000
0100
0000
0000
0010
0000
0001
1000
0001
0000
0010
0000
0100
0000
,
1000
0000
0000
1000
0000
0000
0010
0000
0000
0000
0100
0000
0001
0000
0010
0000
,
0100
0000
0000
0100
0000
0000
1000
0000
0001
0100
0001
0000
0010
0000
0100
0000
,
1000
0000
0000
1000
0000
0000
0001
0000
0000
0000
0010
0000
0100
0000
0010
0000
,
0001
0000
0000
0001
0000
0000
0100
0000
0010
1000
0010
0000
0100
0000
0001
0000
,
0010
0000
0000
0010
0000
0000
0100
0000
0000
0000
0010
0000
0001
0000
1000
0000
,
1001
0000
0000
0001
0000
0000
0100
0000
0010
1000
0001
0000
0010
0000
0100
0000
,
1000
0000
0000
1000
0000
0000
0010
0000
0000
0000
0001
0000
0010
0000
1000
0000
,
0100
0000
0000
0100
0000
0000
0010
0000
0100
1000
0001
0000
0100
0000
0010
0000
,
1000
0000
0000
1000
0000
0000
0100
0000
0000
0000
0001
0000
0100
0000
1000
0000
,
0001
0000
0000
0001
0000
0000
1000
0000
0010
0100
0001
0000
1000
0000
0100
0000
,
0010
0000
0000
0010
0000
0000
0100
0000
1100
0000
0000
0000
0101
0000
0000
0000
,
1000
0000
0100
0000
1000
0010
1000
0010
0100
0000
0001
0000
0010
0001
0010
0001
,
1000
0000
0000
0000
,
0110
0000
0000
0000
;

//---------------dance-single - ----------------
#NOTEDATA:;
#CHARTNAME:;
#STEPSTYPE:dance-single;
#DESCRIPTION:;
#CHARTSTYLE:;
#DIFFICULTY:Medium;
#METER:7;
#RADARVALUES:0.499421,0.436128,0.463819,0.034613,0.048459,433.000000,67.000000,5.000000,0.000000,0.000000,0.000000,0.000000,0.000000,0.499421,0.436128,0.463819,0.034613,0.048459,433.000000,67.000000,5.000000,0.000000,0.000000,0.000000,0.000000,0.000000;
#CREDIT:;
#NOTES:
0000
0000
0000
0000
,
0000
0000
0000
0000
,
0000
0000
0000
0000
,
0000
0000
0000
0000
,
1000
0000
1010
0000
0000
0001
0011
0010
,
0100
0000
0000
0000
1100
0000
0000
0000
0000
0000
0001
0000
0101
0000
0100
0100
,
0010
0000
1010
0000
0000
1000
1001
0001
,
0010
0000
0000
0000
0110
0000
0000
0000
0000
0000
0100
0000
1100
0000
1000
1000
,
0001
0000
0011
0000
0000
1000
1010
0010
,
0100
0000
0000
0000
0101
0000
0000
0000
0000
0000
1000
0000
1100
0000
0100
0100
,
0010
0000
0001
0000
0000
1000
0010
0010
,
0200
0000
0000
0300
,
0010
1000
0100
1000
0001
0100
0010
0000
,
1000
0010
0100
0010
1000
0001
0010
0000
,
0100
1000
0001
1000
0010
0100
0001
0000
,
0010
0100
1000
0100
0010
0001
1000
0000
,
0010
0100
0001
0100
0010
1000
0100
0000
,
1000
0010
0100
0010
1000
0001
0010
0000
,
0001
0100
1000
0100
0001
1000
0100
0000
,
0010
0000
0000
0010
0000
0000
0010
0000
0000
0000
0001
0000
0000
0000
0001
0000
,
0010
0100
1000
0001
0010
0100
0001
0000
,
0100
1000
0010
0100
0001
0100
1000
0000
,
0100
0001
0010
0100
1000
0010
0001
0000
,
0010
1000
0100
0001
0100
1000
0001
0000
,
0010
0001
0100
1000
0100
0001
0010
0000
,
0100
1000
0010
0001
0010
1000
0001
0000
,
1000
0000
0010
0100
0000
0001
1000
0000
,
0200
0000
0000
0310
,
0001
0000
0011
0000
1000
1000
1100
0000
,
0010
0000
1010
0000
0001
0001
0101
0000
,
1000
0000
1100
0000
0001
0001
0011
0000
,
0100
0000
0101
0000
1000
1000
1010
0000
,
0100
0000
0110
0000
0001
0001
1001
0000
,
0010
0000
1010
0000
0001
0001
0101
0000
,
0010
0000
0110
0000
1000
1000
1001
0000
,
0010
0000
0011
0000
1000
1000
1100
0000
,
0001
0000
0101
0000
1000
1000
1010
0000
,
0100
0000
1100
0000
0001
0001
0011
0000
,
0100
0000
0110
0000
1000
1000
1001
0000
,
0100
0000
0101
0000
1000
1000
1010
0000
,
0001
0000
0100
0000
0000
0010
1000
0000
,
0100
0000
0010
0000
0000
0001
0000
0100
,
0000
0200
0000
0000
0000
0000
0000
0000
,
0300
0000
0000
0000
,
1000
0000
0000
1000
0000
0000
1000
0000
0000
0000
0100
0000
1000
0000
0000
0000
,
0001
0000
0000
0001
0000
0000
0001
0000
0000
0000
0010
0000
0001
0000
0000
0000
,
0100
0000
0000
0100
0000
0000
0100
0000
0000
0000
0001
0000
0100
0000
0000
0000
,
0010
0000
0000
0010
0000
0000
0010
0000
0000
0000
1000
0000
0010
0000
0000
0000
,
0100
0000
0000
0100
0000
0000
0100
0000
0000
0000
0010
0000
1000
0000
0000
0000
,
0001
0000
0000
0001
0000
0000
0001
0000
0000
0000
0010
0000
0100
0000
0000
0000
,
1000
0000
0000
1000
0000
0000
1000
0000
0000
0000
0001
0000
0100
0000
0000
0000
,
0010
0000
0000
0010
0000
0000
0010
0000
0000
0000
1000
0000
0001
0000
0000
0000
,
0010
0000
0011
0000
0100
1000
1100
0000
,
0010
0000
1010
0000
0100
0001
0101
0000
,
1000
0000
1100
0000
0001
0010
0011
0000
,
0100
0000
0110
0000
1000
0001
1001
0000
,
0010
0000
1010
0000
0100
0001
0101
0000
,
0010
0000
0011
0000
0100
1000
1100
0000
,
0010
0000
0110
0000
0001
1000
1001
0000
,
0010
0000
0000
0010
0000
0000
0010
0000
0000
0000
1000
0000
0001
0000
1000
0000
,
0100
0000
1100
0000
0001
0100
0101
0000
,
1000
0000
1010
0000
0001
0010
0011
0000
,
1000
0000
1001
0000
0100
0010
0110
0000
,
0001
0000
1001
0000
0010
0100
0110
0000
,
0001
0000
0101
0000
1000
0100
1100
0000
,
0001
0000
0011
0000
1000
0010
1010
0000
,
0001
0000
0000
0001
0000
0000
0001
0000
0000
0000
0100
0000
0010
0000
0000
0000
,
2002
0000
0000
3003
,
1000
0100
0010
0100
1000
0001
0010
0000
,
0001
0100
0010
0100
0001
0010
0100
0000
,
1000
0001
0010
0001
0100
0010
1000
0000
,
0001
0010
0100
0010
0001
1000
0010
0000
,
0100
0001
0010
0001
0100
0010
1000
0000
,
0100
1000
0001
1000
0100
0010
0001
0000
,
0010
0100
1000
0100
0010
0001
1000
0000
,
0010
0100
0001
0100
0010
1000
0100
0000
,
1000
0001
0100
0001
1000
0100
0010
0000
,
0001
1000
0100
1000
0001
0010
0100
0000
,
1000
0100
0001
0100
1000
0001
0010
0000
,
0001
0010
1000
0010
0001
1000
0010
0000
,
0100
0001
0010
0001
1000
0010
0100
0000
,
0001
0010
1100
0101
,
1000
0010
0100
0100
0001
0010
0100
0100
,
0110
0000
0000
0000
,
1001
0000
0000
0000
;

//---------------dance-single - ----------------
#NOTEDATA:;
#CHARTNAME:;
#STEPSTYPE:dance-single;
#DESCRIPTION:;
#CHARTSTYLE:;
#DIFFICULTY:Easy;
#METER:4;
#RADARVALUES:0.330310,0.348902,0.269984,0.027691,0.000000,291.000000,39.000000,4.000000,0.000000,0.000000,0.000000,0.000000,0.000000,0.330310,0.348902,0.269984,0.027691,0.000000,291.000000,39.000000,4.000000,0.000000,0.000000,0.000000,0.000000,0.000000;
#CREDIT:;
#NOTES:
0000
0000
0000
0000
,
0000
0000
0000
0000
,
0000
0000
0000
0000
,
0000
0000
0000
0000
,
1000
0000
0010
0000
0000
0100
0010
0000
,
1000
0000
0001
0000
0000
0010
0001
0000
,
0100
0000
0010
0000
0000
1000
0010
0000
,
0100
0000
0001
0000
0000
0010
0001
0000
,
1001
0000
0100
0000
0000
0010
0100
0000
,
0001
0000
1000
0000
0000
0010
1000
0000
,
0100
0000
0010
0000
0000
0001
1000
0000
,
0020
0000
0000
0030
,
1000
1000
0100
1000
,
0001
0001
0010
0001
,
0100
0100
0001
0100
,
0010
0010
1000
0010
,
0100
0100
0010
0100
,
0001
0001
1000
0001
,
0010
0010
0001
0010
,
0100
0000
0000
0100
0000
0000
0000
0000
,
1001
1000
0010
0100
,
0001
0001
0010
0100
,
1000
1000
0001
0010
,
0100
0100
0010
0001
,
1000
1000
0001
0100
,
0010
0010
1000
0001
,
0010
0010
0100
1000
,
2002
0000
3003
0100
,
1001
0000
0001
0000
0000
1000
0010
0000
,
0100
0000
0001
0000
0000
0100
0010
0000
,
1000
0000
0100
0000
0000
1000
0001
0000
,
0010
0000
0100
0000
0000
0010
0001
0000
,
1000
0000
0010
0000
0000
0100
0010
0000
,
1000
0000
0001
0000
0000
0010
0001
0000
,
0100
0000
0010
0000
0000
1000
0010
0000
,
0100
0000
0001
0000
0000
0010
0001
0000
,
1000
0000
0010
0000
0000
0100
0001
0000
,
0010
0000
0001
0000
0000
1000
0100
0000
,
0010
0000
0100
0000
0000
1000
0001
0000
,
0100
0000
0010
0000
0000
1000
0001
0000
,
1000
0000
0010
0000
0000
0100
0001
0000
,
1000
0100
0000
0010
,
0200
0000
0000
0300
,
1001
0000
0000
0000
,
1000
0000
0000
1000
0000
0000
0010
0000
,
0100
0000
0000
0100
0000
0000
0001
0000
,
0010
0000
0000
0010
0000
0000
0100
0000
,
1000
0000
0000
1000
0000
0000
0001
0000
,
0100
0000
0000
0010
0000
0000
0100
0000
,
0001
0000
0000
1000
0000
0000
0001
0000
,
1000
0000
0000
0100
0000
0000
1000
0000
,
0001
0000
0000
0010
0000
0000
0001
0000
,
1000
1100
0001
0101
,
0010
0110
1000
1001
,
0010
0011
1000
1010
,
0100
0110
0001
1001
,
1000
1100
0010
0110
,
0001
0011
1000
1001
,
0010
1010
0100
0101
,
1001
0000
0000
0110
0000
0000
1001
0000
,
0100
1010
0100
0011
,
1000
0101
0010
1100
,
0001
0110
1000
0110
,
0001
1010
0100
1001
,
0010
1100
0010
0101
,
1000
0011
0100
1010
,
0100
0000
0000
0100
0000
0000
0010
0000
,
1001
0000
0000
0000
,
1000
1000
0100
0010
,
0001
0001
1000
0010
,
0100
0100
0001
1000
,
0010
0010
1000
0100
,
1000
1000
0010
0100
,
0001
0001
1000
0100
,
0010
0010
0001
1000
,
0010
0010
0100
0001
,
1000
1000
0001
0010
,
0100
0100
1000
0010
,
0100
0100
0001
1000
,
0010
0010
0100
0001
,
1000
1000
0100
0010
,
0001
1000
0010
0100
,
0001
0101
1000
1100
,
1001
0000
0000
0000
,
0110
0000
0000
0000
;

//---------------dance-single - ----------------
#NOTEDATA:;
#CHARTNAME:;
#STEPSTYPE:dance-single;
#DESCRIPTION:;
#CHARTSTYLE:;
#DIFFICULTY:Beginner;
#METER:2;
#RADARVALUES:0.151310,0.116301,0.027691,0.020768,0.000000,146.000000,4.000000,3.000000,0.000000,0.000000,0.000000,0.000000,0.000000,0.151310,0.116301,0.027691,0.020768,0.000000,146.000000,4.000000,3.000000,0.000000,0.000000,0.000000,0.000000,0.000000;
#CREDIT:;
#NOTES:
// measure 0
0000
0000
0000
0000
,  // measure 1
0000
0000
0000
0000
,  // measure 2
0000
0000
0000
0000
,  // measure 3
0000
0000
0000
0000
,  // measure 4
1000
0000
0001
0000
,  // measure 5
0100
0000
0010
0000
,  // measure 6
1000
0000
0100
0000
,  // measure 7
0010
0000
0001
0000
,  // measure 8
1000
0000
0010
0000
,  // measure 9
0100
0000
0001
0000
,  // measure 10
1000
0000
0001
0000
,  // measure 11
0020
0000
0030
0000
,  // measure 12
1000
0000
1000
0000
,  // measure 13
0001
0000
0001
0000
,  // measure 14
0100
0000
0100
0000
,  // measure 15
0010
0000
0010
0000
,  // measure 16
1000
0000
1000
0000
,  // measure 17
0100
0000
0100
0000
,  // measure 18
0010
0000
0010
0000
,  // measure 19
0002
0000
0000
0003
,  // measure 20
0100
0000
0100
0000
,  // measure 21
0010
0000
0010
0000
,  // measure 22
1000
0000
1000
0000
,  // measure 23
0001
0000
0001
0000
,  // measure 24
0010
0000
0010
0000
,  // measure 25
0100
0000
0100
0000
,  // measure 26
1000
0000
0000
0000
,  // measure 27
1001
0000
0000
0010
,  // measure 28
0000
1000
0000
1000
,  // measure 29
0000
0001
0000
0001
,  // measure 30
0000
0010
0000
0010
,  // measure 31
0000
0100
0000
0100
,  // measure 32
0000
1000
0000
1000
,  // measure 33
0000
0010
0000
0010
,  // measure 34
0000
0100
0000
0100
,  // measure 35
0000
0001
0000
0001
,  // measure 36
0000
0010
0000
0010
,  // measure 37
0000
0100
0000
0100
,  // measure 38
0000
1000
0000
1000
,  // measure 39
0000
0001
0000
0001
,  // measure 40
0000
0100
0000
0100
,  // measure 41
0000
0010
0000
0010
,  // measure 42
0000
1000
0000
1000
,  // measure 43
0001
0000
0000
0000
,  // measure 44
1000
0000
0000
0000
,  // measure 45
0100
0000
0000
0000
,  // measure 46
0001
0000
0000
0000
,  // measure 47
0010
0000
0000
0000
,  // measure 48
0100
0000
0000
0000
,  // measure 49
1000
0000
0000
0000
,  // measure 50
0010
0000
0000
0000
,  // measure 51
0001
0000
0000
0000
,  // measure 52
1000
0000
1000
0000
,  // measure 53
0100
0000
0100
0000
,  // measure 54
0001
0000
0001
0000
,  // measure 55
0010
0000
0010
0000
,  // measure 56
0100
0000
0100
0000
,  // measure 57
0001
0000
0001
0000
,  // measure 58
0010
0000
0010
0000
,  // measure 59
2000
0000
0000
3000
,  // measure 60
0001
0000
0001
0000
,  // measure 61
0100
0000
0100
0000
,  // measure 62
1000
0000
1000
0000
,  // measure 63
0010
0000
0010
0000
,  // measure 64
0100
0000
0100
0000
,  // measure 65
0001
0000
0001
0000
,  // measure 66
0010
0000
0010
0000
,  // measure 67
1001
0000
0000
0000
,  // measure 68
1000
0000
0001
0000
,  // measure 69
0100
0000
0010
0000
,  // measure 70
1000
0000
0100
0000
,  // measure 71
0001
0000
0010
0000
,  // measure 72
0001
0000
1000
0000
,  // measure 73
0010
0000
0100
0000
,  // measure 74
1000
0000
0010
0000
,  // measure 75
0001
0000
1000
0000
,  // measure 76
0100
0000
0010
0000
,  // measure 77
0001
0000
1000
0000
,  // measure 78
0010
0000
0100
0000
,  // measure 79
1000
0000
0001
0000
,  // measure 80
0010
0000
1000
0000
,  // measure 81
0100
0000
0001
0000
,  // measure 82
0010
0000
0010
0000
,  // measure 83
0110
0000
0000
0000
,  // measure 84
1001
0000
0000
0000
;
