#VERSION:0.83;
#TITLE:Electro Stomp;
#SUBTITLE:;
#ARTIST:Kurt & Boyle;
#TITLETRANSLIT:;
#SUBTITLETRANSLIT:;
#ARTISTTRANSLIT:;
#GENRE:;
#ORIGIN:;
#CREDIT:;
#BANNER:[Qualifier] - Electro Stomp.png; #BACKGROUND[Qualifier] - :Electro Stomp-bg.png;
#PREVIEWVID:;
#JACKET:[Qualifier] - Electro Stomp-jacket.png;
#CDIMAGE:;
#DISCIMAGE:;
#LYRICSPATH:;
#CDTITLE:cdtitle.png;
#MUSIC:[Qualifier] - Electro Stomp.ogg;
#OFFSET:0.000000;
#SAMPLESTART:11.270000;
#SAMPLELENGTH:11.294117;
#SELECTABLE:YES;
#BPMS:0.000=170.000,
28.000=85.000,
30.000=170.000,
43.500=85.000,
44.500=170.000,
56.000=85.000,
58.000=170.000,
71.500=85.000,
72.500=170.000,
84.000=85.000,
86.000=170.000,
114.500=85.000,
115.500=170.000,
127.000=85.000,
129.000=170.000,
157.000=85.000,
158.000=170.000,
171.500=85.000,
172.500=170.000,
186.000=85.000,
187.000=170.000,
200.500=85.000,
201.500=170.000,
215.000=85.000,
216.000=170.000;
#STOPS:37.000=0.176,
51.500=0.176,
65.000=0.176,
79.500=0.176,
89.000=0.088,
89.250=0.088,
100.500=0.176,
108.000=0.176,
122.500=0.176,
136.000=0.176,
142.500=0.529,
165.000=0.176,
179.500=0.176,
194.000=0.176,
208.500=0.176,
219.000=0.088,
219.250=0.088,
230.500=0.176;
#DELAYS:;
#WARPS:;
#TIMESIGNATURES:0.000=4=4;
#TICKCOUNTS:0.000=4;
#COMBOS:0.000=1;
#SPEEDS:0.000=1.000=0.000=0;
#SCROLLS:0.000=1.000;
#FAKES:;
#LABELS:0.000=Song Start;
#BGCHANGES:;
#KEYSOUNDS:;
#ATTACKS:
;

//---------------dance-single - xRGTMx----------------
#NOTEDATA:;
#CHARTNAME:xRGTMx-SH;
#STEPSTYPE:dance-single;
#DESCRIPTION:xRGTMx;
#CHARTSTYLE:;
#DIFFICULTY:Hard;
#METER:9;
#RADARVALUES:0.599775,0.732333,0.805453,0.181227,0.151022,417.000000,337.000000,80.000000,18.000000,0.000000,0.000000,0.000000,0.000000,0.000000,0.599775,0.732333,0.805453,0.181227,0.151022,417.000000,337.000000,80.000000,18.000000,0.000000,0.000000,0.000000,0.000000,0.000000;
#CREDIT:xRGTMx;
#NOTES:
0000
0000
0000
0000
,
0000
0000
0000
0000
,
0000
0000
0000
0000
,
0000
0000
0000
0000
,
1000
0000
0001
0000
1000
0000
0100
1000
,
0001
0100
0001
0100
0010
0000
1001
0000
,
0001
0000
0010
0000
0001
0000
1000
0010
,
0200
1000
0001
0310
1001
0000
1100
0000
,
1001
0000
0001
0100
0001
1000
0100
0010
,
0001
0000
0110
1001
0000
0101
0000
1001
,
0000
1000
0100
1000
0001
0100
0010
2000
,
3100
1001
0000
1010
0000
1001
0000
0001
,
0010
0001
1000
0010
0100
0001
0000
0110
,
1001
0000
0011
0000
1001
0000
1000
0001
,
0020
1000
0001
0130
1001
0000
0011
0000
,
1100
0000
1000
0010
0100
0001
1000
0100
,
0010
0000
0110
1001
0000
1010
0000
0101
,
0000
0001
0100
0010
1000
0001
0010
0200
,
1300
1001
0000
0101
0000
1010
0000
1000
,
0100
0010
0001
1000
0010
0100
0000
0110
,
1001
0000
1100
0000
0011
0000
0001
0010
,
0200
0001
1000
0310
1001
0000
0011
0000
,
0101
0000
0000
0000
0100
0001
1001
0000
0000
0000
1010
0000
0000
0000
1100
0000
,
0000
0110
0000
2001
0000
0010
0000
0010
,
0000
0000
0001
0000
0000
0000
3100
0000
0010
0000
0100
0000
1000
0000
0001
1000
,
0001
1000
0001
0000
1000
0000
0010
0000
0100
0000
0000
0000
0001
0000
1000
0000
,
0000
0100
0000
0000
0010
0000
0001
0000
0100
0000
0001
0000
1000
0000
0000
0000
,
0110
0000
0001
0000
0010
0000
0100
0000
0000
0000
1000
0000
0010
0000
0000
1000
,
0000
1100
0000
0101
0000
2001
3010
1000
,
0100
0000
0001
0000
0000
0000
0100
0000
1000
0000
0000
0001
0000
0000
0100
0000
,
1000
0100
0000
0001
0000
0110
1000
0001
,
1000
0000
0000
0000
0010
0000
0100
0000
0000
0001
0000
0000
2000
0000
3020
0000
,
0230
0301
0011
0000
0100
0000
0011
0000
,
1000
0001
1000
0010
,
0110
1010
0000
0100
0000
1010
0000
0001
,
0000
1000
0000
0001
0000
0110
1000
0100
,
0010
0001
1000
0010
0100
0001
0010
0100
,
1000
0001
0100
0010
1000
0001
0010
0010
,
0001
0000
0001
0000
1000
0000
1000
0000
0010
0000
0010
0000
0100
0001
0100
0001
,
1000
0100
1000
0100
0010
0000
0110
0000
1001
0000
0000
0000
1100
0000
0000
0000
,
0010
0001
0010
0100
0000
0000
1000
0001
0100
0010
0000
0000
,
1000
0000
0100
0000
0010
0000
0001
0000
0000
1001
0000
0000
0000
0000
0000
0101
0000
0000
0000
0000
0000
0010
0000
1000
,
0000
0010
0000
0100
0000
0000
0001
0000
0000
1000
0000
0000
0100
0000
0000
0010
0000
0000
0001
0000
0000
2000
0000
0000
,
3010
0110
0000
1001
0000
1100
0000
0010
,
0001
1000
0010
0001
0010
2000
0000
3001
,
0011
0000
0000
1100
0000
0000
0010
0001
1000
0010
0000
0000
,
0100
0000
0001
0000
1000
0000
0100
0000
0000
0010
0000
0000
0002
0000
0000
1003
0000
0000
1010
0000
0000
0000
0000
0000
,
0101
0000
1010
0000
0001
0010
0100
0010
,
0001
1000
0010
0000
1010
0011
0000
1100
,
0000
0011
0000
1000
0010
0100
0010
1000
,
0100
0020
0130
1001
0000
1100
0000
0101
,
0000
0010
1000
0100
0001
0100
1000
0010
,
0000
0000
0000
0110
0000
0000
1001
0000
0000
0000
0000
0000
0101
0000
0000
0000
0000
0000
1000
0000
0100
0000
0010
0000
,
0100
0000
0000
0000
0000
0000
0010
0000
0001
0000
0100
0000
0010
0000
0000
0000
0000
0000
2000
0000
0000
3001
0000
0000
,
1001
0000
0000
0000
0110
0000
0000
0000
1001
0000
0000
0000
0100
0010
1001
0000
,
0000
1100
0000
0101
0000
0110
0000
1002
,
0000
0100
0000
0100
0000
1000
0000
1003
,
0010
0000
0100
0000
0001
0000
1000
0100
1000
0100
0010
0000
2002
0000
0000
0000
,
0000
0000
0000
0000
,
0000
0000
0000
0000
,
0000
0000
0000
0000
,
0000
0000
0000
0000
,
0000
0000
0000
0000
,
0000
3003
0000
0000
;

//---------------dance-single - xRGTMx----------------
#NOTEDATA:;
#CHARTNAME:xRGTMx-SM;
#STEPSTYPE:dance-single;
#DESCRIPTION:xRGTMx;
#CHARTSTYLE:;
#DIFFICULTY:Medium;
#METER:7;
#RADARVALUES:0.499093,0.573130,0.976612,0.161091,0.000000,347.000000,250.000000,97.000000,16.000000,0.000000,0.000000,0.000000,0.000000,0.000000,0.499093,0.573130,0.976612,0.161091,0.000000,347.000000,250.000000,97.000000,16.000000,0.000000,0.000000,0.000000,0.000000,0.000000;
#CREDIT:xRGTMx;
#NOTES:
0000
0000
0000
0000
,
0000
0000
0000
0000
,
0000
0000
0000
0000
,
0000
0000
0000
0000
,
0001
0010
0001
1000
,
0010
1000
0010
0100
0010
0000
1001
0000
,
1000
0010
1000
0001
,
0020
0000
0000
0130
1001
0000
1100
0000
,
1001
0000
0101
0000
1001
0000
0010
0100
,
0010
0000
0110
1001
0000
0101
0000
1001
,
0000
1100
0000
1001
0000
0010
0100
0020
,
0030
1001
0000
1010
0000
1001
0000
0011
,
0000
1001
0000
0100
0010
0100
0000
0110
,
1001
0011
1001
1010
,
1002
0000
0000
0103
0101
0000
1100
0000
,
1010
0000
0011
0000
0001
0010
0100
0000
,
1001
0000
0110
1100
0000
0101
0000
0011
,
0000
1010
0000
1000
0010
0100
0000
0002
,
1003
1010
0000
0011
0000
0101
0000
1100
,
0000
1001
0000
0001
1000
0100
0000
0010
,
0011
0000
1010
0000
1100
0000
1000
0001
,
0200
0000
0000
0310
0110
0000
0110
0000
,
1001
0000
0000
0110
0000
1001
0000
0110
,
0000
1001
0000
2100
0000
0001
0000
0001
,
0000
3001
0000
1000
0001
1000
0001
0100
,
0010
0100
0010
0000
1000
0000
0001
0000
,
1000
0100
0010
0001
,
0110
1000
0000
0001
0000
1000
0000
0010
,
0000
0100
0000
0001
0000
0020
0100
0130
,
0000
0010
0000
0001
0000
1000
0000
0001
,
0000
0100
0000
0010
0000
1001
1000
0000
,
0010
0001
0100
2000
,
0000
3010
1000
0000
1000
0000
0010
0000
,
0010
1000
1000
0010
,
1001
0001
0000
0001
0000
0010
0000
0010
,
0000
0001
0000
1000
0000
0110
1000
0000
,
1000
0001
0001
1000
,
1000
0000
0001
0000
0001
0000
1000
0100
,
0010
0001
0100
0010
1000
0100
0010
0001
,
0100
0010
2000
3000
1010
0000
0011
0000
,
1100
0101
1010
1100
,
0010
0100
0010
0011
0000
1010
0000
0101
,
0000
1001
0000
1000
0001
1000
0000
0020
,
0030
0110
0000
1001
0000
1100
0000
0101
,
0000
0110
0000
1001
0000
0001
1000
0001
,
0101
1100
1010
0101
,
1100
0000
0011
0000
0002
0003
0010
0000
,
0001
0100
1000
0010
,
0001
1000
0010
0000
1001
0110
0000
1010
,
0000
0011
0000
1100
0000
0101
0000
1001
,
0000
2000
3000
0010
0000
1000
0000
0100
,
0000
0001
0000
0010
0000
1000
0001
0010
,
0000
1001
0110
0000
0011
0000
1010
0000
,
0101
0000
1100
0000
1001
0000
0002
0003
,
0011
0000
1010
0000
0011
0000
0000
1100
,
0000
0101
0000
1100
0000
1001
0000
0002
,
0000
1000
0000
1000
0000
1003
0000
0001
,
0010
0100
1000
0001
1000
0010
2002
0000
,
0000
0000
0000
0000
,
0000
0000
0000
0000
,
0000
0000
0000
0000
,
0000
0000
0000
0000
,
0000
0000
0000
0000
,
0000
3003
0000
0000
;

//---------------dance-single - xRGTMx----------------
#NOTEDATA:;
#CHARTNAME:xRGTMx-SE;
#STEPSTYPE:dance-single;
#DESCRIPTION:xRGTMx;
#CHARTSTYLE:;
#DIFFICULTY:Easy;
#METER:5;
#RADARVALUES:0.326496,0.436077,0.453067,0.120818,0.000000,227.000000,182.000000,45.000000,12.000000,0.000000,0.000000,0.000000,0.000000,0.000000,0.326496,0.436077,0.453067,0.120818,0.000000,227.000000,182.000000,45.000000,12.000000,0.000000,0.000000,0.000000,0.000000,0.000000;
#CREDIT:xRGTMx;
#NOTES:
0000
0000
0000
0000
,
0000
0000
0000
0000
,
0000
0000
0000
0000
,
0000
0000
0000
0000
,
1000
0100
1000
0001
,
0100
0100
0010
0000
,
1000
0010
1000
0001
,
0020
0000
0000
0030
0010
0000
0000
0000
,
0001
1000
0010
0100
,
0010
0000
1001
0000
0000
1000
0000
0100
,
0000
0010
0000
0001
0000
1000
0000
0020
,
0000
0130
0000
0000
0000
0010
0000
1000
,
0000
0001
0000
0010
0000
0010
0000
1001
,
0000
0001
1000
0001
,
0200
0000
0000
0300
0010
0000
0000
0000
,
1000
0100
0010
0001
,
0100
0000
1001
0000
0000
0001
0000
0100
,
0000
0010
0000
1000
0000
0100
0000
0020
,
0000
0130
0000
0000
0000
0010
0000
0001
,
0000
1000
0000
0001
0000
0100
0000
1001
,
0000
0001
1000
0010
,
0200
0000
0310
0010
,
0010
0000
0000
0010
0000
0010
0000
0010
,
0000
0010
0000
1001
0000
0100
0000
0100
,
0000
0100
0000
0010
0000
0010
0000
0010
,
0000
1001
0000
0000
1000
0000
0000
0000
,
1000
0001
0000
0001
,
0110
0000
0000
0001
0000
0000
0000
1000
,
0000
0100
0000
0100
0000
0020
0000
0030
,
0000
0001
0000
0000
0000
0001
0000
1000
,
0000
0000
0000
1000
0000
0110
0000
0000
,
0001
0000
1000
0200
,
0000
0300
0010
0000
0000
0000
0010
0000
,
0000
0010
0000
0010
,
1001
0000
0000
0100
0000
0000
0000
0100
,
0000
0000
0000
0100
0000
1001
0000
0000
,
1000
0010
1000
0100
,
0010
0001
0100
0010
,
0010
0010
0010
0110
,
0110
1001
1100
0001
,
1100
0000
0101
1000
,
0101
0000
0110
0000
0000
1010
0000
0001
,
0000
1010
0000
0110
0000
0110
0000
1001
,
0000
0000
0000
0011
0000
1000
0000
0101
,
0000
0000
0000
0011
0000
1000
0000
0110
,
0000
1100
0001
0101
,
1001
0000
0110
0000
2002
3003
0000
0000
,
1000
0001
0010
0001
,
0100
0000
0010
0000
1001
0000
0000
1010
,
0000
0001
0000
1100
0000
0011
0000
0110
,
0000
1001
0000
0001
0000
0000
0000
0010
,
0000
0100
0000
1000
0000
0001
0000
0100
,
0000
1001
0000
0000
1010
0000
0100
0000
,
0011
1100
0010
0201
,
0310
0000
0010
0000
0010
0000
0000
0010
,
0000
0010
0000
0010
0000
0010
0000
1001
,
0000
0100
0000
0100
0000
0100
0000
0010
,
0000
0001
0000
1000
0000
0220
0330
0000
;

//---------------dance-single - xRGTMx----------------
#NOTEDATA:;
#CHARTNAME:xRGTMx-SN;
#STEPSTYPE:dance-single;
#DESCRIPTION:xRGTMx;
#CHARTSTYLE:;
#DIFFICULTY:Beginner;
#METER:2;
#RADARVALUES:0.165406,0.203062,0.040273,0.000000,0.000000,115.000000,111.000000,4.000000,0.000000,0.000000,0.000000,0.000000,0.000000,0.000000,0.165406,0.203062,0.040273,0.000000,0.000000,115.000000,111.000000,4.000000,0.000000,0.000000,0.000000,0.000000,0.000000,0.000000;
#CREDIT:xRGTMx;
#NOTES:
// measure 0
0000
0000
0000
0000
,  // measure 1
0000
0000
0000
0000
,  // measure 2
0000
0000
0000
0000
,  // measure 3
0000
0000
0000
0000
,  // measure 4
1000
0000
1000
0000
,  // measure 5
1000
0000
0000
0000
,  // measure 6
0001
0000
0001
0000
,  // measure 7
0001
0000
0100
0000
,  // measure 8
0100
0000
0010
0010
,  // measure 9
0010
0000
0000
0000
0000
1000
0000
0000
,  // measure 10
0000
1000
0000
0000
0000
0001
0000
0001
,  // measure 11
0000
0000
0000
0010
0000
0000
0000
0010
,  // measure 12
0000
0000
0000
0100
0000
0100
0000
0100
,  // measure 13
0000
1000
0000
1000
,  // measure 14
1000
0000
0001
0000
,  // measure 15
1000
0000
0001
0000
,  // measure 16
0100
0000
0100
0000
0000
0010
0000
0000
,  // measure 17
0000
0100
0000
0000
0000
0010
0000
0010
,  // measure 18
0000
0000
0000
1000
0000
0000
0000
0001
,  // measure 19
0000
0000
0000
1000
0000
0000
0000
0010
,  // measure 20
0000
0100
0000
0010
,  // measure 21
0010
0000
0100
0100
,  // measure 22
0100
0000
0000
0000
0000
0100
0000
0100
,  // measure 23
0000
0100
0000
0100
0000
0000
0000
0000
,  // measure 24
0000
0000
0000
0010
0000
0000
0000
1001
,  // measure 25
0000
0000
1000
0000
,  // measure 26
0001
0000
1000
0000
,  // measure 27
0000
0000
0000
0010
0000
0000
0000
0100
,  // measure 28
0000
0000
0000
0010
0000
0000
0000
0000
,  // measure 29
0000
0001
0000
0000
0000
1000
0000
0000
,  // measure 30
0000
0001
0000
0000
0000
0000
0000
0000
,  // measure 31
0100
0000
0010
0010
,  // measure 32
0000
0100
0000
0000
,  // measure 33
0000
0001
0000
0000
,  // measure 34
1001
0000
0000
0000
0000
1000
0000
0000
,  // measure 35
0000
0000
0000
0000
0000
0110
0000
0000
,  // measure 36
0001
0000
0001
0000
,  // measure 37
0010
0000
0010
0000
,  // measure 38
0100
0000
0100
0000
,  // measure 39
1000
1000
0000
0000
,  // measure 40
0010
0000
0010
0000
,  // measure 41
0010
0000
0010
0000
0000
0100
0000
0000
,  // measure 42
0000
0100
0000
0000
0000
0100
0000
0100
,  // measure 43
0000
0000
0000
0001
0000
0000
0000
0001
,  // measure 44
0000
0000
0000
0001
0000
0000
0000
0001
,  // measure 45
0000
0000
1000
0000
,  // measure 46
1000
0000
1000
0000
,  // measure 47
0000
0010
0000
0100
,  // measure 48
0000
0000
0010
0000
0000
0000
0000
1000
,  // measure 49
0000
0000
0000
0100
0000
0000
0000
0010
,  // measure 50
0000
0010
0000
0000
0000
0001
0000
0000
,  // measure 51
0000
0010
0000
0000
0000
0100
0000
0000
,  // measure 52
0000
1000
0000
0000
0001
0000
0000
0000
,  // measure 53
0000
0001
0000
0000
,  // measure 54
0100
0100
0100
0000
,  // measure 55
0000
0100
0000
0100
0000
0100
0000
0100
,  // measure 56
0000
0000
0000
0000
0000
0000
0000
0010
,  // measure 57
0000
0010
0000
0000
0000
1001
0000
0000
;
