#VERSION:0.83;
#TITLE:CAND¥¥¥LAND;
#SUBTITLE:(feat. LIZ);
#ARTIST:tofubeats;
#TITLETRANSLIT:;
#SUBTITLETRANSLIT:;
#ARTISTTRANSLIT:;
#GENRE:;
#ORIGIN:;
#CREDIT:;
#BANNER:[Qualifier] - CANDYYYLAND (feat. LIZ).png;
#BACKGROUND:[Qualifier] - CANDYYYLAND (feat. LIZ)-bg.png;
#PREVIEWVID:;
#JACKET:[Qualifier] - CANDYYYLAND (feat. LIZ)-jacket.png;
#CDIMAGE:;
#DISCIMAGE:;
#LYRICSPATH:;
#CDTITLE:cdtitle.png;
#MUSIC:[Qualifier] - CANDYYYLAND (feat. LIZ).ogg;
#OFFSET:-0.460339;
#SAMPLESTART:24.429960;
#SAMPLELENGTH:12.000074;
#SELECTABLE:YES;
#DISPLAYBPM:160.000000;
#BPMS:0.000=159.988,
192.000=79.994,
208.000=159.988;
#STOPS:;
#DELAYS:;
#WARPS:;
#TIMESIGNATURES:0.000=4=4;
#TICKCOUNTS:0.000=4;
#COMBOS:0.000=1;
#SPEEDS:0.000=1.000=0.000=0;
#SCROLLS:0.000=1.000;
#FAKES:;
#LABELS:0.000=Song Start;
#BGCHANGES:;
#KEYSOUNDS:;
#ATTACKS:
;

//---------------dance-single - ----------------
#NOTEDATA:;
#CHARTNAME:;
#STEPSTYPE:dance-single;
#DESCRIPTION:;
#CHARTSTYLE:;
#DIFFICULTY:Hard;
#METER:9;
#RADARVALUES:0.620875,0.805767,0.405835,0.309911,0.383699,589.000000,534.000000,55.000000,42.000000,0.000000,0.000000,0.000000,0.000000,0.000000,0.620875,0.805767,0.405835,0.309911,0.383699,589.000000,534.000000,55.000000,42.000000,0.000000,0.000000,0.000000,0.000000,0.000000;
#CREDIT:;
#DISPLAYBPM:160.000000;
#NOTES:
0000
0000
0000
0000
,
0000
0000
0000
0000
,
0000
0000
0000
0000
,
0000
0000
0000
0000
,
0002
0000
0203
0000
,
0320
0000
2030
0000
,
3002
0000
0023
0000
,
0130
0100
0200
0300
,
2100
0001
0100
3010
,
0102
0010
0100
1003
,
1020
0130
0210
0301
,
1002
0010
0100
1003
,
0001
0100
1000
0100
,
0001
0100
1000
0100
,
0001
0010
1000
0010
,
0001
0000
1000
0010
0100
0000
0001
1000
0100
0000
0100
0000
0010
0001
1000
0010
,
0100
0110
0102
1003
,
0001
0000
1000
0000
0000
0000
1001
0000
0000
0000
0001
0000
0000
0010
0100
1000
,
0001
0000
0011
0000
0001
0010
0001
0000
,
1000
0000
1010
0000
1000
0010
1000
0000
,
1010
0000
0000
0000
1001
0000
0000
0000
0102
0000
0000
0000
1000
0003
0000
0000
,
0001
0000
0010
0000
0000
0000
0011
0000
0000
0000
0001
0000
0000
0010
0100
1000
,
0100
0000
1100
0000
1000
0001
0100
0000
,
0010
0100
0000
0001
1000
0000
1001
0000
,
0001
0010
0100
1000
0001
0000
0100
0010
1000
0000
1000
0000
2000
0000
0000
0000
,
3010
1000
0010
1000
0001
1000
0001
1000
0002
0000
0013
0000
0200
0000
1300
0000
,
0001
0100
0010
1000
0001
0000
1000
0001
0010
0000
0010
0000
0010
0000
0100
1000
,
0001
0100
0001
0100
0010
1000
0010
1000
0002
0000
1003
0000
2000
0000
3001
0000
,
1000
0100
1000
0001
1000
0000
0001
1000
0010
0000
0010
0000
0010
0000
0100
0010
,
0100
0001
0100
0001
1000
0001
1000
0001
0020
0000
0130
0000
2000
0000
3001
0000
,
1000
0010
1000
0001
1000
0000
0100
0010
0001
0000
0001
0000
0001
0000
0010
0001
,
1000
0010
1000
0010
1000
0001
1000
0001
0010
0000
0100
1000
0001
0000
0000
0000
,
0101
1001
0101
1001
,
1100
1001
1100
1001
,
0011
0101
0011
1001
,
1010
1100
1010
1001
,
0001
0100
0010
0100
1000
0100
0010
0100
,
0001
0010
0100
0010
1000
0010
0100
0010
,
0011
0000
0110
0000
1100
0000
1010
0000
0110
0000
0101
0000
,
0001
0100
0010
1000
0001
0010
0100
1000
0001
0010
0000
0000
,
0110
0000
0000
0000
0100
0000
1000
0001
0100
0000
0000
0000
0001
0000
0100
0000
,
0010
0000
0010
0000
1000
0000
0001
1000
0001
0000
0001
0000
2000
0000
0000
0000
,
3001
0000
0000
0000
0010
0000
0100
1000
0010
0000
0010
0000
0100
0000
0100
0000
,
0001
0100
0010
1000
0001
0000
0101
0000
,
0110
0000
0000
0000
0010
0000
1000
0001
0010
0000
0000
0000
0001
0000
0010
0000
,
0100
0000
0100
0000
1000
0000
0001
0100
0010
0000
0010
0000
1000
0000
0000
0000
,
1010
0000
1001
0000
0001
0010
0100
0000
,
0110
0110
0000
1100
0000
0101
0000
0000
,
2002
0000
0000
0000
,
0000
0000
0000
0000
,
0000
0000
0000
0000
,
0000
0000
0000
0000
0000
0000
3003
0000
0000
0000
0000
1000
0010
0100
0001
1000
,
1001
0001
1001
1000
,
1100
0110
0011
1001
,
1000
0010
0001
1000
0100
0001
2000
0000
,
3100
0001
1000
0010
0001
0000
1001
0000
,
1000
1000
0010
0010
0001
0001
0010
0010
,
1000
1000
0100
0100
0001
0001
0100
0100
,
1000
0100
1000
0001
1000
0001
0100
0001
0100
0010
0100
0010
,
1000
0000
1000
0000
0000
0000
0010
0000
1000
0001
0010
0100
2000
0000
0000
0000
,
3001
0010
0100
0010
0001
0000
1000
0010
0100
0000
0100
0000
0020
0000
0000
0000
,
1030
0010
0100
0001
1000
0100
0010
0001
2000
0000
3010
0000
0002
0000
0013
0000
,
1000
0010
0100
0010
1000
0000
0010
1000
0001
0000
0001
0000
1000
0000
0001
1000
,
0001
0010
0100
1000
0001
0100
0010
1000
0002
0000
0103
0000
2000
0000
3100
0000
,
0001
0100
0001
0010
0001
0000
1000
0001
0010
0000
0010
0000
0100
0000
1000
0001
,
1000
0010
0100
0001
1000
0010
0100
0001
2000
0000
3100
0000
0002
0000
0103
0000
,
1000
0010
1000
0100
1000
0000
0010
1000
0001
0000
0001
0000
1000
0000
0001
1000
,
0001
0010
0100
1000
0001
0010
0100
1000
0002
0000
0013
0000
2000
0000
3010
0000
,
0001
0100
1000
0001
,
0010
0000
1000
0000
0001
0000
1000
0001
,
1000
0000
0100
0000
0001
1000
0010
0000
,
0001
0000
1000
0100
0010
0001
1000
0000
,
1000
0010
0001
1000
,
0100
0000
0001
0000
1000
0000
0001
1000
,
0001
0000
0100
0000
1000
0001
0010
0000
,
1000
0000
0000
0000
0000
0000
0001
0000
0000
0010
0000
0000
0100
0000
0000
0000
1000
0000
0000
0000
0001
0000
0000
0000
,
0100
0000
0000
0000
0010
0000
1000
0000
0001
0000
1000
0100
0010
0000
0010
0000
,
0002
0000
0203
0000
0310
0010
0020
0000
,
1030
0000
0001
0010
1000
0001
1000
0010
,
0001
1000
0002
0000
2003
0000
3200
0000
,
0310
0000
0001
0000
1000
0000
0001
1000
,
0001
0100
1000
0001
1000
1000
0200
0000
,
0301
0000
1000
0100
0001
0100
1000
0100
,
0010
0000
0000
0001
0000
0000
0010
0000
0000
0000
0000
0000
0001
0000
0000
0000
1000
0000
0000
0000
0010
0000
0000
0000
,
0100
0000
0000
0000
;

//---------------dance-single - ----------------
#NOTEDATA:;
#CHARTNAME:;
#STEPSTYPE:dance-single;
#DESCRIPTION:;
#CHARTSTYLE:;
#DIFFICULTY:Medium;
#METER:6;
#RADARVALUES:0.382645,0.526848,0.184471,0.110682,0.025826,363.000000,338.000000,25.000000,15.000000,0.000000,0.000000,0.000000,0.000000,0.000000,0.382645,0.526848,0.184471,0.110682,0.025826,363.000000,338.000000,25.000000,15.000000,0.000000,0.000000,0.000000,0.000000,0.000000;
#CREDIT:;
#DISPLAYBPM:160.000000;
#NOTES:
0000
0000
0000
0000
,
0000
0000
0000
0000
,
0000
0000
0000
0000
,
0000
0000
0000
0000
,
1000
0000
1000
0000
,
0100
0000
0100
0000
,
0010
0000
0010
0000
,
0001
0001
0001
0000
,
1000
0010
1000
0010
,
0100
0010
0100
0010
,
0100
0001
1000
0001
,
1000
0100
1000
0100
,
0010
0010
0100
0100
,
0010
0010
0110
0000
,
0001
0001
1000
1000
,
0001
1000
1001
0000
,
0101
0000
1001
0000
,
1100
1100
1100
0000
,
0001
0000
0010
0000
1000
0010
0001
0000
,
1000
0000
0010
0000
0001
0010
1000
0000
,
1010
0000
1001
0000
,
0101
0101
0101
0000
,
0001
0000
0100
0000
1000
0100
0001
0000
,
1000
0001
0000
1000
0001
0000
1001
0000
,
1000
0100
0010
0010
,
0001
0010
0100
0010
1000
0010
0001
0000
,
1000
0001
0100
0100
,
0001
0100
0010
0100
1000
0100
0001
1000
,
0001
0010
0100
0100
,
1000
0010
0100
0010
0001
0010
1000
0000
,
0010
0100
0001
0001
,
1000
0100
0010
0100
0001
0100
1000
0000
,
0001
0011
0010
0011
,
0001
1001
1000
1001
,
0010
1010
1000
1010
,
0010
0110
0100
0110
,
0001
0100
0001
0100
0001
0100
0001
0100
,
0001
1000
0001
1000
0001
1000
0001
1000
,
0200
0000
0320
0000
,
0032
0000
0000
2003
0000
0000
3001
1000
0001
2000
0000
0000
,
3001
0100
0001
1000
,
0001
0000
0010
0000
0001
0000
1000
0001
,
1000
0000
0100
0000
1000
0010
1000
0000
,
0010
0000
0100
0001
0010
0000
0011
0000
,
0001
0010
1000
0010
,
0001
0000
0100
0000
1000
0000
0100
0001
,
1000
0000
0100
0000
1000
0100
0010
0000
,
0001
1000
0000
0001
0000
1001
0000
0000
,
2002
0000
0000
0000
,
0000
0000
0000
0000
,
0000
0000
0000
0000
,
0000
0000
0000
0000
0000
0000
3003
0000
0000
0000
0000
0000
1000
0001
1000
0000
,
0001
0001
0010
0010
,
0100
0100
1000
1000
,
0010
0000
1000
0000
0010
1000
0010
0000
,
0100
0001
0100
0001
0100
0000
0101
0000
,
0001
0100
0001
0100
0010
1000
0010
1000
,
0001
0010
0001
0010
0100
1000
0100
1000
,
0002
0023
0230
2300
,
3001
1000
0000
0001
0100
0010
1000
0000
,
0001
0100
0010
0020
,
0130
0001
1000
0100
0001
0100
1000
0001
,
1000
0010
0100
0200
,
0310
0100
0001
0010
1000
0010
0001
1000
,
0001
1000
0100
0200
,
1300
0100
0001
1000
0010
0010
0001
0000
,
1000
0001
0100
0200
,
0301
0100
1000
0001
0010
0010
1000
0000
,
0001
0000
0001
0000
,
1000
0000
0000
0000
1000
0000
0001
0010
,
0100
0000
0100
0000
,
0010
0000
0100
0000
1000
1000
1000
0000
,
0001
0000
0010
0000
,
0001
0000
0000
0000
1000
0000
0010
0100
,
0001
0000
0100
0000
,
0001
0000
0000
0000
0000
0000
0010
0000
0010
0000
0010
0000
,
0010
0000
0100
0000
,
0010
0000
0100
0000
1000
0100
1000
0000
,
0001
0000
1000
0000
,
0010
0010
0010
0000
,
1000
0000
0010
0000
,
0100
0000
0010
0000
0100
0010
0100
0000
,
0001
0000
0100
0000
,
0001
0000
0000
0001
0000
0000
1000
0000
0001
0000
1000
0000
,
0001
0000
0000
0000
;

//---------------dance-single - ----------------
#NOTEDATA:;
#CHARTNAME:;
#STEPSTYPE:dance-single;
#DESCRIPTION:;
#CHARTSTYLE:;
#DIFFICULTY:Easy;
#METER:3;
#RADARVALUES:0.224527,0.308066,0.059031,0.014758,0.000000,213.000000,205.000000,8.000000,2.000000,0.000000,0.000000,0.000000,0.000000,0.000000,0.224527,0.308066,0.059031,0.014758,0.000000,213.000000,205.000000,8.000000,2.000000,0.000000,0.000000,0.000000,0.000000,0.000000;
#CREDIT:;
#DISPLAYBPM:160.000000;
#NOTES:
0000
0000
0000
0000
,
0000
0000
0000
0000
,
0000
0000
0000
0000
,
0000
0000
0000
0000
,
0001
0000
0001
0000
,
0100
0000
0100
0000
,
0010
0000
0010
0000
,
1000
1000
1000
0000
,
0001
0001
0001
0001
,
0010
0010
0010
0010
,
0100
0100
1000
1000
,
0001
0001
0001
0001
,
1000
0000
1000
0000
,
1000
1000
1000
0000
,
0001
0000
0001
0000
,
1000
0001
1001
0000
,
0001
0000
0001
0000
,
0001
0001
0001
0000
,
0100
0100
0100
0000
,
0010
0010
0010
0000
,
1000
0000
1000
0000
,
1000
1000
1000
0000
,
0100
0100
0100
0000
,
0010
0000
0110
0000
,
0100
0000
1000
0000
,
0001
0001
0001
0000
,
0100
0000
0010
0000
,
1000
1000
1000
0000
,
0001
0000
0100
0000
,
0010
0100
0010
0000
,
1000
0000
0001
0000
,
0010
0100
0010
0000
,
0001
0000
0001
0000
,
0001
0000
0001
0000
,
1000
0000
1000
0000
,
1000
0000
1000
0000
,
0010
0010
0010
0010
,
0100
0100
0100
0100
,
0220
0000
0000
0000
,
0000
0000
0000
0330
,
0001
0000
0001
0000
,
0001
0100
0001
0000
,
1000
1000
1000
0000
,
0001
0001
0001
0000
,
0010
0000
0010
0000
,
0010
0100
0010
0000
,
0100
0100
0100
0000
,
1000
0000
1000
0000
,
1001
0000
0000
0000
,
0000
0000
0000
0000
,
0000
0000
0000
0000
,
0000
0000
0000
0000
,
1000
0000
0010
0000
,
1000
1000
1000
0000
,
0001
1000
0001
0000
,
0010
0100
0010
0000
,
0100
0010
0001
1000
,
0010
0100
0001
1000
,
0010
0010
0100
0100
,
0001
0000
0010
0100
,
1000
0000
1000
0000
,
0001
1000
0001
0000
,
0100
0000
0010
0000
,
0100
0110
0010
0110
,
0100
0000
0001
0000
,
1000
0001
1000
0000
,
0001
0000
0010
0000
,
0100
0110
0010
0110
,
0100
0000
0100
0000
,
0100
0000
0100
1000
,
0100
0000
1000
1000
,
0001
0000
1000
0001
,
0100
0000
0100
0000
,
0010
0000
0010
0100
,
0010
0000
1000
1000
,
0001
0000
0010
0000
,
0100
0000
0100
0000
,
0100
0100
0100
0000
,
1000
0000
1000
0000
,
1000
1000
1000
0000
,
0001
0000
0001
0000
,
0001
0001
0100
0100
,
0010
0000
0010
0000
,
0010
0010
0010
0000
;
