#TITLE:Blacksphere;
#SUBTITLE:;
#ARTIST:Iriss;
#TITLETRANSLIT:;
#SUBTITLETRANSLIT:;
#ARTISTTRANSLIT:;
#GENRE:;
#CREDIT:;
#BANNER:[Qualifier] - Blacksphere.png;
#BACKGROUND:[Qualifier] - Blacksphere-bg.png;
#LYRICSPATH:;
#CDTITLE:;
#MUSIC:[Qualifier] - Blacksphere.ogg;
#OFFSET:-1.705000;
#SAMPLESTART:27.299988;
#SAMPLELENGTH:13.000000;
#SELECTABLE:YES;
#BPMS:0.000000=150.000000
;
#STOPS:
;
#BGCHANGES:;
#KEYSOUNDS:;
#ATTACKS:;

//---------------dance-single - Blank----------------
#NOTES:
     dance-single:
     Blank:
     Hard:
     10:
     0.637405,0.759698,0.355761,0.163057,0.429878,602.000000,554.000000,48.000000,22.000000,0.000000,0.000000,0.637405,0.759698,0.355761,0.163057,0.429878,602.000000,554.000000,48.000000,22.000000,0.000000,0.000000:
// measure 0
0000
0000
0000
0000
,  // measure 1
0000
0000
0000
0000
,  // measure 2
1000
0000
0000
0000
0001
0000
0000
0000
0010
0000
0000
0001
0010
0000
0000
0000
,  // measure 3
0100
0000
0000
0000
0000
0000
0000
0000
0000
0010
0000
0000
0100
0000
0000
0000
0000
0000
0000
0000
0000
0000
0000
0000
1000
0000
0000
0100
0000
0000
0000
0000
0000
0000
0000
0000
1000
0000
0000
0000
0010
0000
0000
0000
0100
0000
0000
0000
,  // measure 4
0001
0000
0000
0001
0010
0000
0000
0000
0001
0000
0000
1000
0100
0000
0000
0000
,  // measure 5
1000
0000
0000
1000
0010
0000
0000
0000
0200
0000
0000
0000
1000
0000
0000
0000
,  // measure 6
0310
0000
0000
0100
0001
0000
0000
0000
1000
0000
0000
0100
0010
0000
0000
0000
,  // measure 7
0100
0010
0100
0010
0100
0000
0010
0000
0000
0000
0000
0000
0100
0000
0010
0000
,  // measure 8
1001
0000
0000
1000
0010
0000
0100
0000
0001
0000
0000
0010
0100
0000
1000
0000
,  // measure 9
0010
0000
0000
0100
0001
0000
0000
0001
1000
0010
0000
0100
0001
0000
0010
0000
,  // measure 10
1001
0000
0000
0001
0010
0000
0100
0000
0010
0000
0000
0010
0001
0000
1000
0000
,  // measure 11
1000
0000
0000
0000
0000
0000
0000
0000
0000
0010
0000
0000
1000
0000
0000
0000
0000
0000
0010
0000
0000
0000
0000
0000
0100
0000
0000
0001
0000
0000
0000
0000
0000
0000
0000
0000
0001
0000
0000
0000
0010
0000
0000
0000
0100
0000
0000
0000
,  // measure 12
1000
0000
0100
0000
0010
0000
0100
0000
1000
0100
0000
0010
0100
0000
1000
0000
,  // measure 13
1000
0000
0001
0000
0100
0000
0010
0000
0100
0001
0000
0001
0100
0000
1000
0000
,  // measure 14
0100
0010
0100
0010
0100
0010
0100
0010
1000
0001
1000
0001
1000
0001
0010
0100
,  // measure 15
0000
0000
0000
1100
,  // measure 16
0011
0000
0000
0010
0001
0000
0010
0000
1000
0000
0010
0000
0100
0000
0010
0000
,  // measure 17
0001
0000
0100
0000
0010
0100
0010
0100
0010
0000
0100
0000
1001
0000
0000
0000
,  // measure 18
1010
0000
0000
1000
0010
0000
0100
0000
0020
0000
0000
0000
0130
0000
1000
0000
,  // measure 19
0100
0000
0010
0000
1000
0000
1000
0000
0001
0010
0001
0010
0100
0000
1000
0000
,  // measure 20
1010
0000
0000
0010
1000
0000
0100
0000
0001
0000
0100
0000
0010
0000
0001
0000
,  // measure 21
1000
0000
1000
0000
0010
0100
0010
0100
0010
0000
0100
0000
0010
1000
0001
0010
,  // measure 22
0100
0000
0000
1000
0010
0000
0100
0000
0001
0000
0010
0000
1000
0000
0010
0000
,  // measure 23
0200
0000
0000
0000
1000
0000
0000
0000
1300
0100
1000
0100
0010
0001
0010
0001
,  // measure 24
0100
0000
0100
0000
0110
0000
0000
0000
1010
0000
0000
0010
1000
0000
0100
0000
,  // measure 25
0010
0000
0010
0000
0001
0010
0001
0010
0001
0000
1000
0000
0010
0000
0100
0000
,  // measure 26
0110
0000
0000
0100
0010
0000
0100
0000
0020
0000
0000
0000
0031
0000
0010
0000
,  // measure 27
0100
0010
1000
0100
0120
0000
0031
0000
,  // measure 28
1001
0000
0000
1000
0001
0000
0010
0000
0100
0000
1000
0000
0001
0000
0100
0000
,  // measure 29
0010
0000
0000
0000
1000
0100
1000
0100
0020
0000
0000
0000
1030
0000
0000
0000
,  // measure 30
0011
0000
0000
0001
0100
0000
0010
0000
1010
0000
0000
0000
0101
0000
0000
0000
,  // measure 31
0001
0000
1000
0100
0000
0010
0100
0000
0001
0000
0100
0000
0010
0000
0000
0000
,  // measure 32
0002
0000
0000
0000
,  // measure 33
0203
0000
0320
0000
,  // measure 34
0032
0000
0000
0000
,  // measure 35
0023
0000
2030
0000
,  // measure 36
3200
0000
0000
0000
,  // measure 37
0320
0000
2030
0000
,  // measure 38
3020
0000
0000
0000
,  // measure 39
0032
0000
0000
0000
,  // measure 40
1003
0010
1000
0010
,  // measure 41
0100
0000
0001
0000
0010
0000
0001
0001
,  // measure 42
1000
0010
1000
0001
,  // measure 43
0010
0000
0000
0000
0100
0000
0000
0000
1000
0000
0000
1000
0001
0000
0010
0000
,  // measure 44
0010
0001
0010
0100
0010
0100
1000
0100
,  // measure 45
1000
0010
1000
0010
0100
0010
0100
0001
,  // measure 46
0010
0000
0100
0000
,  // measure 47
1000
0000
0000
0000
,  // measure 48
1001
0000
0000
0000
,  // measure 49
0000
0000
0000
0000
0000
0001
0100
0000
,  // measure 50
0110
0000
0010
0100
0010
0000
1000
0000
0100
0000
0010
0100
0010
0000
0001
0000
,  // measure 51
1000
0000
0001
1000
0001
0000
0000
0000
0210
0000
0000
0000
1300
0000
0100
0000
,  // measure 52
0010
0000
1000
0100
0020
0000
0000
0000
0031
0000
0101
0000
0000
0000
1001
0000
,  // measure 53
1000
0000
0100
0000
0010
0000
0001
0000
0000
0000
0000
0000
1000
0000
0000
0010
0000
0000
0001
0000
0000
1000
0000
0000
,  // measure 54
0100
0000
0010
0100
0010
1000
0001
0000
0010
0000
0100
0000
0010
0100
0010
0100
,  // measure 55
0010
0000
0001
0000
0100
0010
0100
0001
0010
0000
0100
0000
1000
0000
0100
0000
,  // measure 56
0110
0000
0110
0000
1100
0100
0010
0001
,  // measure 57
0101
0000
0000
0110
0000
0000
1010
0000
1000
0000
0100
0000
0001
0000
0100
0000
,  // measure 58
0010
0000
0010
0000
0010
0000
0020
0000
0000
0130
0000
0000
,  // measure 59
1100
0000
1000
0001
0100
0000
0010
0000
0100
0000
0001
0000
0010
0000
0100
0000
,  // measure 60
1100
0000
0101
0000
1000
0010
0001
0010
,  // measure 61
1000
0000
0010
0000
0100
0000
0001
0000
0000
0010
0000
0000
0020
0000
0000
0000
0000
0000
0130
0000
0000
0000
0000
0000
,  // measure 62
1001
0000
0000
0000
0001
0010
0100
1000
0100
0000
0100
0000
1000
0100
0010
0001
,  // measure 63
0100
0000
0100
0000
0001
0100
0010
1000
0010
0000
0100
0000
1000
0000
0100
0000
,  // measure 64
0010
0000
1001
0000
0001
0010
1000
0010
,  // measure 65
0001
0000
0010
0100
0010
0000
0100
0000
0100
0000
0000
0000
0110
0000
0000
0000
,  // measure 66
1001
0000
0001
1000
0100
0000
1000
0000
0010
0000
1000
0010
0100
0000
0001
0000
,  // measure 67
0010
0000
0100
1000
0010
0000
0100
0000
0002
0000
0000
0000
0013
0000
0100
0000
,  // measure 68
1100
0000
0110
0000
1001
0001
0010
0001
,  // measure 69
0100
0000
0001
0000
1000
0000
0010
0000
0000
0000
0000
0000
0100
0000
0000
0001
0000
0000
0100
0000
0000
1000
0000
0000
,  // measure 70
0100
0000
0010
0000
1000
0010
0100
0001
0010
0000
0100
0000
1000
0001
0100
0010
,  // measure 71
0100
0000
0010
0000
1000
0100
0010
0100
1000
0000
0001
0000
0100
0000
1000
0000
,  // measure 72
0101
0000
1001
0000
1000
0100
0001
1000
,  // measure 73
0010
0000
0001
0000
0010
0000
0100
0010
0001
0000
0000
0000
0010
0000
0001
0000
,  // measure 74
1001
0000
0000
1000
0100
0000
0010
0000
0001
0000
0000
0001
0100
0000
0010
0000
,  // measure 75
0110
0000
0000
0010
0100
0000
0010
0000
1000
0100
0000
0100
1000
0000
0010
0000
,  // measure 76
1010
0000
0000
1000
0010
0000
0100
0000
0010
0100
0000
0100
0010
0000
0010
0000
,  // measure 77
1000
0000
0100
0000
0010
0000
0100
0000
0000
0010
0000
0000
0001
0000
0000
0100
0000
0000
0101
0000
0000
0000
0000
0000
,  // measure 78
0001
0100
0010
0100
0001
0100
1000
0100
,  // measure 79
0010
1000
0100
0010
0100
0001
0100
1000
,  // measure 80
0100
0000
0010
0000
0100
0000
0010
0000
0100
0010
0001
1000
0010
0100
0001
0010
,  // measure 81
0000
0000
1100
0000
0000
0110
0000
0000
0011
0000
0000
1010
0000
0000
0110
0000
,  // measure 82
0101
0000
0000
0000
;

//---------------dance-single - Blank----------------
#NOTES:
     dance-single:
     Blank:
     Medium:
     8:
     0.460584,0.546983,0.333526,0.140822,0.088940,435.000000,390.000000,45.000000,19.000000,0.000000,0.000000,0.460584,0.546983,0.333526,0.140822,0.088940,435.000000,390.000000,45.000000,19.000000,0.000000,0.000000:
0000
0000
0000
0000
,
0000
0000
0000
0000
,
0001
0000
0100
0000
,
0001
0000
0000
0000
0000
0000
0000
0000
0000
1000
0001
0010
,
0100
0000
1000
0000
,
0010
0000
0020
1000
,
0130
0000
0010
0000
,
0100
0000
0000
0000
,
0010
0010
0100
0100
,
0001
0000
0001
0000
0010
0001
0100
0010
,
1000
1000
0100
0100
,
0010
0000
0010
0000
0001
0010
0100
1000
,
1100
0110
0011
1010
,
0110
0101
0011
1001
,
0001
0100
0010
1000
0100
0010
0001
0100
,
0000
0000
0000
0020
,
0130
0000
0000
0100
0010
0000
0010
0000
0100
0000
0001
0000
1000
0000
0100
0000
,
0010
0000
0010
0010
0010
0000
0011
0000
,
1010
0000
1000
0010
0200
0000
1300
0000
,
1100
0000
0110
0000
0100
0010
0100
0001
,
0010
0000
0001
0000
0010
0000
0100
0010
,
0100
0000
1000
1000
1000
0000
1100
0000
,
0110
0000
0000
0010
0001
0000
1000
0000
0001
0000
0100
0000
0010
0000
0100
0000
,
0020
0000
0030
0000
0100
0100
0010
1000
,
0100
0010
0011
0000
1100
0000
0100
0010
,
0100
0000
0010
0010
0010
0100
0110
0000
,
1001
1000
0020
0130
,
0110
0101
0002
0013
,
0011
0000
0001
0000
0001
0100
0010
1000
,
0100
0000
1000
1000
2000
0000
3010
0000
,
0110
0000
0011
0000
0001
0010
0100
1000
,
0010
0000
1000
0001
0000
0000
0000
0000
0100
0000
0000
0000
1000
0000
0000
0000
,
0200
0000
0000
0000
,
0320
0000
2030
0000
,
3200
0000
0000
0000
,
0320
0000
0032
0000
,
0203
0000
0000
0000
,
0302
0000
0023
0000
,
0230
0000
0000
0000
,
0310
0001
0010
0001
1000
0000
0000
0000
,
0010
0000
0010
0000
0100
0010
0100
0000
,
0010
0000
1000
0100
0010
0001
0100
0010
,
0110
0000
0100
0000
0010
0100
0010
0000
,
1010
0000
1000
0100
1000
0010
0100
0001
,
0010
0100
0001
0100
,
0010
0001
1000
0010
,
0100
0000
0001
0000
,
0010
0000
0000
0000
,
1100
0000
0000
0000
,
0000
0000
0000
0000
,
0101
0000
0100
0001
1001
0000
1000
0010
,
1010
0000
1000
0010
0200
0000
0310
0100
,
0001
0000
1100
0000
0110
0010
0001
1000
,
0001
1000
0100
0010
0000
0000
0200
0000
0000
0310
0000
0000
,
0100
0000
0010
0010
0001
0000
1000
1000
,
0010
0000
0100
0100
0001
0010
0100
1000
,
1100
0000
1100
0000
0100
0010
1000
0010
,
0001
0000
0000
0001
0000
0000
0001
0000
0010
0000
0100
0000
0010
0000
0001
0000
,
0100
0000
0000
0000
0100
0000
0000
0000
0100
0000
0000
0000
0010
0000
0000
0000
0000
0000
0100
0000
0000
0010
0000
0000
,
1000
0000
0010
0000
1000
0010
0100
0001
,
0011
0000
0011
0000
0001
0010
0100
0010
,
0001
1000
0010
0000
0110
0000
0000
0000
,
0100
0000
0010
0010
1000
0000
0100
0100
,
0010
0000
0001
0001
1000
0100
0010
0001
,
1010
0000
1010
0000
1000
0010
0100
0001
,
0010
0100
1000
1001
,
0101
0000
0100
0010
0110
0000
0100
0001
,
0011
0000
0001
0000
0100
0000
0010
0010
,
1000
0000
1010
0000
1000
0010
0100
0010
,
1000
0000
0010
0000
1000
0000
0100
0000
0000
0000
0000
0000
0010
0000
0000
0001
0000
0000
0010
0000
0000
0100
0000
0000
,
1000
0000
0001
0001
1000
0000
1000
1000
,
0010
0000
0100
0100
0010
1000
0001
0010
,
0110
0000
0110
0000
0100
0010
0100
1000
,
0100
0010
0001
0100
,
1000
0000
0000
0000
0100
0000
0000
0000
0010
0000
0000
0100
0000
0000
0001
0000
,
0010
0000
0000
0000
0000
0000
0000
0000
0000
0100
0000
0000
0000
0000
0000
0000
0000
0000
1000
0000
0000
0000
0000
0000
0100
0000
0000
0000
0010
0000
0000
0000
0001
0000
0000
0000
0100
0000
0000
0000
0010
0000
0000
0000
1000
0000
0000
0000
,
0100
0000
0000
0000
0001
0000
0000
0000
0100
0000
0000
0100
0000
0000
0010
0000
,
0001
0000
0000
0000
0010
0000
0000
0000
0100
0000
0000
0000
1000
0000
0000
0000
0000
0000
0000
0000
0000
0000
0000
0000
0010
0000
0000
0000
0000
0000
0000
0000
0000
0010
0000
0000
0000
0000
0000
0000
0000
0000
0100
0000
0000
0000
0000
0000
,
0010
1000
0001
0010
0100
0010
0001
1000
,
0010
0100
1000
0100
0010
0100
0001
1000
,
0001
0010
0010
0100
0100
1000
1000
1000
,
0000
0000
0001
0000
0000
0100
0000
0000
0010
0000
0000
1000
0000
0000
0100
0000
,
0001
0000
0000
0000
;

//---------------dance-single - Blank----------------
#NOTES:
     dance-single:
     Blank:
     Easy:
     5:
     0.334585,0.425431,0.096352,0.148234,0.000000,316.000000,303.000000,13.000000,20.000000,0.000000,0.000000,0.334585,0.425431,0.096352,0.148234,0.000000,316.000000,303.000000,13.000000,20.000000,0.000000,0.000000:
0000
0000
0000
0000
,
0000
0000
0000
0000
,
1000
0000
1000
0000
,
1000
0000
0000
1000
0000
0000
1000
0000
,
0010
0000
0010
0000
,
0010
0000
0000
0010
0200
0000
0000
0000
,
0301
0000
1000
0000
,
0001
0000
0000
0000
,
1000
1000
0100
0100
,
0010
0010
0001
0001
,
1000
1000
0010
0010
,
0100
0100
0001
0001
,
0010
0100
0010
0100
,
1000
0001
1000
0001
,
0100
0000
0100
0000
0010
0000
0100
0010
,
0100
0000
0000
0010
,
1000
0000
0100
0000
0100
0000
0100
0010
,
0010
0001
0001
0100
,
0010
1000
2000
3000
,
1001
0000
1000
0000
0001
0010
0001
0000
,
0011
0000
0001
0000
1000
0000
1000
1000
,
0010
0100
0100
0001
,
0020
0030
0010
0100
,
2000
0000
0000
0000
3010
0010
0100
0000
,
0001
0001
0010
0000
0011
0000
0001
0000
,
1000
0010
0010
0100
,
0100
0000
0100
0100
0001
0000
0010
0100
,
1000
0001
2000
3000
,
0010
0000
0100
0100
0001
0000
0010
0000
,
0100
0010
0020
0030
,
0011
0000
0001
0000
0001
0100
0001
0000
,
0100
0000
0000
0000
0100
0010
1000
0000
,
2000
0000
0000
0000
,
3200
0000
0320
0000
,
0230
0000
0000
0000
,
2300
0000
3020
0000
,
0230
0000
0000
0000
,
0302
0000
0023
0000
,
0032
0000
0000
0000
,
1003
0010
1000
0010
1000
0000
0010
0000
,
0100
0000
0100
0000
0100
0010
0100
0000
,
0010
0000
0010
0000
1000
0010
1000
0000
,
0100
0000
0100
0000
0010
0001
0010
0000
,
0100
0000
0100
0000
0100
0010
0100
0000
,
1000
0010
0100
1000
,
0100
0010
0100
0001
,
0010
0000
0100
0000
,
0010
0000
0000
0010
0001
0000
0001
0000
,
0100
0000
0000
0000
,
0000
0000
0000
0000
,
0010
0000
1000
0001
0010
0000
0010
0001
,
0010
0001
1000
0000
,
1010
0000
1000
0000
0010
0000
0100
0001
,
0100
0001
0020
0030
,
0010
0000
0010
0100
0010
0000
0100
0010
,
0100
0000
0010
0100
0010
0000
0001
0000
,
1001
0000
1000
0000
0010
0010
0100
0100
,
0010
0010
0200
0000
,
0301
0000
0020
0130
,
0010
0100
1000
0100
,
0010
0000
0010
0000
0001
0001
1000
1000
,
0010
0100
0200
0310
,
0100
0000
0100
0001
0100
0000
0001
0100
,
0001
0000
0100
0001
0100
0000
0000
0000
,
0011
0001
0010
0010
,
0100
0100
0010
0011
,
1001
0000
1000
0010
0100
0000
0100
0010
,
1000
0100
0001
0100
,
0110
0000
1001
0000
0001
1000
0001
1000
,
0010
0100
0010
0010
,
0100
0000
0010
1000
0010
0000
1000
0010
,
1000
0000
0010
1000
0010
0000
0100
0000
,
0010
0110
0100
0001
,
0010
0010
0001
1000
,
0010
0000
0100
0000
,
0001
0000
0010
0000
,
0100
0000
1000
0000
,
0100
0000
0010
0000
,
0001
0010
0001
0000
1000
0010
1000
0000
,
0001
0100
0001
0000
1000
0100
1000
0000
,
0100
0010
0100
0010
0100
0010
0100
0010
,
0000
0000
0000
0000
,
1001
0000
0000
0000
;
