#VERSION:0.83;
#TITLE:Better When I'm Dancin';
#SUBTITLE:;
#ARTIST:Meghan Trainor;
#TITLETRANSLIT:;
#SUBTITLETRANSLIT:;
#ARTISTTRANSLIT:;
#GENRE:;
#ORIGIN:;
#CREDIT:;
#BANNER:Better When I'm Dancin'.png;
#BACKGROUND:Better When I'm Dancin'-bg.png;
#PREVIEWVID:;
#JACKET:;
#CDIMAGE:;
#DISCIMAGE:;
#LYRICSPATH:;
#CDTITLE:;
#MUSIC:Better When I'm Dancin'.ogg;
#OFFSET:-0.040000;
#SAMPLESTART:97.530006;
#SAMPLELENGTH:12.000000;
#SELECTABLE:YES;
#BPMS:0.000=128.000;
#STOPS:77.000=0.937,
188.000=0.469;
#DELAYS:;
#WARPS:;
#TIMESIGNATURES:0.000=4=4;
#TICKCOUNTS:0.000=4;
#COMBOS:0.000=1;
#SPEEDS:0.000=1.000=0.000=0;
#SCROLLS:0.000=1.000;
#FAKES:;
#LABELS:0.000=Song Start;
#BGCHANGES:;
#KEYSOUNDS:;
#ATTACKS:
;

//---------------dance-single - ----------------
#NOTEDATA:;
#CHARTNAME:;
#STEPSTYPE:dance-single;
#DESCRIPTION:;
#CHARTSTYLE:;
#DIFFICULTY:Beginner;
#METER:1;
#RADARVALUES:0.087769,0.127827,0.000000,0.129343,0.000000,76.000000,76.000000,0.000000,16.000000,0.000000,0.000000,0.000000,0.000000,0.000000,0.087769,0.127827,0.000000,0.129343,0.000000,76.000000,76.000000,0.000000,16.000000,0.000000,0.000000,0.000000,0.000000,0.000000;
#CREDIT:;
#NOTES:
// measure 0
0000
0000
0000
0000
,  // measure 1
0000
0000
0000
0000
,  // measure 2
0000
0000
0000
0000
,  // measure 3
0000
0000
0000
0000
,  // measure 4
1000
0000
0000
0000
,  // measure 5
0001
0000
0000
0000
,  // measure 6
0100
0000
0000
0000
,  // measure 7
0010
0000
0000
0000
,  // measure 8
0100
0000
0000
0000
,  // measure 9
0001
0000
0000
0000
,  // measure 10
1000
0000
0000
0000
,  // measure 11
0100
0000
0000
0000
,  // measure 12
0010
0000
0010
0000
,  // measure 13
0010
0000
0000
0000
,  // measure 14
0100
0000
0100
0000
,  // measure 15
0100
0000
0000
0000
,  // measure 16
1000
0000
0000
0000
,  // measure 17
0001
0000
0000
0000
,  // measure 18
0100
0000
0000
0000
,  // measure 19
0010
0000
0200
0000
,  // measure 20
0000
0300
0002
0000
,  // measure 21
0000
0003
2000
0000
,  // measure 22
0000
3000
0200
0000
,  // measure 23
0000
0300
0020
0000
,  // measure 24
0001
0030
0002
0000
,  // measure 25
0100
0003
0200
0000
,  // measure 26
0020
0000
0330
0000
,  // measure 27
0000
0000
1000
0000
,  // measure 28
1000
0000
1000
0000
,  // measure 29
0000
0000
0001
0000
,  // measure 30
0001
0000
0001
0000
,  // measure 31
0000
0000
0010
0000
,  // measure 32
0010
0000
0010
0000
,  // measure 33
0000
0000
0100
0000
,  // measure 34
0100
0000
0100
0000
,  // measure 35
0000
0000
1000
0000
,  // measure 36
0000
0000
0001
0000
,  // measure 37
0000
0000
0100
0000
,  // measure 38
0000
0000
0010
0000
,  // measure 39
0000
0000
0100
0000
,  // measure 40
0000
0000
0001
0000
,  // measure 41
0000
0000
1000
0000
,  // measure 42
0000
0000
0100
0000
,  // measure 43
0000
0000
0010
0000
,  // measure 44
0000
0000
0001
0000
,  // measure 45
0000
0000
0010
0000
,  // measure 46
0000
0000
0100
0000
,  // measure 47
0000
2000
0000
0000
,  // measure 48
0000
3020
0000
0000
,  // measure 49
0000
0230
0000
0000
,  // measure 50
0000
0002
0000
0000
,  // measure 51
0303
0001
0000
0010
,  // measure 52
0000
1000
0000
0100
,  // measure 53
0000
0001
0000
0010
,  // measure 54
0000
1000
0000
0100
,  // measure 55
0000
0001
0000
0010
,  // measure 56
0000
1000
0000
0010
,  // measure 57
0000
0001
0000
0100
,  // measure 58
0000
1000
0000
0100
,  // measure 59
0000
0002
0000
0000
,  // measure 60
0000
2003
0000
0000
,  // measure 61
0000
3200
0000
0000
,  // measure 62
0000
0320
0000
0000
,  // measure 63
0000
0030
0000
0000
;

//---------------dance-single - ----------------
#NOTEDATA:;
#CHARTNAME:;
#STEPSTYPE:dance-single;
#DESCRIPTION:;
#CHARTSTYLE:;
#DIFFICULTY:Easy;
#METER:3;
#RADARVALUES:0.190550,0.359331,0.097007,0.234434,0.000000,165.000000,153.000000,12.000000,29.000000,0.000000,0.000000,0.000000,0.000000,0.000000,0.190550,0.359331,0.097007,0.234434,0.000000,165.000000,153.000000,12.000000,29.000000,0.000000,0.000000,0.000000,0.000000,0.000000;
#CREDIT:;
#NOTES:
// measure 0
0000
0000
0000
0000
,  // measure 1
0000
0000
0000
0000
,  // measure 2
0000
0000
0000
0000
,  // measure 3
0000
0000
0000
0000
,  // measure 4
1000
0000
0001
0100
,  // measure 5
0010
0000
0100
0001
,  // measure 6
1000
0000
0001
0010
,  // measure 7
0100
0000
0010
0100
,  // measure 8
0010
0000
0100
1000
,  // measure 9
0001
0000
1000
0010
,  // measure 10
0100
0000
0010
1000
,  // measure 11
0001
0000
1000
0001
,  // measure 12
1000
0000
0100
0000
,  // measure 13
0020
0000
1000
0000
,  // measure 14
0031
0000
0100
0000
,  // measure 15
0020
0000
0001
0000
,  // measure 16
2030
0000
0000
0001
,  // measure 17
0002
3003
2000
3002
,  // measure 18
0023
0000
0000
0100
,  // measure 19
0130
0000
2000
0000
,  // measure 20
0000
3000
0002
0000
,  // measure 21
0000
0003
0200
0000
,  // measure 22
0000
0300
0020
0000
,  // measure 23
0000
0030
1000
0001
,  // measure 24
1000
0001
0100
0001
,  // measure 25
0100
0001
0100
0010
,  // measure 26
1000
0001
1000
0000
,  // measure 27
0000
0000
0001
0100
,  // measure 28
0010
0010
0220
0330
,  // measure 29
1000
0001
2002
3003
,  // measure 30
0001
0010
0022
0033
,  // measure 31
0010
0100
1000
0001
,  // measure 32
0100
0100
0220
0330
,  // measure 33
0001
1000
2002
3003
,  // measure 34
1000
0100
2200
3300
,  // measure 35
0100
0010
0001
0000
,  // measure 36
0000
0000
1000
0000
,  // measure 37
0000
0000
0010
0000
,  // measure 38
0000
0000
0100
0000
,  // measure 39
0000
0000
0010
1000
,  // measure 40
0000
0000
1000
0001
,  // measure 41
0000
0000
0010
0000
,  // measure 42
0100
0000
1000
0000
,  // measure 43
0001
0000
0100
0000
,  // measure 44
0000
0000
0010
0000
,  // measure 45
0000
0000
1000
0000
,  // measure 46
0000
0000
0001
0000
,  // measure 47
0020
0030
0000
0000
0000
0000
0000
0000
0000
0000
0000
0000
0000
0000
0000
0000
0000
0000
0000
0000
0000
0000
0000
0000
0000
0000
0000
0000
0000
0000
0000
0000
0000
0000
0000
0000
0000
0000
0000
0000
0000
0000
0000
0000
0000
0000
0000
0000
0100
0000
0000
0000
0000
0000
0000
0000
0000
0000
0000
0000
0000
0000
0000
0000
0000
0000
0000
0000
0000
0000
0000
0000
0000
0000
0000
0000
0000
0000
0000
0000
0000
0000
0000
0000
0000
0000
0000
0000
0000
0000
0000
0000
0000
0000
0000
0000
0010
0000
0000
0000
0000
0000
0000
0000
0000
0000
0000
0000
0000
0000
0000
0000
0000
0000
0000
0000
0000
0000
0000
0000
0000
0000
0000
0000
0000
0000
0000
0000
0000
0000
0000
0000
0000
0000
0000
0000
0000
0000
0000
0000
0000
0000
0000
0000
0100
0000
0000
0000
0000
0000
0000
0000
0000
0000
0000
0000
0000
0000
0000
0000
0000
0000
0000
0000
0000
0000
0000
0000
0000
0000
0000
0000
0000
0000
0000
0000
0000
0000
0000
0000
0000
0000
0000
0000
0000
0000
0000
0000
0000
0000
0000
0000
,  // measure 48
0010
0001
0010
0001
,  // measure 49
0010
0001
1000
0010
,  // measure 50
0100
0010
0000
1000
,  // measure 51
1000
0001
0010
1000
,  // measure 52
1000
0100
0100
1000
,  // measure 53
0010
0001
0001
0100
,  // measure 54
1000
0010
0010
1000
,  // measure 55
0100
0001
1000
0001
,  // measure 56
1000
1001
0110
0100
,  // measure 57
0010
0110
1001
0001
,  // measure 58
1000
1001
0110
0100
,  // measure 59
0010
0200
0000
0000
,  // measure 60
0000
2300
0000
0000
,  // measure 61
0000
3002
0000
0000
,  // measure 62
0000
0000
0203
0000
0000
0000
0000
0010
,  // measure 63
0000
0020
0000
0000
0330
0000
0000
0000
;

//---------------dance-single - ----------------
#NOTEDATA:;
#CHARTNAME:;
#STEPSTYPE:dance-single;
#DESCRIPTION:;
#CHARTSTYLE:;
#DIFFICULTY:Medium;
#METER:4;
#RADARVALUES:0.291022,0.461997,0.363777,0.056588,0.000000,252.000000,207.000000,45.000000,7.000000,0.000000,0.000000,0.000000,0.000000,0.000000,0.291022,0.461997,0.363777,0.056588,0.000000,252.000000,207.000000,45.000000,7.000000,0.000000,0.000000,0.000000,0.000000,0.000000;
#CREDIT:;
#NOTES:
// measure 0
0000
0000
0000
0000
,  // measure 1
0000
0000
0000
0000
,  // measure 2
0000
0000
0000
0000
,  // measure 3
0000
0000
0000
0000
,  // measure 4
0001
0100
0010
0010
,  // measure 5
0010
0100
0001
0001
,  // measure 6
0001
1000
0100
0100
,  // measure 7
0100
0010
0110
1001
,  // measure 8
1000
0010
0100
0100
,  // measure 9
0100
0010
1000
1000
,  // measure 10
1000
0001
0010
0010
,  // measure 11
0010
0100
0110
1001
,  // measure 12
0001
0100
1000
0100
,  // measure 13
0001
0001
1000
0001
,  // measure 14
1000
0100
0001
0100
,  // measure 15
1000
0001
0100
0010
,  // measure 16
1000
1010
0001
0010
,  // measure 17
0100
0110
1000
0001
,  // measure 18
0100
0101
1000
0100
,  // measure 19
0010
0000
0100
0100
,  // measure 20
0100
0100
0010
0010
,  // measure 21
0010
0010
0001
0001
,  // measure 22
0001
0001
1000
1000
,  // measure 23
1000
1000
0001
0100
,  // measure 24
0010
0010
0010
1000
,  // measure 25
0001
0001
0001
0010
,  // measure 26
1000
0100
0001
0000
,  // measure 27
1000
1000
0001
0010
,  // measure 28
1000
1000
1010
0000
,  // measure 29
0010
0001
1001
0000
,  // measure 30
0001
0100
1100
0000
,  // measure 31
0100
0001
1000
0100
,  // measure 32
0001
0001
0101
0000
,  // measure 33
0100
1000
1001
0000
,  // measure 34
1000
0010
0011
0000
,  // measure 35
0010
1000
0001
0001
,  // measure 36
0000
0000
0010
0010
,  // measure 37
0000
0000
0100
0100
,  // measure 38
0000
0000
1000
1000
,  // measure 39
0001
1000
0010
0010
,  // measure 40
0100
0001
1000
1000
,  // measure 41
0000
0000
0100
0000
,  // measure 42
0010
0000
0001
0000
,  // measure 43
1000
0000
0001
0001
,  // measure 44
0001
0001
0100
0100
,  // measure 45
0100
0100
0010
0010
,  // measure 46
0010
0010
1000
1000
,  // measure 47
2000
3000
0000
0000
0000
0000
0000
0000
0000
0000
0000
0000
0000
0000
0000
0000
0000
0000
0000
0000
0000
0000
0000
0000
0000
0000
0000
0000
0000
0000
0000
0000
0000
0000
0000
0000
0000
0000
0000
0000
0000
0000
0000
0000
0000
0000
0000
0000
0100
0000
0000
0000
0000
0000
0000
0000
0000
0000
0000
0000
0000
0000
0000
0000
0000
0000
0000
0000
0000
0000
0000
0000
0000
0000
0000
0000
0000
0000
0000
0000
0000
0000
0000
0000
0000
0000
0000
0000
0000
0000
0000
0000
0000
0000
0000
0000
0010
0000
0000
0000
0000
0000
0000
0000
0000
0000
0000
0000
0000
0000
0000
0000
0000
0000
0000
0000
0000
0000
0000
0000
0000
0000
0000
0000
0000
0000
0000
0000
0000
0000
0000
0000
0000
0000
0000
0000
0000
0000
0000
0000
0000
0000
0000
0000
0001
0000
0000
0000
0000
0000
0000
0000
0000
0000
0000
0000
0000
0000
0000
0000
0000
0000
0000
0000
0000
0000
0000
0000
0000
0000
0000
0000
0000
0000
0000
0000
0000
0000
0000
0000
0000
0000
0000
0000
0000
0000
0000
0000
0000
0000
0000
0000
,  // measure 48
0001
0001
1000
0010
,  // measure 49
0010
0010
0001
0100
,  // measure 50
1000
0010
0010
0100
,  // measure 51
0100
0110
1010
0110
,  // measure 52
1010
1100
1100
0110
,  // measure 53
0011
0101
0101
0110
,  // measure 54
1010
1100
1100
0110
,  // measure 55
0011
1001
0101
0110
,  // measure 56
1010
1001
1001
1100
,  // measure 57
0110
0011
0011
1001
,  // measure 58
0101
0110
0110
1010
,  // measure 59
1001
0002
0000
0000
,  // measure 60
0000
0023
0000
0000
,  // measure 61
0000
2030
0000
0000
,  // measure 62
0000
0000
3200
0000
0000
0000
0000
0302
,  // measure 63
0000
2000
0000
0000
3003
0000
0000
0000
;

//---------------dance-single - ----------------
#NOTEDATA:;
#CHARTNAME:;
#STEPSTYPE:dance-single;
#DESCRIPTION:;
#CHARTSTYLE:;
#DIFFICULTY:Hard;
#METER:7;
#RADARVALUES:0.351074,0.385756,0.008084,0.202099,0.173805,304.000000,303.000000,1.000000,25.000000,0.000000,0.000000,0.000000,0.000000,0.000000,0.351074,0.385756,0.008084,0.202099,0.173805,304.000000,303.000000,1.000000,25.000000,0.000000,0.000000,0.000000,0.000000,0.000000;
#CREDIT:;
#NOTES:
// measure 0
0000
0000
0000
0000
,  // measure 1
0000
0000
0000
0000
,  // measure 2
0000
0000
0000
0000
,  // measure 3
0000
0000
0000
0000
,  // measure 4
0001
0000
0100
0000
1000
0100
0010
0000
,  // measure 5
1000
0000
0100
0000
0001
0100
0010
0000
,  // measure 6
0001
0000
0100
0000
1000
0100
0010
1000
,  // measure 7
0001
0000
1000
0100
0020
0000
0100
0000
,  // measure 8
0031
0000
0000
1000
0000
0000
0000
0000
0001
0000
0100
0000
0010
0000
0000
0000
,  // measure 9
0100
0000
0000
0001
0000
0000
0000
0000
1000
0000
0100
0000
0010
0000
0000
0000
,  // measure 10
0100
0000
0000
1000
0000
0000
0000
0000
0001
0000
0100
0000
0010
0000
0100
0000
,  // measure 11
0001
0000
0000
1000
0000
0000
0100
0000
0020
0000
0000
0000
0100
0000
0000
0000
,  // measure 12
0031
0000
0100
0000
0010
1000
0001
1000
,  // measure 13
0100
0000
0010
0000
0100
0100
1000
0001
,  // measure 14
1000
0000
0010
0000
0100
0001
1000
0001
,  // measure 15
0010
0000
0100
1000
0001
0000
1001
0000
,  // measure 16
2000
0010
0100
3002
,  // measure 17
0203
0310
0200
1000
,  // measure 18
0020
0000
0300
2030
,  // measure 19
0002
0000
3003
0000
0000
0000
0000
0000
0001
0000
0000
0001
0000
0000
0001
0000
,  // measure 20
0000
0000
0000
0000
0000
0000
0000
0000
0010
0000
0000
0010
0000
0000
0010
0000
,  // measure 21
0000
0000
0000
0000
0000
0000
0000
0000
0100
0000
0000
0100
0000
0000
0100
0000
,  // measure 22
0000
0000
0000
0000
0000
0000
0000
0000
1000
0000
0000
1000
0000
0000
1000
0000
,  // measure 23
0001
1000
0001
0001
,  // measure 24
0001
0000
0000
0100
0000
0000
0010
0000
0100
0000
0000
0000
0100
0000
0000
0000
,  // measure 25
0100
0000
0000
0010
0000
0000
1000
0000
0001
0000
1000
0000
0010
0000
1000
0000
,  // measure 26
0001
0000
0010
0000
0100
0000
1000
0000
0001
0000
0000
1000
0000
0000
0000
0000
,  // measure 27
0001
0000
0000
0001
0000
0000
1000
0000
0010
0000
0000
0100
0000
0100
0000
0000
,  // measure 28
0010
0000
1000
0000
0100
0000
0010
0000
0100
0000
0000
0100
0000
0000
0000
0000
,  // measure 29
1000
0000
0001
0000
0100
0000
0010
0000
0100
0000
0000
0100
0000
0000
0000
0000
,  // measure 30
0001
0000
1000
0000
0100
0000
0010
0000
0100
0000
0000
0100
0000
0000
0100
0000
,  // measure 31
0000
0000
0100
0000
1000
0000
0001
0000
1000
0000
0000
0001
0000
0001
0000
0000
,  // measure 32
1000
0000
0010
0000
0100
0000
0010
0000
1000
0000
0000
1000
0000
0000
0000
0000
,  // measure 33
0100
0000
0010
0000
0100
0000
1000
0000
0001
0000
0000
0001
0000
0000
0000
0000
,  // measure 34
0100
0000
0010
0000
0100
0000
0001
0000
1000
0000
0000
1000
0000
0000
1000
0000
,  // measure 35
0000
1000
0100
0010
0200
0000
0000
0000
,  // measure 36
0000
2300
3002
0003
,  // measure 37
0200
0000
0020
0000
,  // measure 38
0300
0230
0302
0000
,  // measure 39
1003
0000
0000
0000
0001
0000
0000
0000
1000
0000
0000
0100
0000
0000
0010
0000
,  // measure 40
0100
0000
0010
0000
0100
0000
0010
0000
0001
0000
0000
0100
0000
0000
0000
0000
,  // measure 41
0010
0100
0001
1000
0001
0000
0010
0000
,  // measure 42
0200
0000
0000
0000
0010
0000
0000
0000
1300
0000
0000
0001
0000
0000
1000
0000
,  // measure 43
0001
0000
1000
0000
0010
0000
0100
0000
0010
0000
0000
0010
0000
0000
0010
0000
,  // measure 44
0000
0000
0000
0000
0000
0000
0000
0000
1000
0000
0000
1000
0000
0000
1000
0000
,  // measure 45
0000
0000
0000
0000
0000
0000
0000
0000
0001
0000
0000
0001
0000
0000
0001
0000
,  // measure 46
0000
0000
0000
0000
0000
0000
0000
0000
0010
0000
0000
0010
0000
0000
0010
0000
,  // measure 47
0200
0300
0000
0000
0000
0000
0000
0000
0000
0000
0000
0000
0000
0000
0000
0000
0000
0000
0000
0000
0000
0000
0000
0000
0000
0000
0000
0000
0000
0000
0000
0000
0000
0000
0000
0000
0000
0000
0000
0000
0000
0000
0000
0000
0000
0000
0000
0000
0010
0000
0000
0000
0000
0000
0000
0000
0000
0000
0000
0000
0000
0000
0000
0000
0000
0000
0000
0000
0000
0000
0000
0000
0000
0000
0000
0000
0000
0000
0000
0000
0000
0000
0000
0000
0000
0000
0000
0000
0000
0000
0000
0000
0000
0000
0000
0000
0010
0000
0000
0000
0000
0000
0000
0000
0000
0000
0000
0000
0000
0000
0000
0000
0000
0000
0000
0000
0000
0000
0000
0000
0000
0000
0000
0000
0000
0000
0000
0000
0000
0000
0000
0000
0000
0000
0000
0000
0000
0000
0000
0000
0000
0000
0000
0000
0010
0000
0000
0000
0000
0000
0000
0000
0000
0000
0000
0000
0000
0000
0000
0000
0000
0000
0000
0000
0000
0000
0000
0000
0000
0000
0000
0000
0000
0000
0000
0000
0000
0000
0000
0000
0001
0000
0000
0000
0000
0000
0000
0000
0000
0000
0000
0000
,  // measure 48
0000
0000
1000
0000
0001
0000
0000
0000
0001
0000
0000
0000
0001
0000
0000
1000
,  // measure 49
0000
0010
0100
0010
1000
0010
0100
0001
,  // measure 50
1000
0100
0020
0000
0230
0000
0320
0000
,  // measure 51
0032
0000
0000
0000
1003
0000
0000
0010
0000
0100
0000
0000
1000
0000
0100
0000
,  // measure 52
0001
0000
0010
0000
0100
0000
0000
0100
0000
0000
0100
0000
0010
0000
0001
0000
,  // measure 53
1000
0000
0010
0000
0100
0000
0000
0100
0000
0000
0100
0000
0010
0000
1000
0000
,  // measure 54
0001
0000
0010
0000
0100
0000
0000
0100
0000
0000
0100
0000
0000
0000
0001
0000
,  // measure 55
0100
0000
1000
0000
0001
0000
0000
0100
0000
0010
0000
0000
0001
0000
0010
0000
,  // measure 56
1000
0000
0100
0000
0010
0000
0000
0010
0000
0000
0010
0000
0100
0000
1000
0000
,  // measure 57
0001
0000
0100
0000
0010
0000
0000
0010
0000
0000
0010
0000
0100
0000
0001
0000
,  // measure 58
1000
0000
0100
0000
0010
0000
0000
0010
0000
0000
0010
0000
0000
0000
1000
0000
,  // measure 59
0010
0000
0001
0000
1000
0000
0000
0010
0000
0000
0100
0000
0001
0000
0100
0000
,  // measure 60
0010
0000
0100
0000
0001
0000
0000
0010
0000
0000
0100
0000
0000
0000
0000
0000
,  // measure 61
0000
0020
0000
0030
0000
0100
0010
0001
,  // measure 62
1000
0010
0000
0000
0000
0000
0000
0200
,  // measure 63
0000
0020
0000
0000
0000
0330
0000
0000
;
