#TITLE:Ai de Kiru nara Itakunai!;
#SUBTITLE:-Anime Cast Ver.-;
#ARTIST:Takada Akatsuki;
#TITLETRANSLIT:;
#SUBTITLETRANSLIT:;
#ARTISTTRANSLIT:;
#GENRE:;
#CREDIT:Loodee;
#BANNER:;
#BACKGROUND:;
#LYRICSPATH:;
#CDTITLE:loodeecdtitle.png;
#MUSIC:Ai de Kiru nara Itakunai!.ogg;
#OFFSET:-0.032;
#SAMPLESTART:59.996;
#SAMPLELENGTH:16.500;
#SELECTABLE:YES;
#BPMS:0.000=184.995;
#STOPS:;
#BGCHANGES:;
#KEYSOUNDS:;

//---------------dance-single - Loodee----------------
#NOTES:
     dance-single:
     Loodee:
     Challenge:
     12:
     0.944,1.000,0.454,0.490,0.508:
0000
0000
0000
0000
,
0000
0000
0000
0000
,
0000
0000
0000
0000
,
0000
0000
0000
0000
,
0000
0000
0000
0000
,
0000
0000
0000
0000
,
2100
0000
0000
0000
,
3200
0000
0000
0000
,
0320
0000
0000
0000
,
0230
0000
0000
0000
0000
1300
0010
0100
,
0102
0000
0000
0000
0000
0000
0000
0000
0000
0000
0000
0000
0000
0000
0000
0000
0000
0000
0000
0000
0000
0000
0000
0000
0043
0000
0000
0030
0000
0000
0000
0000
,
2001
0000
3100
0010
0001
0100
0001
2000
,
0000
3100
0010
0001
0000
1100
0000
0101
,
0000
1010
1010
0000
1000
0100
0010
0001
,
1100
0000
0100
0010
0001
0010
0001
1000
0010
0100
0001
1000
0100
0010
0100
1000
,
0100
0000
0010
0000
0100
0000
1000
0001
0100
0001
1000
0000
0010
0000
0100
0000
,
0001
0000
0010
0100
0010
0000
0001
1000
0010
0100
0001
0000
0010
0000
0100
0000
,
1000
0010
0100
0000
0001
0010
0100
0000
0010
0001
1000
0010
1000
0100
1000
0010
,
0100
0000
0001
1000
0001
0000
0010
0001
0010
0100
0010
0001
1000
0001
1000
0001
,
0100
0000
0010
0000
0100
0000
0010
0000
1000
0001
1000
0000
0100
0000
1000
0000
,
0001
0000
0010
0100
1000
0010
0100
0001
1000
0001
1000
0010
0100
0010
1000
0001
,
1000
0100
0010
0000
0100
1000
0020
0000
0000
0000
1000
0000
1030
0000
0001
0000
,
0011
0010
0100
2000
0000
3001
1000
0010
,
0100
0010
1000
0002
0000
0013
0110
0000
,
1100
0000
0001
0002
0000
1003
1010
0000
,
0110
0010
1000
0001
1000
0100
0010
0011
,
0001
0100
0010
1000
0100
1000
0010
0100
,
1000
0000
0100
0000
0001
0000
0200
0000
0000
0000
0301
0000
1000
0000
0100
0010
,
0002
0000
1003
0010
1000
0100
0010
0000
,
0020
0000
0000
0000
0031
0000
0010
0000
0100
0010
0001
0000
1000
0000
0001
0000
,
0101
0100
0010
0100
0001
1000
0100
0010
,
1000
0010
0001
2000
0000
3010
1000
0000
,
0002
0000
0103
0010
1000
0100
0020
0000
,
0031
1000
1000
0010
1000
1000
0001
0010
,
0011
0001
2000
0000
3100
0010
0001
0100
,
1000
0000
0100
0000
0010
0000
2000
0000
0000
0000
3001
0000
1000
0000
0100
0010
,
0100
0010
0001
0020
0000
0031
1001
0000
,
1010
0000
0000
0000
0010
0000
0100
0000
0010
1000
0001
1000
0001
0010
0001
1000
,
0020
0000
0130
0002
0000
1003
0100
0010
,
0200
0000
1300
0020
0000
0130
0001
1000
,
1100
0000
0100
0110
0000
0010
0011
0001
,
1000
0001
1000
0010
0100
0100
0010
0010
,
1002
0000
0000
0000
1003
0000
0100
0000
0010
0100
0010
0000
0001
0000
1000
0000
,
0010
0000
0100
0000
0010
0000
1000
0000
0001
0010
0100
0000
1000
0000
0010
0000
,
0100
0001
0001
1000
0001
0001
0010
0100
,
2100
0000
0000
3010
0101
0110
1001
1001
,
0000
0000
1000
M000
0100
0M00
0010
00M0
,
1002
0000
0103
0010
0100
0001
1000
0000
,
1200
0000
0310
0100
1000
0001
0100
0010
,
2010
0000
3002
0000
0013
0100
1000
0010
,
0002
0000
0013
0100
0000
0001
1000
0000
,
1200
0000
0000
0000
0310
0000
0001
0000
1000
0000
0001
0000
0100
0000
0010
1000
,
0002
0000
0013
0100
1000
0001
0100
0101
,
0000
0001
0001
1000
0000
0100
0100
0010
,
0000
0101
1010
1001
,
0021
0000
0130
0000
1000
1000
0010
0000
,
0210
0000
0301
1000
0000
0100
0010
0001
,
2001
0000
3020
0000
0130
0001
1000
0100
,
1000
0000
1000
0000
0001
0000
0100
0000
0000
0000
0010
0000
1000
0000
0000
1000
,
0200
0000
0320
0000
0031
1000
0010
0000
,
0200
0000
0301
1000
0100
1000
0001
0000
,
1010
0000
0020
0000
0130
0100
0001
2000
,
0100
0000
0000
0000
3100
0000
0010
0000
0001
0000
0100
0000
0010
0000
0000
1000
,
0002
0000
0023
0000
0130
0100
1000
0000
,
0002
0000
0103
0010
1000
0100
0100
0010
,
0022
0033
0001
2002
3003
1000
2020
3030
,
0001
0101
0100
0010
1000
1000
0100
0010
,
0010
0001
0100
0000
0010
1001
0000
1001
,
0011
0000
0000
0000
0000
0000
0011
0000
0000
0000
0000
0000
0000
0000
0000
0000
0000
0000
0001
0000
1000
0000
0001
0000
1000
0000
0000
0000
0000
0000
0010
0000
0000
0000
0000
0000
1010
0000
0000
0000
0000
0000
1000
0000
0000
0001
0000
0000
,
1000
0100
0010
0100
0010
0001
1000
0010
1000
0001
1000
0100
0010
0000
0100
0000
,
0010
0000
0001
1000
0010
0100
0001
0000
1000
0000
0001
0000
0010
0000
0100
1000
,
0010
0000
1000
0001
0010
0001
1000
0000
0010
0000
0100
0000
0001
0010
0100
0000
,
0010
0001
0100
0000
0010
1000
0100
1000
0001
1000
0001
0010
0001
0000
0100
0010
,
0100
0000
0010
1000
0001
0010
0100
0010
0001
1000
0010
1000
0010
0000
0100
0000
,
0001
0000
0100
0000
0010
1000
0100
0000
1000
0000
0100
0010
0001
0000
0010
0100
,
1000
0000
0010
0000
1000
0000
0010
0100
0001
0010
0100
1000
0100
0000
0100
0000
,
0000
0000
0010
0000
0001
0000
1000
0000
0010
0000
0010
0000
1001
0000
1000
0100
,
1000
0001
0100
0010
1000
0001
1000
0000
0100
0010
0001
0100
0001
0000
1000
0000
,
0010
0000
1000
0001
0010
0001
1000
0000
0100
0000
0010
0000
0001
0000
0100
0010
,
1000
0000
0001
0100
0010
0100
0001
0000
0010
0000
0100
0000
1000
0010
0100
0000
,
0010
1000
0100
0000
0010
0001
0100
0001
1000
0010
1000
0100
1000
0000
0001
0100
,
0001
0000
0010
0100
0010
0001
1000
0010
1000
0001
0010
0100
0010
0000
0001
0000
,
1000
0000
0001
0000
1000
0010
0100
0000
0010
0000
1000
0001
0010
0000
0100
1000
,
0010
1000
0001
0010
0001
1000
0001
0010
0100
1000
0100
0010
0001
1000
0010
0000
,
0100
0001
2000
0000
0000
0000
0100
0000
3100
0000
0022
0000
0000
0000
0033
0000
;

//---------------dance-single - Loodee----------------
#NOTES:
     dance-single:
     Loodee:
     Hard:
     9:
     0.739,0.771,0.218,0.454,0.109:
0000
0000
0000
0000
,
0000
0000
0000
0000
,
0000
0000
0000
0000
,
0000
0000
0000
0000
,
0000
0000
0000
0000
,
0000
0000
0000
0000
,
1200
0000
0000
0000
,
0320
0000
0000
0000
,
0032
0000
0000
0000
,
0023
0000
0000
0000
0000
0031
1000
0010
,
2000
0000
0000
3001
,
0020
0000
0130
1000
0001
1000
0010
0200
,
0000
0301
1000
0001
0000
1100
0000
1001
,
0000
0001
0001
0000
1000
0010
1000
0100
,
0010
0000
0001
1000
0001
0000
1000
0000
0010
0000
1000
0000
0100
0000
0010
0000
,
0100
0000
0010
0000
0001
0000
1000
0010
1000
0000
0001
0000
0100
0000
0010
0000
,
0100
0000
0001
1000
0001
0000
0010
0100
0010
0000
0001
0000
1000
0000
0010
0000
,
0100
1000
0100
2000
0000
3100
0001
1000
,
0100
0000
0010
0001
0010
0000
0100
0000
1000
0000
0001
0000
0100
0000
0010
0000
,
1000
0000
0100
0000
1000
0000
0100
0000
0100
0010
0001
0000
0100
0000
0001
0000
,
0010
0000
0100
1000
0100
0000
1000
0000
0001
0000
1000
0000
0010
0000
0100
0000
,
0002
2003
3002
2003
0000
3010
0100
0001
,
2000
0000
0000
0000
,
0000
0000
3000
1100
,
0110
0000
0010
0001
0000
1000
0001
0000
,
0100
0010
0100
0010
1000
0001
0010
0100
,
1000
0100
1000
0010
1000
0001
0010
0100
,
0010
0000
0001
0000
0010
0000
0002
0000
0000
0000
1003
0000
0010
0000
1000
0001
,
2000
0000
3100
0010
0001
0100
0010
0000
,
0200
0000
0301
1000
0010
1000
0100
0100
,
0010
0001
1000
0001
0010
0100
1000
0010
,
0100
0010
1000
0002
0000
1003
0100
0000
,
0020
0000
0031
1000
0010
0100
0020
0000
,
1030
0001
0001
1000
0001
0001
0010
0000
,
0110
0000
0200
0000
1300
0001
1000
0010
,
0100
0000
0010
0000
0100
0000
0002
0000
0000
0000
1003
0000
0100
0000
1000
0001
,
1000
0100
1000
0002
0000
0103
0001
0000
,
0202
0000
0303
0220
0000
0330
1001
0000
,
2100
0000
3100
1000
0000
0001
0100
0001
,
0020
0000
0130
1000
0000
0001
0100
0000
,
0110
0000
0000
1010
0000
0000
1001
0000
,
0001
0010
0001
0010
0200
0000
0320
0000
,
0032
0000
1003
0010
0100
0010
1000
0001
,
0010
0100
0010
0100
1000
0100
0010
0001
,
0100
0010
0010
1000
0010
0010
1000
0001
,
2000
0000
0000
3100
0100
0010
0001
1000
,
0000
0001
0001
0001
,
1020
0000
0130
0000
0001
1000
0001
0000
,
0020
0000
0130
0000
1000
0001
1000
0020
,
0000
0000
0230
0000
0301
1000
0001
0000
,
0010
0000
0100
1000
0000
1000
0100
0000
,
2001
0000
3010
0000
0100
0010
1000
0000
,
0200
0000
0310
0001
0000
0010
0100
2000
,
0000
3010
0100
0001
0000
0001
0100
0010
,
0000
1010
1100
0011
,
1200
0000
0310
0000
0001
1000
0010
0000
,
0200
0000
0310
1000
0000
0001
1000
0200
,
0000
0000
0310
0000
0001
0100
0010
0000
,
1000
0100
1000
0010
0000
0010
0100
0000
,
0101
0000
0002
0000
1003
0001
0010
0000
,
0100
0000
0010
0001
1000
0001
0100
0000
,
0110
0000
0020
0000
1030
0010
1000
0000
,
0100
0000
0010
0001
0100
0010
1000
0000
,
1100
0000
0200
0000
0310
0001
1000
0000
,
0010
0000
0100
0010
0001
0010
1000
0000
,
1001
0000
0001
0010
0000
1000
0010
0000
,
0100
0010
0001
1000
0010
0100
0100
0001
,
1000
1000
0010
0000
0100
0001
0000
0001
,
0010
0000
0100
0000
0000
0000
1000
0100
1000
0000
0000
0000
0001
0000
1000
0010
,
1000
0001
0010
0100
0010
0100
1000
0001
,
1000
0000
0001
0100
0001
0000
1000
0000
0100
0000
0010
0000
0100
0000
1000
0001
,
1000
0000
0010
0100
0010
0000
1000
0000
0001
0000
0010
0000
0100
0000
0001
0000
,
0100
0000
0002
0000
0000
0000
0103
0000
1000
0000
0001
0000
0100
0000
0010
1000
,
0010
0100
0001
0010
0100
1000
0001
0100
,
0001
0000
0100
0000
0100
0010
1000
0000
0001
0000
1000
0000
0100
0000
1000
0001
,
0100
0000
0010
1000
0001
1000
0100
0100
,
0000
0000
0010
0000
0000
0000
0001
0000
1000
0000
0010
0000
0100
0000
0001
1000
,
0001
0010
0100
0010
0100
1000
0010
0100
,
0001
0000
1000
0100
1000
0000
0001
0000
0010
0000
0001
0000
1000
0000
0010
0100
,
0010
0000
1000
0010
1000
0000
0001
0000
0010
0000
0100
0000
0010
0000
1000
0000
,
0010
0000
2000
0000
0000
0000
3010
0000
0100
0000
1000
0000
0001
0000
0100
0010
,
0100
0001
0010
0100
0010
0100
1000
0001
,
1000
0000
0001
0000
0001
1000
0010
0000
0100
0000
0010
0000
1000
0000
0001
0010
,
0100
1000
0001
0100
0010
1000
0001
0100
,
0001
0000
0200
0000
0000
0000
0310
0000
0010
0000
2002
0000
0000
0000
0000
3003
;

//---------------dance-single - Loodee----------------
#NOTES:
     dance-single:
     Loodee:
     Medium:
     7:
     0.528,0.540,0.163,0.399,0.000:
0000
0000
0000
0000
,
0000
0000
0000
0000
,
0000
0000
0000
0000
,
0000
0000
0000
0000
,
0000
0000
0000
0000
,
0000
0000
0000
0000
,
0002
0000
0000
0000
,
0023
0000
0000
0000
,
0230
0000
0000
0000
,
0320
0000
0000
0000
0000
0031
1000
0000
,
0020
0000
0000
1030
,
0002
0000
1003
0100
1000
0100
1000
0002
,
0000
1003
0010
1000
0000
0100
0000
0010
,
0000
0001
0010
0000
0000
0000
0000
0000
,
0001
1000
0010
0000
0010
1000
0100
0010
,
0000
0010
0000
0010
0000
0001
1000
0000
,
0010
0000
0100
0010
1000
0001
0000
0000
,
0010
0001
0010
0001
0000
0010
0100
0000
,
1000
0000
0100
0010
0100
1000
0001
0100
,
0000
0100
0000
0100
0000
0010
1000
0000
,
0001
0000
0010
0001
1000
0010
0000
0000
,
0010
0100
0010
0200
0000
0000
0300
0000
,
0102
0000
0000
0000
,
0000
0000
0003
1001
,
1000
0000
0100
1000
0000
0100
1000
0000
,
0001
0100
0001
0100
0010
0000
1000
0010
,
0000
0000
1000
0001
1000
0000
0100
0010
,
0001
1000
0001
0200
0000
0301
0000
0000
,
1000
0000
1000
0100
0000
0200
0000
0000
,
1300
0000
1000
0002
0000
0000
0003
0000
,
0100
0010
0100
0010
0000
0000
0010
0000
,
1000
0100
1000
0200
0000
0310
0000
0000
,
0001
0000
0001
2000
0000
3000
0010
0000
,
0110
0000
0000
1001
0000
0000
1001
0000
,
1000
0100
1000
0000
0001
0100
0001
0000
,
1000
0100
0010
0001
0000
1000
0010
0000
,
0100
0010
0100
0020
0000
0030
1000
0000
,
2001
0000
3000
0002
0000
0000
0023
0000
,
0130
0000
1000
0100
0000
0000
0100
0010
,
0001
0000
1000
0001
0000
0000
0100
0000
,
0110
0000
0000
0110
0000
0000
2002
0000
,
0000
3003
0000
0000
1000
0000
0100
0000
,
0020
0000
0000
0230
0000
0000
0320
0000
,
0032
0003
2000
3020
,
0230
0000
0000
0320
0000
0000
0230
0000
,
0302
0000
0000
0000
1003
0010
0100
0001
,
0000
0000
0000
0000
,
0200
0000
1300
0000
0001
1000
0001
0000
,
0200
0000
0310
0000
1000
0100
1000
0000
,
0002
0000
0203
0000
0301
0100
0000
0000
,
0010
0000
1000
0001
0000
1000
0000
0000
,
0200
0000
0310
0000
0001
0100
0001
0000
,
2000
0000
3010
0100
0000
0001
0000
1000
,
0000
0100
0010
0100
0000
1000
0001
1000
,
0000
0101
0101
0101
,
0002
0000
1003
0000
0100
0010
0100
0000
,
2000
0000
3100
1000
0000
0001
0000
0000
,
0200
0000
0320
0000
0130
0010
0000
0000
,
1000
0000
0100
0010
0000
0001
0000
0000
,
2000
0000
3010
0000
0100
0010
0000
0000
,
1000
0000
0001
0010
0001
0000
0100
0000
,
0002
0000
1003
0000
0010
1000
0000
0000
,
0001
0000
0010
0100
0010
0000
0001
0000
,
0200
0000
0310
0000
1000
0010
1000
0000
,
0001
0000
0010
0000
0100
1000
0100
0000
,
1100
0000
0000
1100
0000
0000
0101
0000
,
0000
0101
0000
0000
1001
0000
0000
1001
,
0000
0000
0001
0000
1000
0001
0000
0010
,
0100
0010
0000
0000
0000
0000
0001
0000
,
1000
0010
1000
0010
0100
0001
0000
0001
,
0000
0010
0000
0100
1000
0000
0010
0000
,
0100
0010
1000
0010
0000
0000
1000
0001
,
1000
0001
0000
0010
0100
0000
1000
0000
,
0010
1000
0001
1000
0100
0010
0000
0010
,
0000
0001
0000
1000
0010
0000
0100
0000
,
0010
0100
0001
0100
0000
0000
0001
1000
,
0000
0001
0000
0010
0100
0010
0100
0000
,
1000
0001
1000
0010
0100
0010
0000
0010
,
0000
0100
0000
0001
1000
0000
0100
0000
,
0010
0001
0010
0001
0000
0000
1000
0010
,
1000
0001
0010
0001
0010
0001
1000
0000
,
0010
0100
0010
1000
0001
1000
0000
1000
,
0000
0100
0000
0010
0001
0000
0100
0000
,
0001
0010
0001
0010
0000
0000
0100
1000
,
0100
0000
1000
0000
0000
0000
0001
0000
1000
0000
0020
0000
0000
0000
0000
0030
;

//---------------dance-single - Loodee----------------
#NOTES:
     dance-single:
     Loodee:
     Easy:
     4:
     0.331,0.347,0.045,0.354,0.000:
0000
0000
0000
0000
,
0000
0000
0000
0000
,
0000
0000
0000
0000
,
0000
0000
0000
0000
,
0000
0000
0000
0000
,
0000
0000
0000
0000
,
0002
0000
0000
0000
,
0023
0000
0000
0000
,
0032
0000
0000
0000
,
2003
0000
0000
0000
0000
3000
0000
0000
,
0020
0000
0000
0130
,
0010
0000
0000
0000
0000
1000
0000
0001
,
0000
0000
0000
0010
0000
0010
0000
0001
,
0000
0000
0000
0000
,
1000
0000
0010
0000
0100
0000
0000
0001
,
0000
0001
0000
0001
0000
0000
1000
0000
,
0100
0010
0001
0000
,
0100
0100
0010
0010
,
1000
0000
0001
0000
1000
0000
0000
0100
,
0000
0100
0000
0100
0000
0000
0010
0000
,
0001
0100
0001
0000
,
1000
1000
0000
0001
,
0200
0000
0000
0000
,
0000
0000
0300
0001
,
1000
0000
0000
1000
0000
0000
1000
0000
,
0010
0100
0010
0100
,
0000
0001
1000
0001
,
1000
0100
1000
0100
,
0020
0000
0000
0031
,
2000
0000
0000
3001
,
0100
0010
0100
0010
,
1000
0001
1000
0001
,
0020
0000
0000
0130
,
1000
0000
0000
1000
0000
0000
1000
0000
,
0001
0100
0001
0100
,
0010
1000
0010
1000
,
0002
0000
0000
0003
,
0220
0000
0000
0330
,
1000
0001
1000
0010
,
0100
0001
0100
0010
,
2000
0000
0000
3200
0000
0000
0320
0000
,
0000
0030
0000
0000
0001
0000
1000
0000
,
0002
0000
0000
0203
0000
0000
0301
0000
,
1000
0000
0100
0010
,
0002
0000
0000
2003
0000
0000
3001
0000
,
2002
0000
0000
0000
,
3003
0000
0000
0000
,
2000
0000
0000
3010
0000
0000
0000
0000
,
2000
0000
0000
3010
0000
0100
0000
0002
,
0000
0000
1003
0001
,
2000
0000
0000
3001
,
0020
0000
0130
0100
,
2000
0000
0000
0000
3000
0010
0000
0100
,
0000
0000
0000
0000
,
0000
1001
0000
0001
,
0020
0000
0000
0031
0000
0000
0000
0000
,
0020
0000
0000
0031
0000
1000
0000
0020
,
0000
0000
0130
0001
,
0200
0000
0000
0000
0000
0300
0010
0000
,
2000
0000
3001
0001
,
0200
0000
0310
0010
,
2000
0000
3100
0100
,
0020
0000
0031
0001
,
0200
0000
0310
1000
,
0002
0000
0013
0100
,
1000
0000
0000
0001
0000
0000
1000
0000
,
0000
0010
0000
0000
0100
0000
0000
0010
,
0000
1001
0000
0000
,
0000
0000
0000
0001
,
1000
0000
0010
0000
0000
0100
0000
0100
,
0000
0100
0000
0000
0001
0000
1000
0000
,
0100
0010
0000
0100
,
0100
1000
1000
0001
,
0100
0000
0010
0000
0000
1000
0000
1000
,
0000
1000
0000
0000
0001
0000
0100
0000
,
0100
0010
1000
0001
,
0000
0000
0000
1000
,
0100
0000
1000
0000
0000
0001
0000
0010
,
0000
0001
0000
0000
1000
0000
0010
0000
,
0100
0010
0000
1000
,
1000
0001
0001
0010
,
0100
0000
0010
0000
0000
0001
0000
1000
,
0000
0001
0000
0000
0100
0000
0010
0000
,
1000
0010
0000
1000
,
0010
0000
0000
0000
0000
2002
0000
3003
;
