#TITLE:アゲアゲマネ;
#SUBTITLE:~おちんぎん大作戦~;
#ARTIST:LADYBABY;
#TITLETRANSLIT:Age Age Money;
#SUBTITLETRANSLIT:~ochingin daisakusen~;
#ARTISTTRANSLIT:;
#GENRE:;
#CREDIT:mf32892;
#BANNER:Age Age Money-bn.png;
#BACKGROUND:Age-Age Money-jacket.jpg;
#LYRICSPATH:;
#CDTITLE:cdtitle.png;
#MUSIC:Age-Age Money.ogg;
#OFFSET:0.518590;
#SAMPLESTART:56.796932;
#SAMPLELENGTH:12.000000;
#SELECTABLE:YES;
#BPMS:0.000000=198.852997
,124.000000=197.994003
,133.500000=201.613007
,136.000000=198.794006
,140.000000=199.214005
,152.000000=199.272995
,188.000000=199.067001
,252.000000=205.973999
,253.000000=198.975006
,318.000000=99.502998
,326.000000=198.686996
,375.000000=199.427002
,405.000000=199.007004
;
#STOPS:315.500000=1.831000,
341.500000=0.886000
;
#BGCHANGES:3.000=Age-Age Money.mp4=1.000=0=0=0=StretchNoLoop==FadeCenterVertical==,
99999=-nosongbg-=1.000=0=0=0 // don't automatically add -songbackground-
;
#KEYSOUNDS:;
#ATTACKS:;

//---------------dance-single - ----------------
#NOTES:
     dance-single:
     :
     Hard:
     9:
     0.727054,0.700204,0.086261,0.358314,0.053083,700.000000,13.000000,54.000000,0.000000,0.000000,0.000000,0.727054,0.700204,0.086261,0.358314,0.053083,700.000000,13.000000,54.000000,0.000000,0.000000,0.000000:
// measure 0
0000
0000
0000
0000
,  // measure 1
0000
0000
0000
0000
,  // measure 2
0000
0000
0000
0000
,  // measure 3
0000
0000
0000
0000
,  // measure 4
0000
0000
0000
0000
,  // measure 5
1000
0000
1000
0000
0200
0000
0310
0001
,  // measure 6
0000
0001
0100
0010
1000
0100
1000
0001
,  // measure 7
0100
0000
0100
0000
0020
0000
1030
0100
,  // measure 8
0000
0100
0010
0001
1000
0001
0100
0001
,  // measure 9
0010
0000
0010
0000
0200
0000
1300
0010
,  // measure 10
0000
0010
0100
0001
1000
0001
0010
0100
,  // measure 11
1000
0000
1000
0000
0020
0000
1030
0001
,  // measure 12
0000
0001
0100
0010
1000
0100
0010
0001
,  // measure 13
0101
0000
0000
0110
0000
0000
2002
0000
,  // measure 14
0000
0000
0000
3003
,  // measure 15
0001
0010
0001
0010
0100
0010
1000
0010
,  // measure 16
0001
0100
0001
0100
0010
0100
1000
0100
,  // measure 17
0001
0010
1000
0000
1000
0010
0001
0000
,  // measure 18
1000
0010
0100
0010
0002
0000
0013
2000
,  // measure 19
0000
3100
0010
0001
0100
0010
0100
0001
,  // measure 20
0000
0001
0010
0100
1000
0001
0100
1000
,  // measure 21
0000
1000
0100
0001
1000
0100
0010
0001
,  // measure 22
0000
1000
0100
0010
0000
1001
0000
0000
,  // measure 23
1000
0010
1000
0010
0100
0010
0001
0010
,  // measure 24
1000
0100
1000
0100
0010
0100
0001
0100
,  // measure 25
1000
0010
0001
0000
0001
0010
1000
0000
,  // measure 26
0001
0010
0100
0010
2000
0000
3010
0001
,  // measure 27
0000
0100
0010
1000
0100
0010
0100
1000
,  // measure 28
0000
1000
0010
0100
0001
1000
0100
0001
,  // measure 29
0000
0001
0100
1000
0001
0100
0010
1000
,  // measure 30
0000
0001
0010
0100
0000
0000
0110
0000
,  // measure 31
0001
0010
0001
0001
0000
0000
0000
0000
,  // measure 32
1000
0100
1000
1000
0000
0000
0000
0000
,  // measure 33
1000
0010
1000
1000
0000
0000
0000
0000
,  // measure 34
0001
0100
0001
0001
0000
0001
0010
0100
,  // measure 35
1000
0000
0001
1000
0000
1000
0100
0000
,  // measure 36
0010
0000
0001
0100
0000
0010
1000
0000
,  // measure 37
0001
0001
1000
0100
0000
1000
0001
0000
,  // measure 38
0100
0010
1000
0100
0010
0001
0100
0000
,  // measure 39
0010
0000
1000
0100
0010
0001
0100
0010
,  // measure 40
1000
0100
1000
0100
0010
0001
1000
0001
,  // measure 41
0100
0010
0100
0010
1000
0100
0010
0001
,  // measure 42
1000
0010
1000
0010
0001
0010
1000
0001
,  // measure 43
0010
0000
0100
0010
0000
1000
0010
0000
,  // measure 44
0001
0100
0010
1000
0001
0010
0100
0000
,  // measure 45
1000
0010
1000
0100
0010
0001
1000
0000
,  // measure 46
0001
0100
0001
0100
0001
0100
0001
0100
0001
0000
0000
0000
0000
0000
0000
0000
,  // measure 47
1000
0010
1000
0010
0100
0010
1000
0000
,  // measure 48
0001
0010
0001
0010
0100
0010
0001
0000
,  // measure 49
0001
0010
0100
0010
1000
0010
0001
0100
,  // measure 50
0020
0000
1030
0000
0100
0010
0001
0000
,  // measure 51
0100
0001
0100
0001
0010
0100
1000
0010
,  // measure 52
0100
0001
1000
0100
0002
0000
0103
0000
,  // measure 53
1000
0010
0100
0010
0001
0010
0100
0010
,  // measure 54
1000
0000
0100
0000
0001
0000
0100
0000
1000
0000
0001
0100
0001
0100
0001
0100
,  // measure 55
0001
0100
0001
0100
0010
0100
0001
0000
,  // measure 56
1000
0100
1000
0100
0010
0100
1000
0000
,  // measure 57
0001
0010
0100
0010
1000
0010
0001
0100
,  // measure 58
0020
0000
1030
0000
0001
0010
0100
0000
,  // measure 59
1000
0010
1000
0010
0100
0010
0001
0010
,  // measure 60
1000
0100
0010
0001
2000
0000
3001
0000
,  // measure 61
0001
0010
0100
0010
1000
0010
0001
0100
,  // measure 62
0020
0000
0000
0000
1030
0000
0001
1000
0001
0000
1000
0000
0001
0000
0001
0000
,  // measure 63
0020
0000
0130
0010
0100
0010
0001
1000
,  // measure 64
0001
0100
0010
1000
0100
0010
0001
1000
,  // measure 65
0020
0100
0230
0001
,  // measure 66
0302
1000
2003
3200
,  // measure 67
0310
0000
0001
1000
0001
1000
0001
1000
,  // measure 68
0010
0100
1000
0100
0001
0010
0100
1000
,  // measure 69
0002
0010
0023
0100
,  // measure 70
0230
0010
0320
0031
,  // measure 71
1000
0000
0001
0100
0001
0100
0010
0100
,  // measure 72
0001
0010
0100
1000
0010
0100
0001
0010
,  // measure 73
0002
0100
0203
0010
,  // measure 74
0320
1000
2030
0001
,  // measure 75
3002
0000
0013
0100
0010
0100
1000
0100
,  // measure 76
0001
0100
1000
0100
0010
0001
1000
0010
,  // measure 77
0200
0000
0301
0010
0200
0000
1300
0001
,  // measure 78
0200
0000
0000
0000
0310
0000
0000
1000
0001
0000
0010
0000
0100
0000
1000
0000
,  // measure 79
0000
1000
0001
0000
0202
0000
0000
0303
,  // measure 80
2200
0000
0000
3300
0022
0000
0000
0033
,  // measure 81
2002
0000
0000
3003
1000
0000
0100
1000
,  // measure 82
0100
1000
0010
1000
0100
0010
0001
1000
,  // measure 83
0001
0100
0001
0100
0010
0000
0100
1000
,  // measure 84
0000
0100
0010
1000
0001
0010
0001
0010
,  // measure 85
0001
0010
0001
0010
0001
0000
1000
0010
,  // measure 86
1000
0010
0100
0010
1000
0000
0001
0010
,  // measure 87
0001
0010
0100
0010
0001
0000
0001
0010
,  // measure 88
0100
0010
1000
0010
0001
0100
0020
0000
,  // measure 89
1030
0000
0100
0010
0001
0000
0100
0001
,  // measure 90
0100
0001
0010
0100
1000
0010
0100
0001
,  // measure 91
1000
0100
0002
0000
0103
0000
1000
0010
,  // measure 92
0100
0010
0001
0010
0100
0010
1000
0000
,  // measure 93
0001
0000
0000
0000
1000
0000
0001
0100
0001
0100
0001
0100
0001
0000
0100
0000
,  // measure 94
0001
0100
0010
0100
0001
1000
0100
0010
,  // measure 95
0100
0010
0100
1000
0001
1000
0001
0010
,  // measure 96
0100
0010
1000
0010
0001
0100
0010
1000
,  // measure 97
0100
1000
0001
0010
0100
0000
1000
0010
,  // measure 98
1000
0010
0100
0010
0001
0010
1000
0100
,  // measure 99
0010
0001
2000
0000
3001
0000
0001
0010
,  // measure 100
0100
0010
1000
0010
0001
0100
0020
0000
,  // measure 101
0030
0000
1000
0010
0100
0010
0001
0010
,  // measure 102
1000
0001
0020
0000
0030
0000
0100
0010
,  // measure 103
0001
1000
0001
0100
0010
1000
0200
0000
,  // measure 104
0300
0000
0000
0000
0010
0001
0010
0001
0010
0001
0010
0001
1000
0000
0000
0000
,  // measure 105
1000
0000
0020
0000
0130
0001
0000
0001
,  // measure 106
0010
0100
1000
0010
1000
0001
0010
0000
,  // measure 107
0010
0000
0200
0000
1300
0010
0000
0010
,  // measure 108
0100
0001
1000
0001
0010
0001
0100
0000
,  // measure 109
0100
0000
0020
0000
1030
0100
0000
0100
,  // measure 110
0010
0001
1000
0001
0100
0010
1000
0000
,  // measure 111
1000
0000
0200
0000
1300
0001
0000
0001
,  // measure 112
0010
0100
1000
0010
0100
0001
0011
0000
,  // measure 113
0000
0110
0000
0000
2002
0000
0000
0000
,  // measure 114
0000
0000
3003
0220
,  // measure 115
0000
0000
0000
0000
,  // measure 116
0000
0000
0000
0000
,  // measure 117
0000
0330
0000
0000
;

//---------------dance-single - ----------------
#NOTES:
     dance-single:
     :
     Medium:
     8:
     0.610460,0.700204,0.418032,0.437939,0.000000,515.000000,63.000000,66.000000,0.000000,0.000000,0.000000,0.610460,0.700204,0.418032,0.437939,0.000000,515.000000,63.000000,66.000000,0.000000,0.000000,0.000000:
// measure 0
0000
0000
0000
0000
,  // measure 1
0000
0000
0000
0000
,  // measure 2
0000
0000
0000
0000
,  // measure 3
0000
0000
0000
0000
,  // measure 4
0000
0000
0000
0000
,  // measure 5
1000
0000
1000
0000
0200
0000
0310
0001
,  // measure 6
0000
0001
1000
0000
0001
0000
0100
0000
,  // measure 7
0010
0000
0010
0000
2000
0000
3001
0010
,  // measure 8
0000
0010
0100
0000
1000
0001
1000
0000
,  // measure 9
0010
0000
0010
0000
0200
0000
0301
1000
,  // measure 10
0000
1000
0100
0000
0010
0000
0001
0000
,  // measure 11
1000
0000
1000
0000
0002
0000
0103
0010
,  // measure 12
0000
0010
1000
0000
0001
1000
0001
0000
,  // measure 13
1001
0000
0000
1001
0000
0000
0220
0000
,  // measure 14
0000
0000
0000
0330
,  // measure 15
1000
0100
0110
0011
,  // measure 16
0001
0100
0110
1010
,  // measure 17
0002
0010
2003
0010
,  // measure 18
3001
0000
0010
0000
0100
0000
1000
0100
,  // measure 19
0000
0100
1000
0000
0010
0000
0100
0001
,  // measure 20
0000
0001
0100
0000
0010
0000
1000
0001
,  // measure 21
0000
0001
1000
0000
0001
0000
0010
0100
,  // measure 22
0000
0100
0010
0001
0000
1001
0000
0000
,  // measure 23
1000
0010
0110
0101
,  // measure 24
0001
0010
0110
1100
,  // measure 25
2000
0010
3002
0010
,  // measure 26
1003
0000
0010
0000
0200
0000
0301
0100
,  // measure 27
0000
0100
0001
0000
1000
0000
0100
1000
,  // measure 28
0000
1000
0100
0000
0010
0000
0001
1000
,  // measure 29
0000
1000
0001
0000
0100
0000
0010
1000
,  // measure 30
0000
1000
0100
0010
0000
0000
0110
0000
,  // measure 31
0001
1000
0001
1000
0000
0000
0000
0000
,  // measure 32
0010
0100
0010
0100
0000
0000
0000
0000
,  // measure 33
0001
1000
0001
1000
0000
0000
0000
0000
,  // measure 34
0100
0010
0100
0010
0000
0010
0001
0000
,  // measure 35
1000
0000
0010
1000
0000
1000
0001
0000
,  // measure 36
0010
0000
0001
0100
0000
0100
0010
0000
,  // measure 37
1000
0000
0001
0010
0000
0010
0100
0000
,  // measure 38
1000
0010
1000
0010
0100
0000
0010
0000
,  // measure 39
1000
0000
0100
0000
1000
0100
1000
0100
,  // measure 40
0010
0000
0001
0000
0010
0001
0010
0001
,  // measure 41
1000
0000
0001
0000
1000
0001
1000
0001
,  // measure 42
0100
0000
0010
0000
0100
0010
0100
0010
,  // measure 43
1000
0000
0001
0100
0000
0010
1000
0000
,  // measure 44
0001
0000
1000
0000
0100
0010
0001
0000
,  // measure 45
1000
0001
1000
0001
1000
0001
1000
0001
,  // measure 46
0020
0000
0130
0010
,  // measure 47
0021
0000
0100
0000
1030
0010
0001
0000
,  // measure 48
1020
0000
0100
0000
0031
0010
1000
0000
,  // measure 49
0001
0011
1000
1010
,  // measure 50
1001
0000
1000
0000
0001
1000
0100
0000
,  // measure 51
0010
0100
0010
0000
0100
1000
0100
0000
,  // measure 52
0010
0001
0010
0001
2000
0000
3010
0000
,  // measure 53
2010
3001
0012
1003
,  // measure 54
0001
1000
0001
1000
0001
1000
0001
0000
,  // measure 55
1020
0000
0100
0000
0031
0010
1000
0000
,  // measure 56
0021
0000
0100
0000
1030
0010
0001
0000
,  // measure 57
1000
1010
0001
0011
,  // measure 58
1001
0000
0001
0000
1000
0001
0100
0000
,  // measure 59
0010
0100
0010
0000
1000
0010
1000
0000
,  // measure 60
0010
1000
0010
1000
0002
0000
0013
0000
,  // measure 61
0011
1001
1010
1001
,  // measure 62
0110
0000
0100
0000
0010
0100
0010
0100
,  // measure 63
0002
0010
1000
0100
,  // measure 64
1000
1000
0010
0013
,  // measure 65
0200
1000
0320
0001
,  // measure 66
0032
0100
0103
0110
,  // measure 67
2000
0010
0001
0100
,  // measure 68
0001
0001
0010
0010
,  // measure 69
3002
0010
2003
0100
,  // measure 70
3002
0100
2003
0010
,  // measure 71
3002
0100
1000
0010
,  // measure 72
1000
1000
0100
0100
,  // measure 73
2003
0100
3002
0010
,  // measure 74
2003
0010
3001
1001
,  // measure 75
2000
0100
0001
0010
,  // measure 76
0001
0001
0100
0100
,  // measure 77
3002
0000
0103
0001
2000
0000
3100
1000
,  // measure 78
0002
0000
1003
0000
0001
0010
0100
1000
,  // measure 79
0000
0010
0202
0303
,  // measure 80
2200
3300
0220
0330
,  // measure 81
0022
0000
0033
0000
1000
0000
0001
0100
,  // measure 82
0001
0100
0001
0100
0010
0000
1000
0000
,  // measure 83
0001
0000
1000
0000
0001
0000
0010
0100
,  // measure 84
0000
1000
0001
0000
1000
0001
1000
0001
,  // measure 85
1000
0001
1000
0001
0000
0000
0021
0000
,  // measure 86
0100
0000
1030
0010
0001
0000
1020
0000
,  // measure 87
0100
0000
0031
0010
1000
0000
0001
0000
,  // measure 88
0011
1000
1010
1001
,  // measure 89
1000
0000
0001
1000
0100
0000
0010
0100
,  // measure 90
0010
0000
0100
1000
0100
0000
0010
0001
,  // measure 91
0010
0001
2000
0000
3010
0000
0102
0000
,  // measure 92
1003
0000
2100
0000
3001
0000
1000
0001
,  // measure 93
1000
0000
0100
0000
0110
0000
0010
0001
,  // measure 94
0010
0001
0010
0001
1000
0000
0001
1000
,  // measure 95
0001
1000
0001
1000
0010
0000
0100
0010
,  // measure 96
0100
0010
0100
0010
1000
0000
0001
0010
,  // measure 97
0001
0010
0001
0010
0100
0000
1000
0100
,  // measure 98
1000
0000
0001
0010
0001
0000
0100
0010
,  // measure 99
0100
0010
2000
0000
3001
0000
0011
0000
,  // measure 100
0110
1100
0101
0220
,  // measure 101
0330
1010
0110
0101
,  // measure 102
1100
0220
0330
0011
,  // measure 103
0110
1100
0101
0220
,  // measure 104
0030
0002
0303
1000
,  // measure 105
1000
0000
0200
0000
0310
0001
0000
0001
,  // measure 106
1000
0001
0100
0010
,  // measure 107
0010
0000
2000
0000
3001
0010
0000
0010
,  // measure 108
0100
0000
1000
0001
1000
0000
0010
0000
,  // measure 109
0010
0000
0200
0000
0301
1000
0000
1000
,  // measure 110
0100
0010
0001
1000
,  // measure 111
1000
0000
0002
0000
0103
0010
0000
0010
,  // measure 112
1000
0000
0001
1000
0001
0000
1001
0000
,  // measure 113
0000
1001
0000
0000
0220
0000
0000
0000
,  // measure 114
0000
0000
0330
2002
,  // measure 115
0000
0000
0000
0000
,  // measure 116
0000
0000
0000
0000
,  // measure 117
0000
3003
0000
0000
;

//---------------dance-single - ----------------
#NOTES:
     dance-single:
     :
     Easy:
     5:
     0.396230,0.622404,0.185792,0.391491,0.000000,331.000000,28.000000,59.000000,0.000000,0.000000,0.000000,0.396230,0.622404,0.185792,0.391491,0.000000,331.000000,28.000000,59.000000,0.000000,0.000000,0.000000:
// measure 0
0000
0000
0000
0000
,  // measure 1
0000
0000
0000
0000
,  // measure 2
0000
0000
0000
0000
,  // measure 3
0000
0000
0000
0000
,  // measure 4
0000
0000
0000
0000
,  // measure 5
2000
0001
3001
0000
,  // measure 6
0001
1000
0001
0010
,  // measure 7
0200
1000
1300
0000
,  // measure 8
1000
0001
1000
0010
,  // measure 9
0200
0001
0301
0000
,  // measure 10
0001
1000
0001
0010
,  // measure 11
0200
0010
0310
0000
,  // measure 12
0100
0010
0001
1000
,  // measure 13
0010
0000
0000
0100
0000
0000
0002
0000
,  // measure 14
0000
0000
0000
0003
,  // measure 15
1000
0100
1000
0100
,  // measure 16
0010
0001
0010
0001
,  // measure 17
2000
0000
3020
0000
,  // measure 18
0130
0000
0001
0000
2000
0000
0000
3100
,  // measure 19
0000
0000
0100
0000
0010
0000
0000
0001
,  // measure 20
0000
0000
0001
0000
1000
0000
0000
0010
,  // measure 21
0000
0000
0010
0000
0100
0000
0000
0001
,  // measure 22
0000
0000
0000
1000
0000
1001
0000
0000
,  // measure 23
0001
0010
0001
0010
,  // measure 24
0100
1000
0100
1000
,  // measure 25
0002
0000
0203
0000
,  // measure 26
0310
0000
1000
0000
0002
0000
0000
0013
,  // measure 27
0000
0000
0010
0000
0100
0000
0000
1000
,  // measure 28
0000
0000
1000
0000
0001
0000
0000
0100
,  // measure 29
0000
0000
0100
0000
0010
0000
0000
1000
,  // measure 30
0000
0000
0000
0001
0000
0000
0010
0000
,  // measure 31
0001
0001
0000
0000
,  // measure 32
1000
1000
0000
0000
,  // measure 33
0010
0010
0000
0000
,  // measure 34
0100
0100
0000
0000
,  // measure 35
0001
0000
0000
0001
0000
0000
0000
0000
,  // measure 36
1000
0000
0000
1000
0000
0000
0000
0000
,  // measure 37
0100
0000
0000
0100
0000
0000
0000
0000
,  // measure 38
0010
0001
1000
0010
,  // measure 39
0200
0000
0310
1000
,  // measure 40
0002
0000
0023
0000
,  // measure 41
0031
0010
0100
1000
,  // measure 42
0002
0000
1003
0100
,  // measure 43
0020
0000
0130
0010
,  // measure 44
0001
1000
0001
0100
,  // measure 45
0020
0000
0000
0000
,  // measure 46
2030
0000
3001
0000
,  // measure 47
0002
0010
1003
0000
,  // measure 48
2000
0010
3001
0000
,  // measure 49
0001
0010
0100
1000
,  // measure 50
0002
0003
0100
0100
,  // measure 51
0001
0010
0100
1000
,  // measure 52
0010
0100
0002
0003
,  // measure 53
0010
0100
1000
0100
,  // measure 54
0020
0000
0130
0110
,  // measure 55
2000
0010
3001
0000
,  // measure 56
0002
0010
1003
0000
,  // measure 57
1000
0010
0100
0001
,  // measure 58
1000
0000
1000
0100
,  // measure 59
0010
0010
0100
1000
,  // measure 60
0010
0100
0002
0000
,  // measure 61
0013
0100
1000
0001
,  // measure 62
1000
0000
0000
0000
,  // measure 63
1000
0001
0001
0010
,  // measure 64
0100
1000
0100
1000
,  // measure 65
0002
0000
0203
0000
,  // measure 66
0320
0000
1030
1001
,  // measure 67
0000
1000
0010
1000
,  // measure 68
0010
0100
0001
1000
,  // measure 69
0200
0000
0320
0000
,  // measure 70
0032
0000
2003
0000
,  // measure 71
3000
0002
0000
0103
,  // measure 72
0001
0010
0100
1000
,  // measure 73
0002
0000
0203
0000
,  // measure 74
0320
0000
2030
0000
,  // measure 75
3001
0010
0010
0100
,  // measure 76
0010
0010
0001
1000
,  // measure 77
0020
0030
0200
0300
,  // measure 78
0002
0000
0000
0000
0000
0000
0000
0003
,  // measure 79
0000
0000
2000
0000
,  // measure 80
3020
0000
0230
0000
,  // measure 81
0302
0000
1003
1000
,  // measure 82
0001
0001
1000
0100
,  // measure 83
0010
0000
0001
0010
,  // measure 84
0100
0010
0002
0000
,  // measure 85
0000
0000
0000
0003
0000
0000
2000
0000
,  // measure 86
0010
3001
0000
0002
,  // measure 87
0010
1003
0000
0010
,  // measure 88
0110
0100
0110
1001
,  // measure 89
0000
1000
0100
0010
,  // measure 90
0010
0100
1000
0010
,  // measure 91
0100
0002
0000
0013
,  // measure 92
0100
1000
0010
0200
,  // measure 93
0000
0310
0110
1000
,  // measure 94
0100
0010
0011
0001
,  // measure 95
0100
0010
1010
0100
,  // measure 96
0110
0100
0110
1001
,  // measure 97
1000
0001
0010
0110
,  // measure 98
0100
1000
0010
1000
,  // measure 99
0100
0020
0030
0011
,  // measure 100
0011
0011
0011
1001
,  // measure 101
0000
1010
1010
1010
,  // measure 102
1010
1001
0000
1001
,  // measure 103
1001
1001
1001
0220
,  // measure 104
0000
0330
0000
0002
,  // measure 105
1000
1003
0000
1000
,  // measure 106
0001
1000
0100
0020
,  // measure 107
0001
0031
0000
0001
,  // measure 108
1000
0001
0100
0020
,  // measure 109
1000
1030
0000
1000
,  // measure 110
0001
1000
0100
0020
,  // measure 111
0100
0130
0000
0010
,  // measure 112
0100
1000
0001
0100
,  // measure 113
0000
0010
0000
0000
2000
0000
0000
0000
,  // measure 114
0000
0000
3000
0002
,  // measure 115
0000
0000
0000
0000
,  // measure 116
0000
0000
0000
0000
,  // measure 117
0000
0003
0000
0000
;

//---------------dance-single - ----------------
#NOTES:
     dance-single:
     :
     Challenge:
     10:
     0.880617,1.000000,0.510929,0.265417,0.298595,812.000000,77.000000,40.000000,0.000000,0.000000,0.000000,0.880617,1.000000,0.510929,0.265417,0.298595,812.000000,77.000000,40.000000,0.000000,0.000000,0.000000:
// measure 0
0000
0000
0000
0000
,  // measure 1
0000
0000
0000
0000
,  // measure 2
0000
0000
0000
0000
,  // measure 3
0000
0000
0000
0000
,  // measure 4
0000
0000
0000
0000
,  // measure 5
0001
0010
0001
0010
0100
0010
0001
0100
,  // measure 6
0000
0000
0100
0000
0010
0000
1000
0000
0001
0000
0010
0100
0010
0000
0100
0000
,  // measure 7
1000
0010
1000
0010
0100
0010
1000
0100
,  // measure 8
0000
0000
0100
0000
0010
0000
0001
0000
1000
0000
0010
0100
0010
0000
1000
0000
,  // measure 9
0100
0010
0100
0010
0001
0100
1000
0001
,  // measure 10
0000
0000
1000
0000
0100
0000
0001
0000
0010
0000
0100
0010
0100
0000
1000
0000
,  // measure 11
0010
0100
0010
0100
0001
0010
1000
0001
,  // measure 12
0000
0000
1000
0000
0010
0000
0001
0000
0100
0000
0010
0100
0010
0000
1000
0000
,  // measure 13
1010
0000
0000
0101
0000
0000
0012
0000
,  // measure 14
0000
0000
1000
0000
0000
0000
0103
0010
0100
0000
0100
0000
0001
0000
1000
0000
,  // measure 15
1100
0000
0000
0000
0110
0000
0001
0010
0001
0000
1000
0001
1000
0000
0001
0100
,  // measure 16
0010
0000
0000
0000
0110
0000
1000
0010
1000
0000
0001
1000
0001
0000
1000
0100
,  // measure 17
0010
0000
0000
0000
0110
0000
1000
0100
1000
0000
0001
1000
0001
0000
0010
0100
,  // measure 18
1000
0001
1000
0001
0100
0001
0100
0001
0100
0010
1000
0001
1000
0000
0220
0000
,  // measure 19
0330
1000
0001
0000
0010
1000
0010
0220
,  // measure 20
0330
0001
1000
0000
0010
0001
0010
0220
,  // measure 21
0330
1000
0001
0000
0100
1000
0100
0220
,  // measure 22
0330
0000
1000
0000
0100
0000
0220
0000
0330
0000
0220
0000
0330
0000
1000
0001
,  // measure 23
0100
0000
0000
0000
0101
0000
1000
0001
1000
0000
0001
1000
0100
0000
1000
0100
,  // measure 24
0010
0000
0000
0000
1100
0000
0001
1000
0001
0000
1000
0001
0100
0000
0001
0100
,  // measure 25
0010
0000
0000
0000
1010
0000
0001
1000
0001
0000
1000
0001
0010
0000
0001
0010
,  // measure 26
0100
1000
0100
0000
1000
0001
1000
0000
0001
0100
0001
0100
0001
0000
0220
0000
,  // measure 27
0330
1000
0001
0000
0100
0010
0001
0220
,  // measure 28
0330
0001
1000
0000
0100
0010
1000
0220
,  // measure 29
0330
1000
0001
0000
0010
0100
0001
0220
,  // measure 30
0330
0001
0100
0220
0330
0000
1001
0000
,  // measure 31
0001
0001
0001
0001
0000
0000
0000
0000
,  // measure 32
1000
1000
1000
1000
0000
0000
0000
0000
,  // measure 33
0100
0100
0100
0100
0000
0000
0000
0000
,  // measure 34
0010
0010
0010
0010
0000
0001
0010
0100
,  // measure 35
1100
0000
0010
0102
0000
1003
0001
0000
,  // measure 36
0101
0000
0010
2100
0000
3001
1000
0000
,  // measure 37
1100
0100
0010
0002
0000
1003
0010
0000
,  // measure 38
0100
0010
0001
0010
1000
0100
0010
0000
,  // measure 39
0100
0000
1000
1000
0100
0100
0010
0010
,  // measure 40
0001
0001
1000
1000
0001
0001
0100
0100
,  // measure 41
1000
1000
0100
0100
0010
0010
0001
0001
,  // measure 42
0010
0010
1000
1000
0001
0010
1000
0010
,  // measure 43
0100
0000
1000
0010
0000
1000
0100
0000
,  // measure 44
0010
0001
0000
1000
0001
0100
0001
0000
,  // measure 45
0100
0100
0100
0010
0010
0010
1000
0001
,  // measure 46
1000
0100
0010
0100
1000
0100
0010
0100
1000
0000
0000
0000
0000
0000
0000
0000
,  // measure 47
0001
0100
1000
0100
0001
0010
1100
0000
,  // measure 48
1000
0010
0001
0010
1000
0100
0011
0000
,  // measure 49
1000
0000
0010
0000
0100
0000
0001
1000
0001
0000
0010
0000
0100
0000
1000
0000
,  // measure 50
1000
0010
1000
0100
0001
0100
1000
0000
,  // measure 51
0001
0000
0100
0000
0010
0000
1000
0001
1000
0000
0100
0000
0010
0000
0001
0000
,  // measure 52
1000
0010
0001
0010
1000
1000
0001
0000
,  // measure 53
0010
0100
1000
0010
0100
1000
0100
0001
,  // measure 54
0010
0000
0010
0000
0100
0000
0100
0000
1000
0000
0001
0100
0001
0100
0001
0100
,  // measure 55
0010
1000
0010
1000
0010
0000
1000
0000
0001
0000
0010
0000
0011
0000
0000
0000
,  // measure 56
0010
0001
0010
0001
0010
0000
0001
0000
1000
0000
0010
0000
1010
0000
0000
0000
,  // measure 57
1000
0100
0010
0100
1000
0000
0000
0000
0001
0100
0010
0100
0001
0000
0000
0000
,  // measure 58
0010
0100
1000
0100
0010
0000
0001
0000
1000
0000
0010
0000
0101
0000
0000
0000
,  // measure 59
0001
0010
0001
0000
0100
0000
0010
0000
1010
0000
0000
0000
1000
0000
0100
0000
,  // measure 60
0000
0100
1000
0001
0011
0010
0110
0100
,  // measure 61
1100
0011
0101
0110
,  // measure 62
2001
0000
0000
0000
3010
0000
0100
0001
0100
0000
0100
0000
0100
0000
0100
0000
,  // measure 63
0010
0000
1000
0100
1000
0100
0010
0100
,  // measure 64
1000
0000
0100
0000
0010
0000
0001
1000
0010
0000
0100
0000
0101
0000
0000
0000
,  // measure 65
0001
0000
0010
0000
0001
0100
0001
0100
,  // measure 66
0010
0000
1000
0000
0100
0000
0010
0100
1000
0000
0010
0000
0110
0000
0000
0000
,  // measure 67
0100
0000
0001
0000
1000
0010
1000
0010
,  // measure 68
0100
0000
0001
0000
0010
0000
0100
1000
0010
0000
1000
0000
0001
0000
0000
0000
,  // measure 69
0010
0000
0100
0000
1000
0010
1000
0010
,  // measure 70
0100
0010
0100
0000
0001
0000
0000
0000
0010
0100
0010
0000
0001
0000
0000
0000
,  // measure 71
1001
0000
0010
0000
0100
1000
0100
1000
,  // measure 72
0010
0000
1000
0000
0100
0000
0010
0000
0001
0010
0001
0000
0100
0000
0000
0000
,  // measure 73
0110
0000
0010
0000
1000
0001
0100
0001
,  // measure 74
0010
0000
0100
0000
0010
0000
0001
0000
0100
0010
0100
0000
0001
0000
0000
0000
,  // measure 75
0011
0000
0010
0000
0100
0001
0100
1000
,  // measure 76
0010
0000
0100
0000
1000
0000
0100
0000
0001
0010
0100
0000
1000
0000
0000
0000
,  // measure 77
1000
0000
0000
0000
0010
0000
0100
0001
1000
0000
0010
0000
1000
0000
0100
1000
,  // measure 78
0001
0000
0010
0000
0100
0000
0000
1000
0001
0000
0010
0000
0100
0000
1000
0000
,  // measure 79
0000
0001
1000
0000
1200
0000
0001
0300
,  // measure 80
0201
0000
1000
0300
1020
0100
0001
0130
,  // measure 81
0210
0000
0010
0310
1000
0000
0001
0001
,  // measure 82
0010
0010
1000
1000
0010
0010
0001
0001
,  // measure 83
0100
1000
0100
0001
0010
0000
0100
1100
,  // measure 84
0000
0010
0011
1000
0001
0001
0100
0100
,  // measure 85
1000
1000
0100
1001
0110
0000
1000
0010
,  // measure 86
0001
0010
1000
0100
0011
0000
0001
0100
,  // measure 87
1000
0100
0001
0010
1100
0000
0001
0100
,  // measure 88
0010
0000
1000
0001
1000
0000
0100
0000
0010
0000
0001
0000
0001
0000
0100
0000
,  // measure 89
0001
0010
1000
0010
0001
0000
1000
0010
,  // measure 90
0100
0000
0001
1000
0001
0000
0010
0000
0100
0000
1000
0000
0001
0000
0100
0000
,  // measure 91
1000
0100
0001
0001
1000
0000
0100
0010
,  // measure 92
0001
0100
0010
0001
0010
1000
0100
0100
,  // measure 93
0010
0000
0000
0000
0001
0000
1000
0010
1000
0010
1000
0010
0100
0000
0001
0000
,  // measure 94
1000
0001
1000
0000
0100
0000
1000
0000
0001
1000
0001
0000
0100
0000
0001
0000
,  // measure 95
1000
0100
1000
0000
0100
0000
1000
0000
0001
0100
0001
0000
0010
0000
0100
0000
,  // measure 96
0010
0001
1000
0000
0010
0000
0100
0000
0010
1000
0001
0000
0010
0000
0100
0000
,  // measure 97
0010
0001
0100
0000
0001
0100
0010
0000
1000
0100
0010
0000
1100
0000
0000
0000
,  // measure 98
0010
0000
0001
0100
0001
0000
0000
0000
0100
0000
0010
0000
0000
0000
1000
0000
,  // measure 99
0100
0010
0011
0100
1001
0000
0011
0000
,  // measure 100
1100
1010
0110
2002
,  // measure 101
3003
1010
0101
0110
,  // measure 102
1100
2002
3003
0011
,  // measure 103
1100
1010
0011
0220
,  // measure 104
0330
0000
0000
0000
1000
0100
0010
0100
1000
0100
0010
0100
1000
0000
0010
0000
,  // measure 105
1000
0010
0100
0010
1000
0100
0000
0100
,  // measure 106
0010
0000
0001
0000
1000
0000
0010
0100
0010
0000
0100
0000
0001
0000
0010
0000
,  // measure 107
0001
0010
0100
0010
0001
0100
0000
0100
,  // measure 108
0010
0000
1000
0000
0001
0000
0010
0100
0010
0000
0001
0000
0100
0000
0010
0000
,  // measure 109
0100
0010
1000
0100
0001
1000
0000
0001
,  // measure 110
0100
0000
1000
0000
0010
0000
0100
0010
0100
0000
0001
0000
0010
0000
0100
0000
,  // measure 111
0010
0100
1000
0010
0001
1000
0000
0001
,  // measure 112
0010
0000
1000
0000
0100
0000
0010
0100
0010
0000
0001
0000
0011
0000
0000
0000
,  // measure 113
0000
1100
0000
0000
2010
0000
3001
1000
,  // measure 114
0000
0100
0010
0000
0010
0000
0001
0000
0001
0000
1000
0000
0220
0000
0000
0000
,  // measure 115
0000
0000
0000
0000
,  // measure 116
0000
0000
0000
0000
,  // measure 117
0000
0330
0000
0000
;
