#VERSION:0.83;
#TITLE:30's Swing Tek;
#SUBTITLE:;
#ARTIST:Floxytek & Billx;
#TITLETRANSLIT:;
#SUBTITLETRANSLIT:;
#ARTISTTRANSLIT:;
#GENRE:;
#ORIGIN:;
#CREDIT:;
#BANNER:[Qualifier] - 30's Swing Tek.png;
#BACKGROUND:[Qualifier] - 30's Swing Tek-bg.png;
#PREVIEWVID:;
#JACKET:[Qualifier] - 30's Swing Tek-jacket.png;
#CDIMAGE:;
#DISCIMAGE:;
#LYRICSPATH:;
#CDTITLE:cdtitle.png;
#MUSIC:[Qualifier] - 30's Swing Tek.ogg;
#OFFSET:-0.016534;
#SAMPLESTART:55.601971;
#SAMPLELENGTH:10.105270;
#SELECTABLE:YES;
#BPMS:0.000=190.000,
224.000=95.000,
240.000=190.000;
#STOPS:;
#DELAYS:;
#WARPS:;
#TIMESIGNATURES:0.000=4=4;
#TICKCOUNTS:0.000=4;
#COMBOS:0.000=1;
#SPEEDS:0.000=1.000=0.000=0;
#SCROLLS:0.000=1.000;
#FAKES:;
#LABELS:0.000=Song Start;
#BGCHANGES:;
#KEYSOUNDS:;
#ATTACKS:
;

//---------------dance-single - ----------------
#NOTEDATA:;
#CHARTNAME:;
#STEPSTYPE:dance-single;
#DESCRIPTION:;
#CHARTSTYLE:;
#DIFFICULTY:Challenge;
#METER:9;
#RADARVALUES:0.739753,1.108216,0.115439,0.181404,0.432897,628.000000,614.000000,14.000000,22.000000,0.000000,0.000000,1.000000,0.000000,0.000000,0.739753,1.108216,0.115439,0.181404,0.432897,628.000000,614.000000,14.000000,22.000000,0.000000,0.000000,1.000000,0.000000,0.000000;
#CREDIT:;
#NOTES:
// measure 0
0000
0000
0000
0000
,  // measure 1
0000
0000
0000
0000
,  // measure 2
0000
0000
0000
0000
,  // measure 3
0000
0000
0000
0000
,  // measure 4
0001
0011
0110
1100
,  // measure 5
1000
0001
1000
0010
0000
0100
0001
0000
,  // measure 6
2001
3100
1002
0103
,  // measure 7
2002
0000
0000
3003
,  // measure 8
0001
0000
0100
0000
0010
0000
1000
0000
0100
0000
0010
0001
0000
0010
0000
0000
,  // measure 9
0001
0000
0100
0000
1000
0000
0100
0000
0001
0000
0100
0010
0000
0010
0000
0000
,  // measure 10
1000
0000
0100
0000
0010
0000
0001
0000
0100
0000
0010
1000
0000
0010
0000
0000
,  // measure 11
1000
0000
0100
0000
0001
0000
0100
0000
1000
0000
0010
0100
0000
0100
0000
0000
,  // measure 12
0001
0000
0100
0000
0010
0000
1000
0000
0100
0000
1000
0001
0000
1000
0000
0000
,  // measure 13
0010
0000
0001
0000
0010
0000
1000
0000
0100
0000
0010
0001
0000
0001
0000
0000
,  // measure 14
0100
0000
0010
0000
1000
0000
0001
0000
0010
0000
0001
0100
0000
0010
0000
0000
,  // measure 15
1000
0000
1000
0000
0010
0000
0010
0000
0100
0000
0001
0010
0000
0010
0000
0100
,  // measure 16
1000
0000
0010
0000
0100
0000
0001
0000
0010
0000
0001
0100
0000
0000
0100
0000
,  // measure 17
0010
0000
1000
0000
0100
0000
0010
0000
0001
0000
0100
0010
0000
0000
0010
0000
,  // measure 18
1000
0000
0100
0000
0010
0000
0100
0000
1000
0000
0001
0100
0000
0000
0100
0000
,  // measure 19
0001
0000
0010
0000
0100
0000
1000
0000
0010
0000
0100
0001
0000
0000
0001
0000
,  // measure 20
1000
0000
0001
1000
,  // measure 21
0001
0000
0000
0000
1000
0000
0100
0010
,  // measure 22
0001
0000
0000
0000
0011
0000
0000
0100
1000
0000
0000
0000
1010
0000
0000
0100
,  // measure 23
0001
0000
0000
1000
0100
0000
0010
0000
0002
0000
0000
0000
0000
0000
0000
0000
,  // measure 24
1003
0000
0010
0000
0001
0000
0010
0000
1000
0000
0100
0001
0000
0000
0100
0000
,  // measure 25
0010
0000
0001
0000
0100
0000
1000
0000
0100
0000
0001
0010
0000
0000
1000
0000
,  // measure 26
0010
0000
0001
0000
0100
0000
1000
0000
0100
0000
0010
1000
0000
0000
0100
0000
,  // measure 27
0001
0000
0100
0000
1000
0000
0010
0000
0001
0000
0010
1000
0000
0000
0001
0100
,  // measure 28
0001
0000
1000
0000
0010
0000
1000
0000
0001
0000
1000
0000
0100
0000
0000
0100
,  // measure 29
1000
0000
0001
0000
0010
0000
0001
0000
1000
0000
0001
0000
0100
0000
0000
0100
,  // measure 30
0001
0000
0010
0000
0100
0000
0010
0000
0001
0000
1000
0000
0010
0000
0000
0010
,  // measure 31
0100
0000
0010
0000
1000
0000
0010
0000
0001
0000
0010
1000
0000
0000
1000
0100
,  // measure 32
0010
0000
0010
0000
0001
0000
0001
0000
0100
0000
0010
0000
1000
0000
0000
0001
,  // measure 33
0100
0000
0100
0000
0010
0000
0010
0000
1000
0000
0100
0010
0000
0000
0001
0000
,  // measure 34
1001
0000
0000
0001
0100
0000
0000
0000
1001
0000
0000
1000
0100
0000
0010
0000
,  // measure 35
0011
0000
0000
0001
0100
0000
0010
0000
2000
0000
0000
0000
0000
0000
0000
0000
,  // measure 36
3001
0000
0100
0000
1000
0000
0100
0000
0001
0000
0100
1000
0000
0000
1000
0100
,  // measure 37
0010
0000
0100
0000
0001
0000
0010
0000
1000
0000
0010
0001
0000
0000
0001
0000
,  // measure 38
1000
0000
0100
0000
0001
0000
0100
0000
1000
0000
0010
0001
0000
0000
0001
0010
,  // measure 39
0100
0000
0010
0000
1000
0000
0100
0000
0001
0000
0100
1000
0001
0000
0001
0000
,  // measure 40
1000
0000
0010
0000
0001
0000
0010
0000
1000
0000
0100
0001
0000
0000
0001
0100
,  // measure 41
0010
0000
0100
0000
1000
0000
0010
0000
0001
0000
0010
1000
0000
0000
1000
0000
,  // measure 42
0001
0000
0010
0000
1000
0000
0010
0000
0001
0000
0010
1000
0000
0000
1000
0010
,  // measure 43
0100
0000
1000
0000
0010
0000
0001
0000
1000
0000
0100
0000
0001
0100
0000
0000
,  // measure 44
0001
0000
0010
0000
1000
0000
0010
0000
0001
0100
0001
0100
0010
0000
0000
0000
,  // measure 45
0100
0000
1000
0000
0100
0000
0001
0000
1000
0000
0100
0010
0001
0000
0000
0000
,  // measure 46
1000
0000
0010
0000
0001
0000
0010
0000
1000
0000
0100
0010
0000
0001
0000
0000
,  // measure 47
0100
0000
1000
0000
0100
0000
0001
0000
1000
0100
1000
0100
0010
0000
0001
0000
,  // measure 48
1000
0000
0010
0000
0100
0000
0000
0000
0100
0010
0100
0010
1000
0000
0000
0000
,  // measure 49
0001
0000
0010
0000
0100
0000
0000
0000
0100
0000
0010
0001
1000
0000
0000
0000
,  // measure 50
0001
0000
0100
0000
0010
0000
0000
0000
0010
0000
0100
0001
1000
0000
0000
0000
,  // measure 51
0010
0000
1000
0000
0100
0000
0000
0000
0100
1000
0100
1000
0001
0000
0100
0000
,  // measure 52
0002
0100
0100
0100
,  // measure 53
2003
0100
0100
0100
,  // measure 54
3002
0100
0100
0100
,  // measure 55
1003
0000
0100
0000
0010
0000
0100
0000
0001
0000
0100
1000
0000
0000
0100
1000
,  // measure 56
0001
0000
0001
0000
0101
0000
0001
0010
0001
1000
0001
0100
2000
0000
3200
0000
,  // measure 57
0301
0010
1000
0010
0001
0100
1000
0100
0001
0010
0001
0100
0110
0000
1001
0000
,  // measure 58
0001
0100
0010
1000
0100
0001
0100
1000
0010
0100
0010
1000
0001
0001
0100
0000
,  // measure 59
0001
0000
0100
0000
0010
0000
1000
0000
0100
0000
0010
0001
0000
0010
0000
0000
1000
0000
0010
0000
0001
0000
0100
0000
0020
0000
0000
0000
1030
0000
0000
0000
,  // measure 60
0001
0000
0010
0000
0001
0000
0100
0000
0010
0000
1000
0100
0000
0010
0000
0000
,  // measure 61
0100
0001
0100
1000
0002
1000
1003
0000
,  // measure 62
1000
0000
0010
0000
1000
0000
0100
0000
0010
0000
0001
0100
0000
0010
0000
0000
,  // measure 63
0100
1000
0100
0001
0010
0001
2000
0000
,  // measure 64
3010
1000
0200
0000
0310
0001
0200
0000
,  // measure 65
1300
0100
0010
1000
0100
0001
1000
0010
,  // measure 66
0002
0000
0000
0000
,  // measure 67
2000
0000
0000
0000
3003
0000
0000
0000
0001
0100
0001
0100
0004
0000
0000
0000
,  // measure 68
1003
0100
0010
0001
0100
0010
0100
0001
,  // measure 69
0010
1000
0010
0001
0100
1000
0100
0010
,  // measure 70
1000
0100
0010
0001
1000
0010
1000
0100
,  // measure 71
0001
0100
1000
0010
0002
0023
1000
1030
,  // measure 72
0001
0000
1000
0100
1000
0000
0001
0000
0100
0000
0010
0000
1000
0000
0100
0000
,  // measure 73
0001
0100
1000
0010
0001
0010
1000
0100
,  // measure 74
0010
0001
0100
0010
1000
0100
1000
0010
,  // measure 75
0001
0000
0010
1000
0010
1000
0010
1000
0010
0000
1000
0010
0100
0000
0000
0000
,  // measure 76
0001
1000
0100
1000
0010
0100
0001
0010
,  // measure 77
1000
0010
0001
0100
1000
0100
0001
1000
,  // measure 78
0100
0010
0001
0100
0010
1000
0100
0010
,  // measure 79
1000
0010
0001
0100
1000
0100
0020
0000
,  // measure 80
1030
0010
0100
0001
0010
0001
0100
0010
,  // measure 81
1000
0100
0001
0100
0010
0001
0100
1000
,  // measure 82
0100
0001
0000
0100
0001
0100
0001
0100
0001
0000
1000
0100
1000
0000
0010
0000
,  // measure 83
0200
0000
0000
0000
,  // measure 84
0310
0000
0000
0000
;

//---------------dance-single - ----------------
#NOTEDATA:;
#CHARTNAME:;
#STEPSTYPE:dance-single;
#DESCRIPTION:;
#CHARTSTYLE:;
#DIFFICULTY:Hard;
#METER:8;
#RADARVALUES:0.570128,0.796530,0.131930,0.346317,0.041228,484.000000,468.000000,16.000000,42.000000,0.000000,0.000000,1.000000,0.000000,0.000000,0.570128,0.796530,0.131930,0.346317,0.041228,484.000000,468.000000,16.000000,42.000000,0.000000,0.000000,1.000000,0.000000,0.000000;
#CREDIT:;
#NOTES:
// measure 0
0000
0000
0000
0000
,  // measure 1
0000
0000
0000
0000
,  // measure 2
0000
0000
0000
0000
,  // measure 3
0000
0000
0000
0000
,  // measure 4
1000
0010
0100
0001
,  // measure 5
1000
0100
0010
0001
0000
0100
0010
0000
,  // measure 6
1000
1000
0001
0001
,  // measure 7
0220
0000
0000
0330
,  // measure 8
0001
0100
0010
0100
0002
0000
0013
0000
,  // measure 9
0100
1000
0010
1000
0200
0000
0310
0000
,  // measure 10
0001
1000
0010
1000
0002
0000
0013
0000
,  // measure 11
0100
1000
0001
1000
0200
0000
0310
0000
,  // measure 12
0001
1000
0010
0100
0002
0000
1003
0000
,  // measure 13
0100
0010
0001
0100
0020
0000
1030
0000
,  // measure 14
0100
1000
0010
0100
0002
0000
0013
0000
,  // measure 15
0001
0100
0001
0100
0010
1000
0100
1000
,  // measure 16
0001
0000
0100
0001
0010
0000
0001
0000
,  // measure 17
0100
0000
0010
1000
0100
0000
1000
0000
,  // measure 18
0010
0000
1000
0100
0010
0000
0001
0000
,  // measure 19
0100
0000
0010
1000
0100
0000
0010
0000
,  // measure 20
0001
0000
1000
1000
,  // measure 21
0001
0000
0001
1000
,  // measure 22
2100
3010
0102
0013
,  // measure 23
0110
2001
0002
3003
,  // measure 24
1000
0000
0001
0100
0010
0100
1000
0000
,  // measure 25
0100
0000
1000
0100
0010
0100
0001
0000
,  // measure 26
0010
0000
0001
0010
0100
0010
1000
0000
,  // measure 27
0010
0000
1000
0010
0100
0010
0001
0000
,  // measure 28
0100
0001
0100
0001
0010
0001
0100
0000
,  // measure 29
0100
1000
0100
1000
0010
1000
0100
0000
,  // measure 30
0100
0001
0100
0001
0010
0001
0100
0000
,  // measure 31
0100
1000
0001
1000
0010
0100
0001
0000
,  // measure 32
1001
0000
1000
0000
0010
1000
0100
0000
,  // measure 33
1001
0000
0001
0000
0010
0001
0100
0000
,  // measure 34
0120
1030
0210
0301
,  // measure 35
0110
1002
2000
3003
,  // measure 36
1000
0100
1000
0100
0020
0000
0001
0000
,  // measure 37
0130
1000
0100
1000
0010
1000
0100
0000
,  // measure 38
0100
0001
0100
0001
0010
0000
1002
0000
,  // measure 39
0103
0001
0100
0001
0010
0001
0100
0000
,  // measure 40
0100
1000
0100
1000
0010
0000
2001
0000
,  // measure 41
3100
1000
0100
1000
0010
1000
0100
0000
,  // measure 42
0100
0001
0100
0001
0020
0000
0100
0000
,  // measure 43
0031
1000
0001
1000
0010
1000
0100
0000
,  // measure 44
1000
0001
0100
0010
0200
0000
0301
0000
,  // measure 45
0100
0010
1000
0100
0020
0000
0031
0000
,  // measure 46
0010
0001
0100
0010
2000
0000
3100
0000
,  // measure 47
0010
0100
1000
0010
0200
0000
0301
0010
,  // measure 48
0100
1000
0010
0000
0010
1000
0100
0000
,  // measure 49
0010
0001
0100
0000
0100
0001
0010
0000
,  // measure 50
0100
1000
0010
0000
0100
0001
0010
0000
,  // measure 51
0001
0100
1000
0000
0100
0001
0010
0100
,  // measure 52
2000
0010
0010
0010
,  // measure 53
3002
0100
0100
0100
,  // measure 54
2003
0010
0010
0010
,  // measure 55
3001
0010
0001
0010
0100
1000
0010
1000
,  // measure 56
0001
0000
0001
0000
0100
0000
0010
0000
1000
0100
0010
0100
2000
0000
3001
0000
,  // measure 57
1000
0010
0100
0000
0001
0010
0100
0000
1000
0000
0001
0000
0220
0000
0330
0000
,  // measure 58
0001
0100
0010
0000
1000
0100
0010
0000
0100
1000
0001
0100
0020
0000
1030
0000
,  // measure 59
0001
0000
0100
0000
1000
0100
0001
0000
1000
0100
0001
0000
0200
0000
0000
0000
,  // measure 60
1300
0001
0100
0001
0100
0001
1000
0000
,  // measure 61
0100
0010
0001
0100
0010
0000
1010
0000
,  // measure 62
0001
1000
0100
1000
0100
1000
0001
0000
,  // measure 63
1000
0010
0100
0001
0010
0001
0200
0000
,  // measure 64
0310
1000
0002
0000
0013
0001
2000
0000
,  // measure 65
3010
0100
0001
0100
0010
1000
0001
1000
,  // measure 66
0200
0000
0000
0300
,  // measure 67
2002
0000
3003
0000
0004
0000
0000
0003
,  // measure 68
1000
0010
1000
0000
0001
0100
0001
0000
,  // measure 69
1000
0100
0001
0000
0100
1000
0010
0000
,  // measure 70
0100
0001
0100
0000
0010
1000
0010
0000
,  // measure 71
0001
0010
1000
0000
0200
0000
0310
0001
,  // measure 72
0100
0010
0100
0000
0001
1000
0001
0000
,  // measure 73
1000
0010
0001
0000
0010
1000
0100
0000
,  // measure 74
0010
0001
0010
0000
0100
1000
0100
0000
,  // measure 75
0010
0001
0100
1000
0100
0001
0010
0000
,  // measure 76
0001
0100
0000
0001
0100
0010
1000
0000
,  // measure 77
0001
0100
1000
0000
1000
0100
0001
0000
,  // measure 78
0010
0100
0000
0010
0100
1000
0001
0000
,  // measure 79
1000
0100
0001
0000
0001
0100
2000
0000
,  // measure 80
3010
0100
0000
0010
1000
0100
0010
0000
,  // measure 81
0001
0100
1000
0000
1000
0100
0001
0000
,  // measure 82
0010
0001
0100
0001
0100
0010
1000
0100
,  // measure 83
0020
0000
0000
0000
,  // measure 84
0130
0000
0000
0000
;

//---------------dance-single - ----------------
#NOTEDATA:;
#CHARTNAME:;
#STEPSTYPE:dance-single;
#DESCRIPTION:;
#CHARTSTYLE:;
#DIFFICULTY:Medium;
#METER:7;
#RADARVALUES:0.465291,0.588740,0.164913,0.206141,0.004123,395.000000,375.000000,20.000000,25.000000,0.000000,0.000000,0.000000,0.000000,0.000000,0.465291,0.588740,0.164913,0.206141,0.004123,395.000000,375.000000,20.000000,25.000000,0.000000,0.000000,0.000000,0.000000,0.000000;
#CREDIT:;
#NOTES:
// measure 0
0000
0000
0000
0000
,  // measure 1
0000
0000
0000
0000
,  // measure 2
0000
0000
0000
0000
,  // measure 3
0000
0000
0000
0000
,  // measure 4
0001
0010
0100
1000
,  // measure 5
0001
0000
0100
0010
0000
0100
0010
0000
,  // measure 6
1000
0001
1000
0001
,  // measure 7
2002
0000
0000
3003
,  // measure 8
0001
0000
0010
0000
0100
1000
0100
0000
,  // measure 9
0010
0000
0001
0000
1000
0010
1000
0000
,  // measure 10
0001
0000
0100
0000
0010
1000
0010
0000
,  // measure 11
0100
0000
0001
0000
1000
0100
1000
0000
,  // measure 12
0010
0000
0100
0000
0001
1000
0001
0000
,  // measure 13
0010
0000
0100
0000
1000
0010
1000
0000
,  // measure 14
0100
0000
0010
0000
0001
1000
0001
0000
,  // measure 15
1000
0010
0001
0100
,  // measure 16
1000
0000
0010
1000
0010
0000
1000
0000
,  // measure 17
0001
0000
0100
0001
0100
0000
0001
0000
,  // measure 18
1000
0000
0100
1000
0100
0000
1000
0000
,  // measure 19
0001
0000
0010
0001
0010
0000
0001
0000
,  // measure 20
1000
0000
0001
0001
,  // measure 21
1000
0000
0000
0000
0001
0000
0001
1000
,  // measure 22
0100
0110
1000
1001
,  // measure 23
0110
2001
0002
3003
,  // measure 24
1000
0000
0100
0010
0001
0000
0100
0000
,  // measure 25
1000
0000
0100
0001
0010
0000
1000
0000
,  // measure 26
0010
0000
0001
0100
0010
0000
0100
0000
,  // measure 27
1000
0000
0100
0001
0010
0000
0100
0000
,  // measure 28
1000
0000
1000
0000
0010
1000
0100
0000
,  // measure 29
0010
0000
0010
0000
0001
0100
0010
0000
,  // measure 30
0100
0000
0100
0000
0001
0010
0100
0000
,  // measure 31
1000
0010
1000
0010
1000
0000
0001
0000
,  // measure 32
2100
0000
3100
0000
0010
0100
1000
0000
,  // measure 33
0102
0000
0103
0000
0010
0100
0001
0000
,  // measure 34
1001
0100
1001
0010
,  // measure 35
1001
0000
1000
0001
2000
0000
0000
0000
,  // measure 36
3001
0000
1000
0001
0010
0000
0001
0000
,  // measure 37
1000
0000
1000
0000
0010
1000
0100
0000
,  // measure 38
1000
0000
0001
1000
0010
1000
0001
0000
,  // measure 39
0010
0000
0010
0000
0001
0100
0010
0000
,  // measure 40
1000
0000
0001
1000
0100
1000
0001
0000
,  // measure 41
0100
0000
0100
0000
0010
1000
0100
0000
,  // measure 42
1000
0000
0001
1000
0010
0000
1000
0000
,  // measure 43
0001
0010
0001
0010
0001
0000
1000
0000
,  // measure 44
0001
0000
0100
0000
0010
0100
0001
0000
,  // measure 45
0100
0000
1000
0000
0100
0001
0010
0000
,  // measure 46
0100
0000
1000
0000
0010
1000
0100
0000
,  // measure 47
0001
0000
0100
0000
0010
0100
1000
0000
,  // measure 48
0001
0000
0100
0000
0010
1000
0100
0000
,  // measure 49
0010
0000
0001
0000
0100
0001
0010
0000
,  // measure 50
1000
0000
0010
0000
0001
0100
0010
0000
,  // measure 51
0001
0000
0010
0000
1000
0100
0010
0000
,  // measure 52
0002
0100
0000
0100
,  // measure 53
0000
0100
0000
0100
,  // measure 54
2003
0100
0000
0100
,  // measure 55
3001
0001
1000
1000
,  // measure 56
0001
0100
0010
0100
1000
0100
0002
0003
,  // measure 57
0001
0010
1000
0010
0001
0100
2020
3030
,  // measure 58
1000
0010
0001
0010
1000
0100
0020
0030
,  // measure 59
0001
0000
0100
0000
0010
0100
0001
0000
1000
0000
0100
0000
0020
0000
0000
0000
,  // measure 60
0031
0000
0100
0000
0010
1000
0001
0000
,  // measure 61
1000
0100
0020
0001
,  // measure 62
0130
0000
1000
0000
0001
0100
0010
0000
,  // measure 63
1000
0000
0001
0000
0010
0100
2000
0000
,  // measure 64
3001
0100
0002
0000
1003
0010
2000
0000
,  // measure 65
3010
0001
0100
1000
,  // measure 66
0002
0000
0000
0003
,  // measure 67
2002
3003
0220
0330
,  // measure 68
1001
1000
0100
0100
,  // measure 69
0011
0001
0100
0100
,  // measure 70
1001
0001
0100
0100
,  // measure 71
1010
0000
1000
0000
0001
0100
0010
0000
,  // measure 72
1000
0100
1000
0000
0100
0000
0100
0000
,  // measure 73
0011
0001
0100
0100
,  // measure 74
1001
0001
0100
0100
,  // measure 75
0001
1000
0001
1000
0001
0000
0010
0000
,  // measure 76
0100
1000
0000
1000
0000
0001
0100
0000
,  // measure 77
1010
1000
0010
0010
,  // measure 78
0100
0001
0000
0001
0000
1000
0100
0000
,  // measure 79
1000
0001
1000
0000
0001
0000
2000
0000
,  // measure 80
3001
0010
0000
0010
0000
0100
1000
0000
,  // measure 81
0010
0000
0100
0000
0010
1000
0001
0000
,  // measure 82
1000
0100
1000
0000
0001
0100
0001
0000
,  // measure 83
0020
0000
0000
0000
,  // measure 84
0130
0000
0000
0000
;

//---------------dance-single - ----------------
#NOTEDATA:;
#CHARTNAME:;
#STEPSTYPE:dance-single;
#DESCRIPTION:;
#CHARTSTYLE:;
#DIFFICULTY:Easy;
#METER:5;
#RADARVALUES:0.338072,0.519476,0.107194,0.189650,0.000000,287.000000,274.000000,13.000000,23.000000,0.000000,0.000000,0.000000,0.000000,0.000000,0.338072,0.519476,0.107194,0.189650,0.000000,287.000000,274.000000,13.000000,23.000000,0.000000,0.000000,0.000000,0.000000,0.000000;
#CREDIT:;
#NOTES:
// measure 0
0000
0000
0000
0000
,  // measure 1
0000
0000
0000
0000
,  // measure 2
0000
0000
0000
0000
,  // measure 3
0000
0000
0000
0000
,  // measure 4
0001
0000
1000
0000
,  // measure 5
0010
0000
0000
0100
0000
0000
0001
0000
,  // measure 6
1000
0000
0001
0000
,  // measure 7
2002
0000
0000
3003
,  // measure 8
1000
0100
0010
0000
,  // measure 9
0100
1000
0010
0000
,  // measure 10
0100
0001
0010
0000
,  // measure 11
0001
0100
0010
0000
,  // measure 12
1000
0001
0010
0000
,  // measure 13
0100
1000
0001
0000
,  // measure 14
0100
0010
1000
0000
,  // measure 15
0100
0010
0100
0010
,  // measure 16
0001
0100
1000
0000
,  // measure 17
1000
0100
0001
0000
,  // measure 18
0001
0010
1000
0000
,  // measure 19
1000
0010
0001
0000
,  // measure 20
0100
0000
0100
0010
,  // measure 21
0100
0000
0100
0010
,  // measure 22
1000
1000
0001
0001
,  // measure 23
1000
0001
0020
0000
,  // measure 24
0031
0010
1000
0000
,  // measure 25
0010
0001
0100
0000
,  // measure 26
1000
0100
0001
0000
,  // measure 27
0010
0001
0100
0000
,  // measure 28
0001
0010
0001
0010
,  // measure 29
0100
1000
0100
1000
,  // measure 30
0001
0100
0001
0100
,  // measure 31
1000
0100
0010
1000
,  // measure 32
1001
0001
0010
0000
,  // measure 33
1001
1000
0010
0000
,  // measure 34
1001
0000
0110
0000
,  // measure 35
0011
1100
1002
0000
,  // measure 36
1003
0010
0001
0000
,  // measure 37
0010
1000
0100
0010
,  // measure 38
0001
0010
2000
3000
,  // measure 39
0010
0001
0100
0010
,  // measure 40
1000
0100
0002
0003
,  // measure 41
0100
0010
0001
1000
,  // measure 42
0001
0100
1000
0000
,  // measure 43
0100
0001
0010
0001
,  // measure 44
1000
0010
0100
0100
,  // measure 45
0010
1000
0100
0100
,  // measure 46
0010
0001
0100
0100
,  // measure 47
0001
0010
0100
0100
,  // measure 48
1000
0001
0100
0100
,  // measure 49
0001
1000
0100
0100
,  // measure 50
1000
0001
0010
0010
,  // measure 51
0001
1000
0010
0010
,  // measure 52
0200
0000
0010
0000
,  // measure 53
0010
0000
0310
0000
,  // measure 54
0100
0000
0001
0000
,  // measure 55
1000
0001
1000
0001
,  // measure 56
1000
0000
1001
0000
0001
0100
0020
0000
,  // measure 57
1030
0000
1100
0000
0010
0001
2002
3003
,  // measure 58
1000
0000
1010
0000
0010
1000
0200
0000
,  // measure 59
0310
0001
0100
0000
0100
0001
2000
0000
,  // measure 60
3100
1000
0100
0010
,  // measure 61
0100
1000
0002
0000
,  // measure 62
0103
0010
0100
0001
,  // measure 63
0010
0100
1000
0002
,  // measure 64
0103
2000
3100
0020
,  // measure 65
1030
0100
0010
0001
,  // measure 66
2000
0000
0000
0000
,  // measure 67
0002
3003
2002
3003
,  // measure 68
1000
0100
1000
0100
,  // measure 69
0001
0100
0001
0100
,  // measure 70
1000
0010
1000
0010
,  // measure 71
0001
0010
1000
1000
,  // measure 72
0001
0010
0001
0010
,  // measure 73
1000
0010
1000
0010
,  // measure 74
0001
0100
0001
0100
,  // measure 75
1000
0100
0020
0030
,  // measure 76
0100
0001
0010
0001
,  // measure 77
0100
1000
0100
1000
,  // measure 78
0100
0001
0010
0001
,  // measure 79
0100
0010
2000
3000
,  // measure 80
0100
1000
0010
1000
,  // measure 81
0100
0001
0100
0001
,  // measure 82
0100
1000
0010
0100
,  // measure 83
0002
0000
0000
0000
,  // measure 84
1003
0000
0000
0000
;

//---------------dance-single - ----------------
#NOTEDATA:;
#CHARTNAME:;
#STEPSTYPE:dance-single;
#DESCRIPTION:;
#CHARTSTYLE:;
#DIFFICULTY:Beginner;
#METER:3;
#RADARVALUES:0.214387,0.311686,0.016491,0.057720,0.000000,182.000000,180.000000,2.000000,7.000000,0.000000,0.000000,0.000000,0.000000,0.000000,0.214387,0.311686,0.016491,0.057720,0.000000,182.000000,180.000000,2.000000,7.000000,0.000000,0.000000,0.000000,0.000000,0.000000;
#CREDIT:;
#NOTES:
// measure 0
0000
0000
0000
0000
,  // measure 1
0000
0000
0000
0000
,  // measure 2
0000
0000
0000
0000
,  // measure 3
0000
0000
0000
0000
,  // measure 4
0001
0000
0001
0000
,  // measure 5
1000
0000
1000
0000
,  // measure 6
0100
0000
0100
0000
,  // measure 7
0200
0000
0300
0000
,  // measure 8
1000
0000
1000
0000
,  // measure 9
0010
0000
0010
0000
,  // measure 10
0100
0000
0100
0000
,  // measure 11
0001
0000
0001
0000
,  // measure 12
0010
0000
0010
0000
,  // measure 13
0100
0000
0100
0000
,  // measure 14
1000
0000
1000
0000
,  // measure 15
0001
0001
0001
0000
,  // measure 16
0100
0000
0100
0000
,  // measure 17
0010
0000
0010
0000
,  // measure 18
0100
0000
0100
0000
,  // measure 19
0010
0000
0010
0000
,  // measure 20
2000
0000
3000
0000
,  // measure 21
0002
0000
0003
0000
,  // measure 22
1000
0000
0001
0000
,  // measure 23
1000
1000
1000
0000
,  // measure 24
0001
0000
0010
0000
,  // measure 25
0001
0000
0100
0000
,  // measure 26
0001
0000
0010
0000
,  // measure 27
0001
0000
0100
0000
,  // measure 28
0010
0010
0010
0000
,  // measure 29
1000
1000
1000
0000
,  // measure 30
0001
0001
0001
0000
,  // measure 31
0010
0010
0010
0000
,  // measure 32
0001
0001
0001
0000
,  // measure 33
1000
1000
1000
0000
,  // measure 34
0001
0001
0001
0000
,  // measure 35
0100
0100
0100
0000
,  // measure 36
0010
0000
1000
0000
,  // measure 37
0001
0001
0001
0000
,  // measure 38
0010
0000
0100
0000
,  // measure 39
0010
0010
0010
0000
,  // measure 40
0001
0000
0100
0000
,  // measure 41
0010
0010
0010
0000
,  // measure 42
1000
0000
0001
0000
,  // measure 43
0010
0010
0010
0000
,  // measure 44
0001
0000
0001
0000
,  // measure 45
0100
0000
0100
0000
,  // measure 46
0010
0000
0010
0000
,  // measure 47
1000
0000
1000
0000
,  // measure 48
0100
0000
0100
0000
,  // measure 49
0010
0000
0010
0000
,  // measure 50
0001
0000
0001
0000
,  // measure 51
1000
0000
1000
0000
,  // measure 52
0010
0000
0000
0000
,  // measure 53
0100
0000
0000
0000
,  // measure 54
0010
0000
0000
0000
,  // measure 55
0100
0000
0100
0000
,  // measure 56
0001
0001
1000
0100
,  // measure 57
0010
0010
0001
0100
,  // measure 58
0010
0010
1000
0100
,  // measure 59
1000
0001
1000
0001
,  // measure 60
0100
0000
0100
0000
,  // measure 61
0010
0000
2000
3000
,  // measure 62
0001
0000
0001
0000
,  // measure 63
1000
0000
0100
0000
,  // measure 64
0110
0000
1001
0000
,  // measure 65
1000
1000
1000
0000
,  // measure 66
0001
0000
0000
0000
,  // measure 67
0200
0300
0020
0030
,  // measure 68
1000
0000
1000
0000
,  // measure 69
0100
0000
0100
0000
,  // measure 70
0010
0000
0010
0000
,  // measure 71
0001
0000
1000
0000
,  // measure 72
0001
0000
0001
0000
,  // measure 73
0100
0000
0100
0000
,  // measure 74
0010
0000
0010
0000
,  // measure 75
1000
1000
1000
0000
,  // measure 76
0001
0000
0001
0001
,  // measure 77
0001
0000
0010
0000
,  // measure 78
0100
0000
0100
0100
,  // measure 79
0100
0000
1000
0000
,  // measure 80
0001
0000
0001
0001
,  // measure 81
0001
0000
1000
0000
,  // measure 82
0010
0010
0010
0000
,  // measure 83
0200
0000
0000
0000
,  // measure 84
0300
0000
0000
0000
;
