#TITLE:guerre à outrance;
#SUBTITLE:;
#ARTIST:Vivian;
#TITLETRANSLIT:;
#SUBTITLETRANSLIT:;
#ARTISTTRANSLIT:;
#GENRE:;
#CREDIT:;
#BANNER:guerre à outrance-banner.png;
#BACKGROUND:guerre à outrance-bg.png;
#LYRICSPATH:;
#CDTITLE:;
#MUSIC:guerre à outrance.ogg;
#OFFSET:-0.750000;
#SAMPLESTART:26.389755;
#SAMPLELENGTH:13.300000;
#SELECTABLE:YES;
#DISPLAYBPM:175.000000;
#BPMS:0.000000=180.000000
;
#STOPS:252.000000=0.333000
;
#BGCHANGES:;
#KEYSOUNDS:;
#ATTACKS:;

//---------------dance-single - ----------------
#NOTES:
     dance-single:
     :
     Hard:
     9:
     0.641182,0.706655,0.623120,0.198676,0.018061,406.000000,69.000000,22.000000,0.000000,0.000000,0.000000,0.641182,0.706655,0.623120,0.198676,0.018061,406.000000,69.000000,22.000000,0.000000,0.000000,0.000000:
// measure 0
0000
0000
0000
0000
,  // measure 1
0000
0000
0000
0000
,  // measure 2
0000
0000
0000
0000
,  // measure 3
0000
0000
0000
0000
,  // measure 4
0000
0000
0000
0000
,  // measure 5
0000
0000
0000
0000
,  // measure 6
1001
0000
1001
0000
0000
0000
0001
1000
,  // measure 7
0001
1000
0100
0000
1000
0001
0100
0000
,  // measure 8
0001
1000
0100
0001
0100
1000
0001
0000
,  // measure 9
1001
0000
1001
0000
0000
0000
1000
0001
,  // measure 10
1000
0001
0100
0000
0001
1000
0100
0000
,  // measure 11
1000
0001
0100
1000
0100
0001
1000
0000
,  // measure 12
2001
0100
3020
0001
,  // measure 13
0230
1000
0301
1002
,  // measure 14
0100
0023
1000
0230
,  // measure 15
0001
1300
0101
0010
,  // measure 16
1001
0100
1001
0110
,  // measure 17
1001
0000
0001
1000
0100
0001
0100
1000
,  // measure 18
0001
0000
1000
0001
0100
1000
0100
0001
,  // measure 19
1000
0000
2001
0000
0100
0000
0000
0001
,  // measure 20
0000
0010
3020
0000
0001
0000
0230
0000
,  // measure 21
1000
0000
0301
1000
1100
0000
1000
0001
,  // measure 22
0101
0000
0001
0100
0010
0100
1000
0100
,  // measure 23
0001
0000
1002
0000
0100
0000
0000
1000
,  // measure 24
0000
0010
0023
0000
1000
0000
0230
0000
,  // measure 25
0001
0000
1300
0001
0101
0000
0001
1000
,  // measure 26
1100
0000
1000
0100
0010
0100
0001
0100
,  // measure 27
1000
0000
0001
0100
1000
0001
0010
1000
,  // measure 28
0001
0001
1000
0100
1000
0001
0100
0001
,  // measure 29
0010
0001
1000
0100
0001
1000
0010
0001
,  // measure 30
1000
1000
0001
0100
0001
1000
0100
1000
,  // measure 31
0010
0000
1000
0000
0001
0000
0000
0001
0000
0000
1000
0000
0000
0100
0000
0000
,  // measure 32
1000
0000
0001
0000
1000
0000
0000
1000
0000
0000
0001
0000
0000
0100
0000
0000
,  // measure 33
0001
1000
0001
0100
1000
0100
0001
1000
,  // measure 34
0100
1000
0001
0100
1000
0100
0001
0000
,  // measure 35
0000
0000
1002
0000
0100
0000
1003
0100
,  // measure 36
0020
0000
1000
0000
0031
1000
0000
0001
,  // measure 37
1000
0000
2001
0000
0100
0000
3001
0100
,  // measure 38
0020
0000
0001
0000
1030
0001
0000
1000
,  // measure 39
0001
0000
1001
0000
0001
1000
0000
1000
,  // measure 40
0100
0000
1001
0000
1000
0001
0000
0001
,  // measure 41
0100
0000
1001
0000
0001
0010
0000
0001
,  // measure 42
1000
0000
1001
0000
1000
0010
0000
1000
,  // measure 43
0001
0000
1000
0100
0001
0100
0010
0100
,  // measure 44
1000
0000
0001
0100
1000
0100
0010
0100
,  // measure 45
0001
1000
0001
0010
1000
0010
0100
0010
,  // measure 46
0001
0000
1000
0010
0001
0010
0100
0010
,  // measure 47
1000
0001
1000
0100
0010
1000
0010
0001
,  // measure 48
1000
0000
0001
0100
0010
0001
0010
1000
,  // measure 49
0001
0000
1000
0100
0001
0100
1000
0001
,  // measure 50
0100
0001
1000
0100
0001
0100
1000
0000
,  // measure 51
1001
0000
0001
0100
0000
0100
1000
0000
,  // measure 52
1000
0010
0000
0010
0001
0000
1001
0000
,  // measure 53
1001
0000
1000
0100
0000
0100
0001
0000
,  // measure 54
0001
0010
0000
0010
1000
0000
1001
0000
,  // measure 55
1001
0000
0001
0100
1000
0100
0001
0000
,  // measure 56
1000
0100
0001
0100
1000
0000
1001
0000
,  // measure 57
0001
1000
0100
1000
0001
0000
1000
0001
,  // measure 58
0100
0001
1000
0000
1001
0000
0101
0101
,  // measure 59
0000
1100
1100
0000
1010
1010
0000
0011
,  // measure 60
0011
0000
1001
0000
1100
1100
0000
0101
,  // measure 61
0101
0000
0011
0011
0000
1010
1010
0000
,  // measure 62
1001
0100
0100
0100
,  // measure 63
0100
1001
0000
0000
,  // measure 64
1000
0100
0001
1000
0010
0001
0100
1000
,  // measure 65
0100
0001
1000
0001
0010
1000
0010
0001
,  // measure 66
1000
0000
0001
0100
1000
0001
0010
1000
,  // measure 67
0100
0001
0100
1000
0001
1000
0010
0001
,  // measure 68
0010
1000
0001
0000
1002
0000
0100
0000
,  // measure 69
0023
1000
0230
0001
,  // measure 70
1300
2001
0100
3020
,  // measure 71
0001
0230
1000
0301
,  // measure 72
1100
0010
1001
0100
,  // measure 73
1001
0110
1001
1000
,  // measure 74
0101
0010
1001
0100
,  // measure 75
1001
0000
0110
0000
1001
0000
0101
0001
,  // measure 76
1001
0000
0000
0000
1100
1000
1001
0000
,  // measure 77
0000
0000
0011
0001
1001
0000
0000
0000
,  // measure 78
1010
1000
1001
0000
0000
0000
0000
0000
;

//---------------dance-single - ----------------
#NOTES:
     dance-single:
     :
     Medium:
     7:
     0.597318,0.706655,0.659243,0.234799,0.018061,364.000000,73.000000,26.000000,0.000000,0.000000,0.000000,0.597318,0.706655,0.659243,0.234799,0.018061,364.000000,73.000000,26.000000,0.000000,0.000000,0.000000:
0000
0000
0000
0000
,
0000
0000
0000
0000
,
0000
0000
0000
0000
,
0000
0000
0000
0000
,
0000
0000
0000
0000
,
0000
0000
0000
0000
,
1001
1001
0000
1001
,
1001
1000
0100
0001
,
1000
0001
0100
1000
,
1001
1001
0000
1001
,
1001
0001
0100
1000
,
0001
1000
0100
0001
,
1002
0100
0023
1000
,
0230
0001
1300
2001
,
0100
3020
0001
0230
,
1000
0301
1100
0010
,
1001
0100
1001
0110
,
1001
0000
1000
0100
0001
0000
0001
0100
,
1000
0000
0001
0100
1000
0000
1000
0100
,
0001
0000
1002
0000
0100
0000
0000
1000
,
0000
0010
0023
0000
1000
0000
0230
0000
,
0001
2300
0010
3002
,
0100
0000
1003
0100
0010
0100
0001
0100
,
1000
0000
2001
0000
0100
0000
0000
0001
,
0000
0010
3020
0000
0001
0000
0230
0000
,
1000
0302
0010
2003
,
0100
0000
3001
0100
0010
0100
1000
0100
,
0001
0000
1001
0000
0001
1000
0000
0001
,
1000
0000
0001
0100
1000
0000
1000
0010
,
0001
0000
1001
0000
1000
0001
0000
1000
,
0001
0000
1000
0100
0001
0000
0001
0010
,
1000
0000
0000
0000
0001
0000
0000
0001
0000
0000
1000
0000
0000
0100
0000
0000
,
1000
0000
0001
0000
1000
0000
0000
1000
0000
0000
0001
0000
0000
0100
0000
0000
,
0001
1000
0001
0100
1000
0100
0001
1000
,
0100
1000
0001
0100
1000
0100
0001
0000
,
0000
0000
2001
0000
0100
0000
3001
0100
,
0020
0000
0001
0000
1030
0001
0000
1000
,
0001
0000
1002
0000
0100
0000
1003
0100
,
0020
0000
1000
0000
0031
1000
0000
0001
,
1000
0000
1001
0000
1000
0001
0000
0001
,
0100
0000
1001
0000
0001
1000
0000
1000
,
0100
0000
1001
0000
1000
0010
0000
1000
,
0001
0000
1001
0000
0001
0010
0000
0001
,
1000
0000
1001
0000
0001
0100
1000
0000
,
0110
0000
0001
0100
0010
0000
0100
0010
,
1000
0000
1001
0000
1000
0100
0001
0000
,
0110
0000
1000
0100
0010
0000
0100
0010
,
0001
0000
1001
0000
1000
0100
0001
0100
,
1000
0000
1001
0000
0001
0100
1000
0100
,
0001
0000
1000
0100
0001
0100
1000
0001
,
0100
0001
1000
0100
0001
0100
1000
0000
,
1001
0000
0001
0100
0000
0001
0100
0000
,
1000
0100
0000
1000
0100
0000
1001
0000
,
1001
0000
0001
0010
0000
0001
0010
0000
,
1000
0010
0000
1000
0010
0000
1001
0000
,
1001
0000
0001
0100
0000
0100
1000
0000
,
1000
0010
0000
0010
0001
0000
1001
0000
,
1000
0100
0000
0100
0001
0000
0001
0010
,
0000
0010
1000
0000
1001
0000
1100
1100
,
0000
1010
1010
0000
0101
0101
0000
0011
,
0011
0000
1001
0000
0101
0101
0000
0011
,
0011
0000
1100
1100
0000
1010
1010
0000
,
1001
0100
0100
0100
,
0100
1001
0000
0000
,
0001
0100
1000
0100
0001
0100
0001
1000
,
0100
1000
0001
1000
0001
0100
1000
0100
,
0001
0000
1000
0100
0001
0100
1000
0100
,
1000
0001
0100
0001
1000
0001
1000
0100
,
0001
0100
1000
0000
2001
0000
0100
0000
,
3020
0001
0230
1000
,
0301
1002
0100
0023
,
1000
0230
0001
1300
,
0101
0010
1001
0100
,
1001
0110
1001
0001
,
1100
0010
1001
0100
,
1001
0000
0110
0000
1001
0000
0001
0001
,
0001
0000
0000
0000
1000
1000
1000
0000
,
0000
0000
1001
0001
1001
0000
0000
0000
,
1001
1000
1001
0000
0000
0000
0000
0000
;

//---------------dance-single - ----------------
#NOTES:
     dance-single:
     :
     Easy:
     5:
     0.527653,0.494658,0.559905,0.307045,0.000000,313.000000,62.000000,34.000000,0.000000,0.000000,0.000000,0.527653,0.494658,0.559905,0.307045,0.000000,313.000000,62.000000,34.000000,0.000000,0.000000,0.000000:
0000
0000
0000
0000
,
0000
0000
0000
0000
,
0000
0000
0000
0000
,
0000
0000
0000
0000
,
0000
0000
0000
0000
,
0000
0000
0000
0000
,
1001
1001
0000
1001
,
1001
0001
0100
1000
,
0001
1000
0100
0001
,
1001
1001
0000
1001
,
1001
1000
0100
0001
,
1000
0001
0100
1000
,
2001
0100
3020
0001
,
0230
1000
0301
1002
,
0100
0023
1000
0230
,
0001
1300
0101
0010
,
1001
0100
1001
0110
,
1001
0001
0100
0010
,
1000
0001
0100
0010
,
1000
0000
2001
0000
0100
0000
0000
0001
,
0000
0010
3020
0000
0001
0000
0230
0000
,
1000
0302
0010
2003
,
0100
3020
0001
0100
,
1030
0000
1002
0000
0100
0000
0000
1000
,
0000
0010
0023
0000
1000
0000
0230
0000
,
0001
2300
0010
3002
,
0100
0023
1000
0100
,
0031
1001
0001
0100
,
0010
1001
1000
0100
,
0010
1001
0001
1000
,
0100
1001
1000
0001
,
0100
0000
1002
0000
0000
0100
0000
0000
,
0103
0000
2001
0000
0000
0100
0000
0000
,
3100
0000
1001
0000
1000
0100
0001
0100
,
1000
0000
1001
0000
0001
0100
1000
0100
,
0001
0000
1002
0000
0100
0000
1003
0100
,
0020
0000
1000
0000
0031
1000
0000
0001
,
1000
0000
2001
0000
0100
0000
3001
0100
,
0020
0000
0001
0000
1030
0001
0000
1000
,
0001
0000
1002
0000
0000
0010
0000
0000
,
0013
0000
2001
0000
0000
0010
0000
0000
,
3010
0000
1002
0000
0000
0100
0000
0000
,
0103
0000
2001
0000
0000
0100
0000
0000
,
3100
1001
0001
0100
,
1000
0100
0010
1000
,
0001
1000
0100
0001
,
0100
0010
0001
1000
,
0001
0100
0001
0001
,
1000
0100
1000
1000
,
1001
0000
0001
0100
1000
0100
0001
0000
,
1001
0000
1000
0100
0001
0100
1000
0000
,
1001
0000
0001
1000
0000
1000
0001
0000
,
1000
0001
0000
0001
1000
0000
1001
0000
,
1001
0000
1000
0001
0000
0001
1000
0000
,
0001
1000
0000
1000
0001
0000
1001
0000
,
1001
0000
1000
1000
0000
0100
0100
0000
,
0010
0010
0000
0001
0001
0000
1001
0000
,
0001
0001
0000
0100
0100
0000
0010
0010
,
0000
1000
1000
0000
1001
0000
0001
0100
,
0000
0100
1000
0000
1000
0010
0000
0010
,
0001
0000
1001
0000
1000
0100
0000
0100
,
0001
0000
0001
0010
0000
0010
1000
0000
,
1001
0100
0100
0100
,
0100
1001
0000
0000
,
1001
0000
1000
0100
0001
0100
1000
0000
,
0001
0100
1000
0000
0001
0010
1000
0001
,
1000
0000
1001
0000
0001
0100
1000
0100
,
0001
0000
1000
0100
0001
0000
1000
0010
,
0001
1000
0001
0000
1002
0000
0100
0000
,
0023
1000
0230
0001
,
1300
2001
0100
3020
,
0001
0230
1000
0301
,
1100
0010
1001
0100
,
1001
0110
1001
1000
,
0101
0010
1001
0100
,
1001
0000
0110
0000
1001
0000
1000
1000
,
1000
0000
0000
0000
0001
0001
0001
0000
,
0000
1001
1001
0000
,
1001
1001
0000
0000
;
