#TITLE:Caliburne ~Story of the Legendary sword~;
#SUBTITLE:;
#ARTIST:Project Grimoire;
#TITLETRANSLIT:Caliburne ~Story of the Legendary sword~;
#SUBTITLETRANSLIT:;
#ARTISTTRANSLIT:;
#GENRE:;
#CREDIT:Silverhawke;
#MENUCOLOR:;
#METERTYPE:DDR;
#BANNER:[Round 5 Singles] - Caliburne ~Story of the Legendary sword~.png;
#BACKGROUND:[Round 5 Singles] - Caliburne ~Story of the Legendary sword~-bg.png;
#LYRICSPATH:;
#CDTITLE:cdtitle.png;
#MUSIC:[Round 5 Singles] - Caliburne ~Story of the Legendary sword~.mp3;
#OFFSET:-0.038;
#SAMPLESTART:46.767;
#SAMPLELENGTH:15.000;
#SELECTABLE:YES;
#LISTSORT:;
#BPMS:0.000=190.000,100.000=95.000,124.000=190.000,268.000=95.000,280.000=190.000,381.000=188.000,384.000=182.000,387.000=172.000,388.000=166.000,389.000=158.000,391.000=149.000,392.000=142.000,393.000=139.000,394.000=133.000,395.000=129.000,396.000=130.000,397.000=108.000;
#STOPS:319.000=0.316
;
#BGCHANGES:3.000=[Round 5 Singles] - Caliburne ~Story of the Legendary sword~.avi=1.000=1=0=0,
99999=-nosongbg-=1.000=0=0=0 // don't automatically add -songbackground-
;
#ATTACKS:;

//---------------dance-single - ----------------
#NOTES:
     dance-single:
     :
     Hard:
     9:
     0.650,0.922,0.442,0.496,0.041:
0000
0000
0000
0000
,
0000
0000
0000
0000
,
0000
0000
0000
0000
,
0000
0000
0000
0000
,
0000
0000
0000
0000
,
0000
0000
0000
0000
,
0000
0000
0000
0002
,
2003
0000
3000
0100
0020
0000
0032
0000
,
0000
0000
0103
0010
2000
0000
3000
0010
,
0200
0000
0302
0000
0000
0000
0013
0100
,
1000
0001
1000
0001
0100
0010
1000
0100
,
1000
0100
0010
0001
1000
0100
0001
0100
,
1000
0100
0010
0000
0001
0000
1001
0000
,
1000
0000
0010
0100
0010
0000
0100
0000
,
0001
1000
0100
0000
0010
0000
0001
1000
,
0001
0000
1000
0010
0001
0010
1000
0001
,
1000
0000
0010
0100
0010
0000
0100
0000
,
0001
1000
0100
0000
0010
0000
0001
1000
,
0001
0000
1000
0100
0001
0100
1000
0001
,
1000
0000
0010
0100
0001
0010
0100
0000
,
0010
0001
1000
0001
0010
0000
0100
1000
,
0001
1000
0010
0100
0001
0010
0100
1000
,
0001
0000
0100
1000
0100
0001
0100
0000
,
0010
1000
0001
1000
0100
0000
0010
0001
,
0100
0010
1000
0000
1100
0000
0101
0000
,
1002
0100
0010
0100
0003
1000
0200
0010
,
0310
0002
1000
1003
0020
0100
1000
0100
,
0030
1000
0002
0010
0013
0200
1000
1300
,
0002
0000
0100
0000
0010
0000
0100
0000
0003
0000
1000
0000
0010
0200
0001
0000
,
0301
2000
0100
3100
0020
0001
0130
2000
,
0010
0000
3001
0000
0100
0010
2000
0000
0100
0000
0010
0000
3000
0000
1000
0000
,
1001
0000
0001
0100
0010
0000
0110
0000
,
0100
0001
1000
0000
1001
0000
0001
0100
,
0010
0000
1010
0000
1000
0100
0001
0100
,
1100
0000
1000
0010
0100
0000
0101
0000
,
0001
0010
0100
0000
1100
0000
1000
0001
,
0100
0000
0000
0000
0110
0000
0000
0000
0010
1000
0010
0000
0100
0000
0000
0000
,
1001
0000
1000
0010
0100
0000
0101
0000
,
0001
1000
0100
0000
0110
0000
0010
0100
,
1000
0000
1001
0000
0001
0100
1000
0100
,
0101
0000
0001
0010
0100
0000
1100
0000
,
1000
0000
0001
0010
0001
0000
0100
0000
0110
0000
0000
0000
0010
0000
1000
0000
,
0001
0011
0110
1100
,
0101
0001
0000
1100
1000
0000
0110
0000
,
1001
0000
0010
1000
1100
0100
0000
0011
,
0010
0000
0101
0000
1010
0000
0001
0100
,
0010
1000
0100
0010
0001
0010
0100
1000
,
0001
0100
0010
1000
0100
0001
0100
1000
,
0010
0100
1000
0100
0001
0010
0100
0000
,
0011
0001
0000
1010
1000
0000
0101
0000
,
1100
0000
1001
0000
1010
0010
0000
0101
,
0100
0000
1100
0000
0011
0000
1000
0100
,
0001
0000
0100
0010
0001
0000
1000
0000
,
0010
0100
0001
0000
1000
0100
1000
0100
,
0010
0001
0100
0010
0100
0010
1000
0001
,
0020
0000
0130
0000
1000
0001
0200
0000
,
0310
0000
2000
0000
3002
0000
1003
0100
,
0001
0100
2000
0000
3010
0000
0100
0001
,
2000
3200
0320
0032
,
1003
0010
0200
0000
2300
0000
3100
0000
,
0002
0000
2003
0000
3000
0000
0100
0010
,
0002
2003
3020
0230
,
0302
0000
0023
0000
2030
0000
3010
0001
,
1000
0000
2002
0000
3003
0000
0001
0100
,
0001
0000
1000
0010
0001
0010
1000
0000
,
0001
0010
1000
0010
0001
0000
0100
0000
,
0010
0000
1000
0100
0010
0001
0100
0010
,
2002
0000
0000
0000
0000
0000
0000
0000
3003
0000
0001
0100
0202
0000
0000
0000
,
0000
0000
0000
0000
0303
0000
1000
0100
2200
0000
3300
0001
0010
0000
0022
0000
,
0033
1000
0010
0000
2020
0000
3030
1000
0001
0000
0110
0000
1001
0000
0110
0000
,
0002
0000
0013
0100
1000
0000
2100
0000
,
3001
0000
0100
0010
2000
0000
3001
0100
,
1000
0100
0002
0000
0013
0000
0100
1000
,
0002
0103
0101
2000
,
3100
0000
1100
0000
0001
0000
0001
0100
,
0001
0000
1000
0000
1000
0100
1000
0000
,
0001
0010
0001
0010
0001
0010
0100
1000
,
0100
1000
0100
1000
0001
0100
0001
0100
,
0001
0100
0010
1000
0010
1000
0010
1000
,
0001
0000
0000
0000
0100
0000
0000
0000
1000
0000
0000
0000
0100
0000
0000
0000
0001
0000
0000
0000
0100
0000
0000
0000
0020
0030
0000
0000
0000
0000
0000
0000
,
1000
0000
1001
0000
0001
0010
0100
0000
,
1100
0000
1000
0001
0100
0010
1000
0000
,
0010
0100
0001
1000
1001
0000
0001
0000
,
0100
0010
1000
0000
0010
0100
0010
0000
,
0210
0302
2003
3200
,
0310
0001
1001
0110
,
1001
0000
0011
0000
0010
0100
1000
0000
,
1010
0000
0000
0000
0010
0000
0000
0000
0200
0000
0000
0000
0301
1000
0001
0000
,
0200
0320
2030
3200
,
0310
0001
2000
0000
3010
0100
0001
0000
,
0011
0110
1100
2001
,
3001
0100
0010
0000
2000
0000
3100
0010
,
0001
0000
1000
0100
0001
0100
1000
0100
,
0001
0100
1000
0100
0010
0001
2002
0000
,
0000
0000
0000
0000
,
0000
0000
3003
0000
0000
0000
0001
0100
,
0010
0000
0000
1000
0100
0000
0010
0000
,
0001
1000
0010
0001
,
0100
0000
1000
0000
0100
0000
0001
0010
,
0000
0000
0000
0000
1000
0100
0020
0000
0000
0000
0000
0000
0000
0000
0000
0000
0000
0000
0000
0000
0000
0000
0000
0000
0000
0000
0000
0000
0000
0000
0000
0000
,
0000
0000
0030
0000
;

//---------------dance-single - ----------------
#NOTES:
     dance-single:
     :
     Edit:
     10:
     0.639,0.813,0.598,0.523,0.160:
0000
0000
0000
0000
,
0000
0000
0000
0000
,
0000
0000
0000
0000
,
0000
0000
0000
0000
,
0000
0000
0000
0000
,
0000
0000
0000
0000
,
0000
0000
0000
0001
,
1000
0000
0100
0000
1000
0000
0000
0000
0000
0000
0000
0000
0000
0000
0000
0000
0000
0000
0010
0000
0000
0000
0000
0000
0100
0000
0000
0000
0000
0000
0000
0000
0000
0000
0000
0000
0001
0000
0000
1000
0000
0000
0001
0000
0000
1000
0000
0000
,
0001
0000
0000
0000
0000
0000
0010
0000
0000
0100
0000
0000
2000
0000
0000
0000
0000
0000
3000
0000
0000
0001
0100
0001
,
0000
0000
2000
0000
3000
0000
0010
0100
,
0001
0001
0010
0010
0100
0100
1000
1000
,
0010
0000
0010
0000
0100
0000
0100
0000
0001
0010
0001
0010
0100
1000
0100
1000
,
0010
0100
0010
0100
0001
0000
0000
0000
1000
0000
0000
0000
1001
0000
0000
0000
,
0001
0010
0001
1000
0001
0100
0002
0000
,
0013
0100
1100
0000
1000
0010
1000
0001
,
1000
0100
1000
0010
0001
0010
1000
0100
,
0010
0001
1000
0001
0010
0001
0200
0000
,
0310
1000
1001
0000
0001
0100
0001
1000
,
0001
0010
0001
0100
1000
0100
0001
0010
,
0110
0000
1000
0001
0100
1000
0200
0000
,
0310
0000
1000
0001
1000
0000
0100
0000
0020
0000
0000
0000
0031
0000
0100
0000
,
0010
1000
0001
0010
0001
1000
0100
1000
,
0010
0000
0100
0001
0100
0010
2000
0000
,
3001
0010
0100
1000
0010
0010
0100
0100
,
0001
0000
0001
0000
1000
0100
1000
0100
0010
0001
0010
0001
1000
0010
1000
0010
,
0200
0000
0000
0001
0000
0320
2030
0000
,
0000
3002
0000
0000
0023
0000
0000
0100
,
0000
0032
2003
0000
0000
3020
0000
0000
,
0230
0000
0000
0000
0000
0000
0001
0000
0000
0000
0320
0000
1030
0002
0000
0000
,
0000
0023
0000
0000
0230
0000
0000
2300
,
0000
0000
3020
0000
0130
0001
2000
0000
0000
0000
0001
0000
0000
0000
3100
0000
,
2010
3000
2001
3000
2100
3000
2001
3000
,
2010
3000
2001
3001
2010
3000
2100
3000
,
2001
0000
3000
0000
2200
0000
3000
0300
2010
0000
3001
0000
2100
0000
3001
0000
,
2010
3000
2100
3000
2001
3000
2010
3000
,
2100
3000
2001
3001
2010
3000
2100
3000
,
2001
0000
3000
0000
2020
0000
3000
0030
2100
0001
3100
0000
2001
0000
3100
0000
,
1002
0003
0102
0003
0012
0003
0102
0003
,
1002
0003
0102
0103
1002
0003
0012
0003
,
0102
0000
0003
0000
2002
0000
0003
3000
0102
0000
1003
0000
0012
0000
1003
0000
,
0102
0003
0012
0003
0102
0003
1002
0003
,
0102
0000
0013
1000
0012
0000
1003
0000
0102
0000
1003
0000
0012
0000
0003
0000
,
0102
0003
0012
0003
1002
0003
0102
0003
,
1100
1000
0001
0101
0100
0010
0110
0000
,
1001
0000
0010
1000
1010
0010
0100
0101
,
0001
0010
0110
0000
1001
0000
0001
0100
,
0010
1000
0100
0001
0100
1000
0010
0100
,
1000
0100
0001
0010
0100
1000
0010
0001
,
0010
1000
0001
0010
1000
0010
0001
0000
,
0101
0001
1000
1100
0100
0010
0110
0000
,
1001
0000
0110
0000
0011
0010
0100
1100
,
1000
0010
0110
0000
1001
0000
1000
0100
,
0010
0001
0010
0001
1000
0010
0100
0001
,
0100
0001
1000
0100
0010
0010
0001
0001
,
1000
0000
1000
0000
0010
0100
0010
0100
0001
1000
0001
1000
0100
0010
0100
0010
,
0001
0000
1000
0100
1000
0010
0100
0000
,
0110
0000
1010
0000
1000
0000
0001
0100
,
0001
0010
0100
0000
1100
0000
1000
0001
,
0100
0000
0010
1000
0001
0000
0010
0000
,
0100
1000
0001
0000
1001
0000
1000
0010
,
0100
0000
0110
0000
0010
1000
0001
1000
,
0100
0000
0010
0001
0100
0000
0110
0000
,
1010
0000
1001
0000
0001
0000
0010
0100
,
1000
0000
2002
0000
3003
0000
0001
0100
,
1000
0000
0100
0001
0100
1000
0100
0000
,
0010
1000
0010
0001
0010
1000
0100
0010
,
0001
0000
0010
0000
0100
1000
0100
1000
0001
0100
0001
0100
0010
1000
0010
1000
,
0001
0000
0000
1000
0100
0000
0010
0000
0000
0000
0001
0100
0110
0000
0000
0010
,
1000
0000
0001
0000
0000
0000
1000
0100
0110
0000
0000
0001
0100
0000
0110
0000
,
0000
1000
0100
0000
0110
0000
0001
0000
1000
0000
1010
0000
0110
0000
0101
0000
,
1000
0000
0010
0100
0001
0000
0010
0000
,
0100
0001
0100
1000
0010
0000
0100
1000
,
0100
0001
0010
0000
0100
0000
1000
0001
,
0100
0000
0010
1000
0001
0000
0011
0000
,
0110
0000
1100
0000
1000
0001
1000
0001
,
0100
0010
1000
0100
1000
0100
0010
0001
,
1000
0100
0010
0001
0010
0100
1000
0001
,
0100
0010
1000
0010
0100
0001
1000
0100
,
0010
0100
1000
0001
0100
0010
0100
0001
,
1000
0000
0100
0000
1000
0000
0100
0000
0010
0000
0001
0000
0010
0000
0001
0000
1000
0000
0010
0000
1000
0000
0010
0000
0200
0300
0000
0000
0000
0000
0000
0000
;

//---------------dance-single - ----------------
#NOTES:
     dance-single:
     :
     Medium:
     7:
     0.496,0.580,0.285,0.333,0.014:
0000
0000
0000
0000
,
0000
0000
0000
0000
,
0000
0000
0000
0000
,
0000
0000
0000
0000
,
0000
0000
0000
0000
,
0000
0000
0000
0000
,
0000
0000
0000
0001
,
0100
0000
0000
0010
1000
0000
0001
0000
,
0000
0000
1000
0100
1000
0000
0000
0001
,
0100
0000
0010
0000
0000
0000
1000
0001
,
0010
0000
0100
1000
0001
0000
0100
0000
,
0010
1000
2002
0000
,
3003
0220
0000
0330
,
0101
1100
0101
0020
,
1030
0100
0010
0000
1100
0000
0101
0000
,
1100
0000
0010
0001
1000
0001
0100
0000
,
1010
0011
1010
0200
,
0301
0010
0100
0000
0011
0000
1010
0000
,
0011
0000
0100
1000
0001
1000
0010
0000
,
0100
0000
0001
1000
0100
1000
0001
0000
,
0100
0010
0100
0000
0001
0000
1000
0100
,
1000
0010
0100
0001
,
1000
0000
0100
0010
0100
1000
0100
0000
,
0010
0001
1000
0000
0010
0000
0100
0001
,
0100
0010
1000
1001
,
0002
0000
0000
0003
0000
0010
0200
0000
,
0300
2000
0000
3000
0002
0000
0000
0003
,
0000
0100
0020
0000
0030
2000
0000
3000
,
0002
0000
0000
0000
0000
0000
0003
0000
0000
0000
0010
0000
0100
2000
0000
0000
,
3000
0002
0000
0003
0200
0000
0300
0020
,
0030
0000
1000
0000
0001
0010
0200
0000
0000
0000
0300
0000
0000
0000
1000
0000
,
0001
1000
1100
0001
,
1000
1010
0100
0001
,
1001
0000
0100
0000
0010
1000
0001
0000
,
0010
0100
1100
0010
,
0001
0101
0010
1000
,
1001
0000
0001
0000
0010
0100
1000
0000
,
0001
1000
1100
0001
,
1000
1010
0100
0001
,
1001
0000
0100
0000
0010
1000
0001
0000
,
0010
0000
0100
1000
0001
0000
0100
0000
,
0010
0100
0001
1000
0100
0000
0010
0000
,
0001
1000
0010
0110
,
1000
1000
0000
0001
0001
0000
0100
0000
,
0110
0000
0000
0000
0001
0001
0000
1000
,
1000
0100
0110
0000
,
0010
0001
0100
0000
0010
0000
0100
0001
,
0010
0000
0100
0000
1000
0010
0100
0000
,
1000
0000
0100
0010
1000
0000
1001
0000
,
0001
0001
0000
1000
1000
0000
0100
0000
,
0110
0000
0001
0000
1000
1000
0000
0001
,
0001
0100
0110
1000
,
0001
0000
0001
0100
0001
0000
1000
0000
,
1000
0100
1000
0000
0001
0010
0100
1000
,
0010
0100
0001
0000
1000
0000
1001
0000
,
0002
0000
0103
0000
0010
1000
0100
0000
,
0010
0000
0100
0000
1000
0000
0001
0100
,
0001
0010
0001
0000
0100
0000
0010
1000
,
0001
0000
0010
0100
1000
0000
0001
0000
,
0100
0010
2000
3000
,
0001
0000
0200
0000
0300
0000
0010
1000
,
0001
0000
0010
0100
1000
0000
0001
0000
,
0100
0000
0010
0000
2000
0000
3000
0001
,
1000
0000
2002
0000
3003
0000
0001
0010
,
0001
0000
0000
1000
0001
0100
0001
0000
,
0000
0001
1000
0100
1000
0000
0010
0000
,
0100
0000
0001
0010
0100
1000
0010
0100
,
0002
0000
0000
0000
0000
0000
0000
0000
0003
0000
1000
0100
2000
0000
0000
0000
,
0000
0000
0000
0000
3000
0000
0001
0100
0001
0000
0000
0000
1000
0000
0101
0000
,
0000
0001
1100
0000
1000
0001
0100
0010
,
1000
0000
1000
0100
0010
0000
0001
0000
,
1000
0000
1001
0000
0001
0000
0001
0100
,
0010
1000
0001
1001
,
2000
3200
0320
0032
,
0203
0320
2030
3001
,
0001
0010
0100
0100
,
1000
0000
0010
0100
0010
0000
1000
0000
,
0100
0010
0100
0000
1000
0000
0001
0100
,
0001
0000
0010
0000
0100
1000
0100
0000
,
0010
0000
0000
0000
0001
0000
0000
0000
0100
0000
0000
0000
0010
0000
0000
0000
1000
0000
0000
0000
0100
0000
0000
0000
0020
0030
0000
0000
0000
0000
0000
0000
,
0110
0000
1001
0000
0001
0100
0010
0000
,
1000
0000
0100
0000
0010
0100
1000
0000
,
0010
0100
0001
0000
1000
0000
0001
0000
,
0010
0100
1000
0000
0010
0100
0001
0000
,
1000
0100
0010
0001
,
0100
1000
0100
0010
,
0110
0000
2000
0000
3100
0010
0001
0000
,
0202
0303
2000
3020
,
0230
0302
0023
0230
,
1300
0001
0100
0000
0010
1000
0100
0000
,
0001
0100
1000
0020
,
0001
0100
2030
0100
,
3001
0000
1000
0100
0001
0100
1000
0010
,
0001
0010
1000
0100
0010
0001
2002
0000
,
0000
0000
0000
0000
,
0000
0000
3003
0000
0000
0000
0001
0100
,
0010
0000
1000
0100
,
0001
0010
1000
0000
,
0000
0000
0001
0000
0000
0000
0100
0010
,
0000
2002
0000
0000
0000
0000
0000
0000
,
0000
0000
3003
0000
;

//---------------dance-single - ----------------
#NOTES:
     dance-single:
     :
     Easy:
     4:
     0.253,0.273,0.068,0.183,0.000: // measure 1
0000
0000
0000
0000
,  // measure 2
0000
0000
0000
0000
,  // measure 3
0000
0000
0000
0000
,  // measure 4
0000
0000
0000
0000
,  // measure 5
0000
0000
0000
0000
,  // measure 6
0000
0000
0000
0000
,  // measure 7
0000
0000
0000
1000
,  // measure 8
1000
0000
0001
0001
,  // measure 9
0000
0100
0100
0000
,  // measure 10
0010
0010
0000
1000
,  // measure 11
0100
0000
0010
0001
,  // measure 12
0000
1000
0020
0000
,  // measure 13
0030
0200
0000
0300
,  // measure 14
0001
0100
0100
0010
,  // measure 15
0000
0000
1000
0100
,  // measure 16
0100
0010
0000
0000
,  // measure 17
0001
0100
0100
0010
,  // measure 18
0000
0000
1000
0100
,  // measure 19
0100
0010
0000
0000
,  // measure 20
0001
0100
0001
1000
,  // measure 21
0000
0000
1000
0100
,  // measure 22
1000
0001
0000
0000
,  // measure 23
0001
0010
0001
1000
,  // measure 24
0000
0000
1000
0010
,  // measure 25
1000
0001
0000
0000
,  // measure 26
1001
0000
0000
0110
,  // measure 27
0000
0000
1001
0000
,  // measure 28
0000
0110
0000
0000
,  // measure 29
2000
0000
0000
3000
0000
0000
0200
0000
,  // measure 30
0000
0300
0000
0000
0020
0000
0000
0030
,  // measure 31
0000
0000
0002
0000
0000
0003
0000
0000
,  // measure 32
1000
1000
0100
1000
,  // measure 33
0000
1000
0001
0001
,  // measure 34
0100
0001
0000
0001
,  // measure 35
1000
1000
0010
1000
,  // measure 36
0000
1000
0001
0001
,  // measure 37
0010
0001
0000
0001
,  // measure 38
1000
0100
1000
0100
,  // measure 39
0000
1000
0001
0100
,  // measure 40
0001
0100
0000
0001
,  // measure 41
1000
0010
1000
0010
,  // measure 42
0000
1000
0001
0010
,  // measure 43
0001
0010
0000
0000
,  // measure 44
0100
0000
0000
0100
0000
0000
0100
0000
,  // measure 45
0100
0000
0000
0000
0010
0000
0000
0010
,  // measure 46
0000
0010
0010
0000
,  // measure 47
0001
0000
0100
0010
,  // measure 48
0000
1000
0100
0000
,  // measure 49
0010
0001
0001
0000
,  // measure 50
1000
0000
0000
1000
0000
0000
1000
0000
,  // measure 51
1000
0000
0000
0000
0001
0000
0000
0001
,  // measure 52
0000
0001
0001
0000
,  // measure 53
0100
0000
0010
1000
,  // measure 54
0000
0100
0010
0000
,  // measure 55
0000
2002
0000
3003
,  // measure 56
0001
0000
0001
0100
,  // measure 57
0000
0100
0010
0000
,  // measure 58
0010
1000
0000
1000
,  // measure 59
0100
0000
0100
0010
,  // measure 60
0000
0010
0001
0000
,  // measure 61
0001
1000
0000
1000
,  // measure 62
0001
0000
0001
0100
,  // measure 63
0000
0100
0010
0000
,  // measure 64
0010
1000
0000
0000
,  // measure 65
0001
0001
0001
1000
,  // measure 66
1000
1000
0020
0000
,  // measure 67
0030
0200
0000
0300
,  // measure 68
2002
0000
3003
0220
,  // measure 69
0000
0000
0330
0000
0001
0000
0000
1000
,  // measure 70
0000
0000
0010
0000
0000
0100
0000
0000
,  // measure 71
0001
0000
0010
0100
,  // measure 72
0000
0000
1000
0000
,  // measure 73
0010
0100
0000
0000
,  // measure 74
0001
0000
1000
1000
,  // measure 75
0000
0001
0002
0000
,  // measure 76
0003
0200
0000
0300
,  // measure 77
0020
0000
0030
2000
,  // measure 78
0000
3000
0002
0000
,  // measure 79
0003
0020
0000
0030
,  // measure 80
0200
0000
0300
1001
,  // measure 81
0000
0001
0000
0100
,  // measure 82
0010
0000
1000
0001
,  // measure 83
0000
0010
0100
0000
,  // measure 84
1000
0100
0000
0010
,  // measure 85
0001
0000
1000
0010
,  // measure 86
0000
0100
0001
0001
,  // measure 87
0001
1000
0000
0100
,  // measure 88
0010
0000
0100
1000
,  // measure 89
0001
0100
0010
0000
,  // measure 90
0100
0001
0000
1000
,  // measure 91
0001
0010
0100
2000
,  // measure 92
0000
3000
0002
0000
,  // measure 93
0003
0100
0100
0100
,  // measure 94
0100
0100
0100
0220
,  // measure 95
0000
0000
0000
0000
,  // measure 96
0000
0330
0000
0000
,  // measure 97
1000
0000
0000
0001
,  // measure 98
0000
0000
0100
0000
,  // measure 99
0000
0010
0000
0000
,  // measure 100
0000
2002
0000
0000
0000
0000
0000
0000
,  // measure 101
0000
0000
3003
0000
;
