#VERSION:0.81;
#TITLE:Sylvan Fairy's Dance;
#SUBTITLE:;
#ARTIST:t+pazolite;
#TITLETRANSLIT:;
#SUBTITLETRANSLIT:;
#ARTISTTRANSLIT:;
#GENRE:Sylveon;
#ORIGIN:;
#CREDIT:;
#BANNER:[Round 4 Singles] - Sylvan Fairy's Dance.png;
#BACKGROUND:[Round 4 Singles] - Sylvan Fairy's Dance-bg.png;
#PREVIEWVID:;
#JACKET:[Round 4 Singles] - Sylvan Fairy's Dance-jacket.png;
#CDIMAGE:;
#DISCIMAGE:;
#LYRICSPATH:;
#CDTITLE:cdtitle.png;
#MUSIC:[Round 4 Singles] - Sylvan Fairy's Dance.mp3;
#OFFSET:-0.084000;
#SAMPLESTART:65.866562;
#SAMPLELENGTH:10.971428;
#SELECTABLE:YES;
#BPMS:0.000=175.000;
#STOPS:;
#DELAYS:;
#WARPS:;
#TIMESIGNATURES:0.000=4=4;
#TICKCOUNTS:0.000=4;
#COMBOS:0.000=1;
#SPEEDS:0.000=1.000=0.000=0;
#SCROLLS:0.000=1.000;
#FAKES:;
#LABELS:0.000=Song Start;
#BGCHANGES:;
#KEYSOUNDS:;
#ATTACKS:
;

//---------------dance-single - ----------------
#NOTEDATA:;
#CHARTNAME:;
#STEPSTYPE:dance-single;
#DESCRIPTION:;
#CHARTSTYLE:;
#DIFFICULTY:Hard;
#METER:10;
#RADARVALUES:0.747383,0.827260,0.225504,0.252564,0.315705,527.000000,25.000000,28.000000,0.000000,0.000000,0.000000,0.000000,0.000000,0.747383,0.827260,0.225504,0.252564,0.315705,527.000000,25.000000,28.000000,0.000000,0.000000,0.000000,0.000000,0.000000;
#CREDIT:;
#NOTES:
0000
0000
0000
0000
,
0000
0000
0000
0000
,
0000
0000
0000
0000
,
0000
0000
0000
0000
,
0000
0000
0000
0000
,
0000
0000
0000
0000
,
0000
0000
0000
0000
,
0000
0000
0000
0000
,
1002
0100
0023
1000
,
0230
0001
0010
1300
,
2001
0100
3020
0001
,
0230
1000
0010
0301
,
1000
0100
0010
0001
1000
0100
0010
0001
,
1000
0100
0010
0001
1000
0100
0010
0001
,
1000
0001
1000
0001
1000
0001
1000
0001
1000
0001
1000
0001
1000
0001
1000
0000
,
0001
0000
0000
0001
1000
0000
1000
0000
0000
0000
1001
0000
1001
0000
0000
0000
,
0001
0100
1000
0100
0001
0010
1000
0010
,
0001
0100
0010
0001
1000
0100
0010
1000
,
0001
0010
0100
0100
0001
0010
0100
0100
,
0001
0000
1000
0000
0010
0100
0010
0100
0010
0000
0000
0000
1001
0000
0000
0000
,
1000
0100
0001
0100
1000
0010
0001
0010
,
1000
0100
0010
1000
0001
0100
0010
0001
,
1000
0010
0100
0100
1000
0010
0100
0100
,
1000
0000
0001
0000
0010
0100
0010
0100
0010
0000
0000
0000
1001
0000
0000
0000
,
1000
0100
0010
0100
0001
0100
0010
0100
,
1000
0010
0100
0010
0001
0010
0100
0100
,
0001
0010
0100
0010
1000
0010
0100
0010
,
0001
0000
1000
0000
0010
0100
0010
0000
0100
0000
0010
0100
0010
0000
1000
0000
,
0001
0100
0010
0100
1000
0100
0010
0100
,
0001
0010
0100
0010
1000
0010
0100
0100
,
1000
0010
0100
0010
0001
0010
0100
0010
,
1000
0000
0000
1000
0001
0000
0001
0000
0000
0000
1001
0000
1001
0000
0000
0000
,
2001
0001
0000
0100
3200
0000
0001
0000
,
2300
0000
0001
0001
3001
0000
0000
0000
,
1002
1000
0000
0100
0203
0000
1000
0000
,
0302
0000
1000
1000
1003
0000
0000
0000
,
2001
0000
0001
0000
0000
0000
0100
0000
3200
0000
1000
0001
0000
0000
1000
0000
,
2300
0000
0000
0000
3200
0000
0001
1000
0000
0000
0000
0000
0310
0000
0000
0000
,
1002
0000
1000
0000
0000
0000
0100
0000
0203
0000
0001
1000
0000
0000
0001
0000
,
0302
0000
0000
0000
0203
0000
1000
0001
0000
0000
0000
0000
0310
0000
0000
0000
,
1002
0100
0023
1000
,
0230
0001
0010
1300
,
2001
0100
3020
0001
,
0230
1000
0010
0301
,
1000
0100
0010
0001
0010
0100
0010
0001
,
1000
0100
0010
0001
0010
0100
0010
0001
,
1000
0100
0010
0001
1000
0100
0010
0001
,
0100
0010
0100
0010
0100
0000
0001
0000
1000
0000
1000
0000
1001
0000
0000
0000
,
0001
0000
0001
0000
1000
0000
0100
0000
0010
0000
0001
1000
0001
0000
0100
0000
,
0100
0000
0000
0100
0001
0000
1000
0000
0100
0000
0000
0000
1100
0000
0000
0000
,
1000
0000
1000
0000
0001
0000
0100
0000
0010
0000
1000
0001
1000
0000
0100
0000
,
0100
0000
0000
0100
1000
0000
0001
0000
0100
0000
0000
0000
0101
0000
0000
0000
,
0001
0000
0001
0000
1000
0000
0100
0000
0010
0000
0001
1000
0001
0000
0100
0000
,
0100
0000
0000
0100
0001
0000
1000
0001
1000
0000
0000
0000
1002
0000
0000
0000
,
0100
0000
0100
0000
0000
0000
1000
0000
1003
0000
0100
0010
0100
0000
1000
0000
,
1001
0000
0000
1000
0001
0000
0100
0000
0010
0000
0100
0000
0001
1000
0001
0000
,
1000
0000
1000
0000
0001
0000
0100
0000
0010
0000
1000
0001
1000
0000
0100
0000
,
0100
0000
0000
0100
1000
0000
0001
0000
0100
0000
0000
0000
0101
0000
0000
0000
,
0001
0000
0001
0000
1000
0000
0100
0000
0010
0000
0001
1000
0001
0000
0100
0000
,
0100
0000
0000
0100
0001
0000
1000
0000
0100
0000
0000
0000
1100
0000
0000
0000
,
1000
0000
1000
0000
0001
0000
0100
0000
0010
0000
1000
0001
1000
0000
0100
0000
,
0100
0000
0000
0100
1000
0000
0001
1000
0001
0000
0000
0000
2001
0000
0000
0000
,
0100
0000
0100
0000
0000
0000
0001
0000
3001
0000
0100
0010
0100
0000
0001
0000
,
1001
0000
0000
0001
1000
0000
0100
0000
0010
0000
0100
0000
1000
0001
1000
0000
,
0001
0100
1000
0100
0001
0010
1000
0010
,
0001
0100
0010
0001
1000
0100
0010
0000
,
0110
0000
0000
0010
1000
0000
0100
0000
0010
0000
0100
0000
1000
0000
0010
0000
,
0100
0000
0000
0100
0010
0000
1000
0000
0001
0000
0000
0000
1000
0001
1000
0001
,
1000
0100
0001
0100
1000
0010
0001
0010
,
1000
0100
0010
1000
0001
0100
0010
0000
,
0110
0000
0000
0010
0001
0000
0100
0000
0010
0000
0100
0000
0001
0000
0010
0000
,
0100
0000
0000
0100
0010
0000
0001
0000
1000
0000
0000
0000
0001
1000
0001
1000
,
0001
0000
0000
0001
0000
0000
0001
0000
1000
0000
0000
0100
0000
0000
0100
0000
,
1000
0000
0000
0010
0000
0000
0010
0000
0000
1000
0001
1000
0001
0000
0000
0000
,
1000
0000
0000
1000
0000
0000
1000
0000
0001
0000
0000
0100
0000
0000
0100
0000
,
0001
0000
0000
0010
0000
0000
0010
0000
0000
0001
1000
0001
1000
0000
0000
0000
,
0001
0100
0010
1000
0001
0100
0010
1000
,
0001
0100
0010
1000
0001
0100
0010
1000
,
0001
1000
0001
1000
0001
1000
0001
1000
0001
1000
0001
1000
0001
1000
0001
1000
,
0001
0000
0000
0010
0000
0000
0010
0000
0000
0001
1000
0001
1000
0000
0000
0000
;

//---------------dance-single - ----------------
#NOTEDATA:;
#CHARTNAME:;
#STEPSTYPE:dance-single;
#DESCRIPTION:;
#CHARTSTYLE:;
#DIFFICULTY:Medium;
#METER:8;
#RADARVALUES:0.658470,0.647421,0.225504,0.252564,0.230014,458.000000,25.000000,28.000000,0.000000,0.000000,0.000000,0.000000,0.000000,0.658470,0.647421,0.225504,0.252564,0.230014,458.000000,25.000000,28.000000,0.000000,0.000000,0.000000,0.000000,0.000000;
#CREDIT:;
#NOTES:
0000
0000
0000
0000
,
0000
0000
0000
0000
,
0000
0000
0000
0000
,
0000
0000
0000
0000
,
0000
0000
0000
0000
,
0000
0000
0000
0000
,
0000
0000
0000
0000
,
0000
0000
0000
0000
,
2001
0100
3020
0001
,
0230
1000
0010
0301
,
1002
0100
0023
1000
,
0230
0001
0010
1300
,
0001
1000
0001
1000
0001
1000
0001
1000
,
0001
1000
0001
1000
0001
1000
0001
1000
,
0002
0000
0000
0000
,
1003
0000
0000
1000
0001
0000
0001
0000
0000
0000
1001
0000
1001
0000
0000
0000
,
0001
0000
0000
0001
0000
0000
0001
0000
1000
0000
0000
1000
0000
0000
1000
0000
,
0100
0000
0000
0100
0000
0000
0100
0000
1000
0000
0000
0010
0000
0000
0010
0000
,
1000
0000
0000
0100
0000
0000
0100
0000
0010
0000
0000
0100
0000
0000
0100
0000
,
1000
0000
0000
0000
0001
1000
0001
1000
0001
0000
0000
0000
1001
0000
0000
0000
,
1000
0000
0000
1000
0000
0000
1000
0000
0001
0000
0000
0001
0000
0000
0001
0000
,
0100
0000
0000
0100
0000
0000
0100
0000
0001
0000
0000
0010
0000
0000
0010
0000
,
0001
0000
0000
0100
0000
0000
0100
0000
0010
0000
0000
0100
0000
0000
0100
0000
,
0001
0000
0000
0000
1000
0001
1000
0001
1000
0000
0000
0000
1001
0000
0000
0000
,
1000
0100
0010
0100
0001
0100
0010
0100
,
1000
0001
0100
1000
0100
0001
1000
0000
,
0001
0100
0010
0100
1000
0100
0010
0100
,
0001
1000
0100
0100
0010
0100
0100
1000
,
0001
0100
0010
0100
1000
0100
0010
0100
,
0001
1000
0100
0001
0100
1000
0001
0000
,
1000
0100
0010
0100
0001
0100
0010
0100
,
1000
0000
0000
1000
0001
0000
0001
0000
0000
0000
1001
0000
1001
0000
0000
0000
,
1002
0000
0203
1000
,
0302
0000
1000
1000
1003
0000
0000
0000
,
2001
0000
3200
0001
,
2300
0000
0001
0001
3001
0000
0000
0000
,
1002
1000
0000
0100
0203
0000
1000
0000
,
0302
0000
1000
1000
1003
0000
0000
0000
,
2001
0001
0000
0100
3200
0000
0001
0000
,
2300
0000
0001
0001
3001
0000
0000
0000
,
2001
0100
3020
0001
,
0230
1000
0010
0301
,
1002
0100
0023
1000
,
0230
0001
0010
1300
,
0001
1000
0100
1000
0001
0100
1000
0100
,
0001
1000
0100
1000
0001
0100
1000
0100
,
0001
0010
0100
1000
0001
0010
0100
1000
,
0010
0100
0010
0100
0010
0000
1000
0000
0001
0000
0001
0000
1001
0000
0000
0000
,
0001
0001
1000
0100
0010
0100
1000
0010
,
0001
0000
0001
0100
1000
0000
1001
0000
,
1000
1000
0001
0100
0010
0100
0001
0010
,
1000
0000
1000
0100
0001
0000
1001
0000
,
0001
0000
0001
0000
1000
0000
0100
0000
0010
0000
0001
1000
0001
0000
0100
0000
,
0100
0000
0000
0100
0001
0000
1000
0001
1000
0000
0000
0000
1002
0000
0000
0000
,
0100
0000
0100
0000
0000
0000
1000
0000
1003
0000
0100
0010
0100
0000
1000
0000
,
1001
0000
0000
1000
0001
0000
1000
0001
1000
0000
0000
0000
1001
0000
0000
0000
,
1000
1000
0001
0100
0010
0100
0001
0010
,
1000
0000
1000
0100
0001
0000
1001
0000
,
0001
0001
1000
0100
0010
0100
1000
0010
,
0001
0000
0001
0100
1000
0000
1001
0000
,
1000
0000
1000
0000
0001
0000
0100
0000
0010
0000
1000
0001
1000
0000
0100
0000
,
0100
0000
0000
0100
1000
0000
0001
1000
0001
0000
0000
0000
2001
0000
0000
0000
,
0100
0000
0100
0000
0000
0000
0001
0000
3001
0000
0100
0010
0100
0000
0001
0000
,
1001
0000
0000
0001
1000
0000
0001
1000
0001
0000
0000
0000
1001
0000
0000
0000
,
1000
0100
0001
0100
1000
0010
0001
0010
,
1000
0100
0010
0010
1000
0100
0010
0000
,
0100
0010
0001
0010
0100
0010
0001
0010
,
0100
0000
0000
0100
1000
0000
0001
0000
0100
0000
0000
0000
0001
1000
0001
1000
,
0001
0100
1000
0100
0001
0010
1000
0010
,
0001
0100
0010
0010
0001
0100
0010
0000
,
0100
0010
1000
0010
0100
0010
1000
0010
,
0100
0000
0000
0100
0001
0000
1000
0000
0100
0000
0000
0000
1000
0001
1000
0001
,
1000
0000
0000
1000
0000
0000
1000
0000
0001
0000
0000
0001
0000
0000
0001
0000
,
0100
0000
0000
0100
0000
0000
0100
0000
0000
0001
1000
0001
1000
0000
0000
0000
,
0001
0000
0000
0001
0000
0000
0001
0000
1000
0000
0000
1000
0000
0000
1000
0000
,
0100
0000
0000
0100
0000
0000
0100
0000
0000
1000
0001
1000
0001
0000
0000
0000
,
1000
0001
1000
0001
1000
0001
1000
0001
,
1000
0001
1000
0001
1000
0001
1000
0001
,
2000
0000
0000
0000
,
3100
0000
0000
0100
0000
0000
0100
0000
0000
1000
0001
1000
0001
0000
0000
0000
;

//---------------dance-single - ----------------
#NOTEDATA:;
#CHARTNAME:;
#STEPSTYPE:dance-single;
#DESCRIPTION:;
#CHARTSTYLE:;
#DIFFICULTY:Easy;
#METER:6;
#RADARVALUES:0.560537,0.539517,0.414927,0.333745,0.076671,352.000000,46.000000,37.000000,0.000000,0.000000,0.000000,0.000000,0.000000,0.560537,0.539517,0.414927,0.333745,0.076671,352.000000,46.000000,37.000000,0.000000,0.000000,0.000000,0.000000,0.000000;
#CREDIT:;
#NOTES:
// measure 0
0000
0000
0000
0000
,  // measure 1
0000
0000
0000
0000
,  // measure 2
0000
0000
0000
0000
,  // measure 3
0000
0000
0000
0000
,  // measure 4
0000
0000
0000
0000
,  // measure 5
0000
0000
0000
0000
,  // measure 6
0000
0000
0000
0000
,  // measure 7
0000
0000
0000
0000
,  // measure 8
1002
0100
0023
1000
,  // measure 9
0230
0001
0010
1300
,  // measure 10
2001
0100
3020
0001
,  // measure 11
0230
1000
0010
0301
,  // measure 12
1000
0100
0001
0010
,  // measure 13
1000
0100
0001
0010
,  // measure 14
2001
0000
0000
0000
,  // measure 15
3001
0000
0000
0000
,  // measure 16
1000
0001
0100
0000
0001
1000
0100
0000
,  // measure 17
1000
0010
0100
0000
0010
0100
0001
0000
,  // measure 18
1000
0100
0001
0000
0001
0100
1000
0000
,  // measure 19
0001
0100
1000
0010
0001
0000
1001
0000
,  // measure 20
0001
1000
0100
0000
1000
0001
0100
0000
,  // measure 21
0001
0010
0100
0000
0010
0100
1000
0000
,  // measure 22
0001
0100
1000
0000
1000
0100
0001
0000
,  // measure 23
1000
0100
0001
0010
1000
0000
1001
0000
,  // measure 24
0001
0100
0010
0000
0100
0010
1000
0000
,  // measure 25
0001
0100
1000
0000
1000
0100
0001
0000
,  // measure 26
1000
0100
0010
0000
0100
0010
0001
0000
,  // measure 27
1000
0100
0001
0000
0001
0100
1000
0000
,  // measure 28
0001
1000
0100
0000
1000
0001
0100
0000
,  // measure 29
0001
0010
1000
0000
0001
0100
1000
0000
,  // measure 30
1000
0010
0001
0000
1000
0100
0001
0000
,  // measure 31
1001
0000
0000
0000
,  // measure 32
2001
0000
3200
0001
,  // measure 33
2300
0001
3001
0000
,  // measure 34
1002
0000
0203
1000
,  // measure 35
0302
1000
1003
0000
,  // measure 36
2001
0000
3200
0001
,  // measure 37
2300
0000
0001
0001
3001
0000
0000
0000
,  // measure 38
1002
0000
0203
1000
,  // measure 39
0302
0000
1000
1000
1003
0000
0000
0000
,  // measure 40
1002
0100
0023
1000
,  // measure 41
0230
0001
0010
1300
,  // measure 42
2001
0100
3020
0001
,  // measure 43
0230
1000
0010
0301
,  // measure 44
1000
0100
0001
0000
0001
0100
1000
0000
,  // measure 45
0001
0100
1000
0000
1000
0100
0001
0000
,  // measure 46
1000
0001
1000
0001
1000
0001
1000
0001
,  // measure 47
2000
0000
3001
1001
,  // measure 48
1000
0000
0000
1000
0001
0000
0100
0000
1000
0000
0000
0000
0110
0000
0000
0000
,  // measure 49
1002
0000
1000
1000
1003
0000
1001
0000
,  // measure 50
0001
0000
0000
0001
1000
0000
0100
0000
0001
0000
0000
0000
0110
0000
0000
0000
,  // measure 51
2001
0000
0001
0001
3001
0000
1001
0000
,  // measure 52
1000
0000
0000
1000
0001
0000
0100
0000
0010
0000
0000
0000
0110
0000
0000
0000
,  // measure 53
1002
0000
1000
1000
1003
0000
1001
0000
,  // measure 54
0001
0000
0000
0001
1000
0000
0100
0000
0010
0000
0000
0000
0110
0000
0000
0000
,  // measure 55
2001
0000
0001
0001
3001
0000
1001
0000
,  // measure 56
0001
0000
0000
0001
1000
0000
0100
0000
0001
0000
0000
0000
0110
0000
0000
0000
,  // measure 57
2001
0000
0001
0001
3001
0000
1001
0000
,  // measure 58
1000
0000
0000
1000
0001
0000
0100
0000
1000
0000
0000
0000
0110
0000
0000
0000
,  // measure 59
1002
0000
1000
1000
1003
0000
1001
0000
,  // measure 60
0001
0000
0000
0001
1000
0000
0100
0000
0010
0000
0000
0000
0110
0000
0000
0000
,  // measure 61
2001
0000
0001
0001
3001
0000
1001
0000
,  // measure 62
1000
0000
0000
1000
0001
0000
0100
0000
0010
0000
0000
0000
0110
0000
0000
0000
,  // measure 63
1002
0000
1000
1000
1003
0000
1001
0000
,  // measure 64
0001
1000
0100
0000
1000
0001
0100
0000
,  // measure 65
0001
0010
0100
0000
0010
0100
1000
0000
,  // measure 66
0001
0100
1000
0000
1000
0010
0001
0000
,  // measure 67
1001
0000
0000
1000
0001
0000
0001
0000
0002
0000
0000
0000
0000
0000
0000
0000
,  // measure 68
1003
0001
0100
0000
0001
1000
0100
0000
,  // measure 69
1000
0010
0100
0000
0010
0100
0001
0000
,  // measure 70
1000
0100
0001
0000
0001
0010
1000
0000
,  // measure 71
1001
0000
0000
0001
1000
0000
1000
0000
2000
0000
0000
0000
0000
0000
0000
0000
,  // measure 72
3001
0000
0000
0001
0000
0000
0001
0000
1000
0000
0000
1000
0000
0000
1000
0000
,  // measure 73
0001
0000
0000
0001
0000
0000
0001
0000
0000
0000
1001
0000
1001
0000
0000
0000
,  // measure 74
1000
0000
0000
1000
0000
0000
1000
0000
0001
0000
0000
0001
0000
0000
0001
0000
,  // measure 75
1000
0000
0000
1000
0000
0000
1000
0000
0000
0000
1001
0000
1001
0000
0000
0000
,  // measure 76
0001
0100
1000
0010
,  // measure 77
0001
0100
1000
0010
,  // measure 78
1002
0000
0000
0000
,  // measure 79
1003
0000
0000
1000
0000
0000
1000
0000
0000
0000
1001
0000
1001
0000
0000
0000
;
