#TITLE:Dignity;
#SUBTITLE:;
#ARTIST:Yooh;
#TITLETRANSLIT:;
#SUBTITLETRANSLIT:;
#ARTISTTRANSLIT:;
#GENRE:;
#CREDIT:Silverhawke;
#MENUCOLOR:;
#METERTYPE:DDR;
#BANNER:[Round 4 Singles] - Dignity.png;
#BACKGROUND:[Round 4 Singles] - Dignity-bg.png;
#LYRICSPATH:;
#CDTITLE:cdtitle.png;
#MUSIC:[Round 4 Singles] - Dignity.mp3;
#OFFSET:-0.028;
#SAMPLESTART:74.616;
#SAMPLELENGTH:15.000;
#SELECTABLE:YES;
#LISTSORT:;
#BPMS:0.000=193.000;
#STOPS:;
#BGCHANGES:;
#ATTACKS:;

//---------------dance-single - ----------------
#NOTES:
     dance-single:
     :
     Hard:
     9:
     0.690,0.689,0.592,0.094,0.069: // measure 1
0000
0000
0000
0000
,  // measure 2
0000
0000
0000
0000
,  // measure 3
0000
0000
0000
0000
,  // measure 4
0000
0000
0000
0000
,  // measure 5
0000
0000
0000
0000
,  // measure 6
0001
0001
0100
0100
,  // measure 7
1000
1000
0010
0010
,  // measure 8
0001
0001
0010
0010
,  // measure 9
1000
1000
0100
0100
,  // measure 10
0001
0010
0000
0010
0100
0000
0100
1000
,  // measure 11
0000
1000
0010
0000
0100
0000
0101
0000
,  // measure 12
1000
0010
0000
0010
0100
0000
0100
0001
,  // measure 13
0000
0001
0010
0000
0100
0000
1100
0000
,  // measure 14
1000
0100
1000
0000
0100
0001
0100
0000
,  // measure 15
0001
0010
0001
0000
0010
1000
0010
0000
,  // measure 16
1000
0010
1000
0000
0010
0001
0010
0000
,  // measure 17
0001
0100
0001
0000
0100
1000
0100
0000
,  // measure 18
1000
0010
0000
0010
0100
0000
0100
0001
,  // measure 19
0000
0001
1000
0000
1000
0100
0010
0000
,  // measure 20
0001
0100
0000
0100
0010
0000
0010
1000
,  // measure 21
0000
1000
0100
0000
0100
0010
0001
0000
,  // measure 22
1000
0000
1000
0000
0100
0010
0001
0000
,  // measure 23
1000
0010
0100
0010
,  // measure 24
0001
0010
1000
0100
,  // measure 25
0010
0000
0010
0000
0001
0100
0010
0000
,  // measure 26
1000
0100
0001
0100
,  // measure 27
1000
0010
0100
0001
,  // measure 28
0011
0000
0100
1000
1001
0000
0001
0000
,  // measure 29
0101
0100
0110
0010
,  // measure 30
1010
1000
1001
0001
,  // measure 31
0100
0010
1000
0100
,  // measure 32
0010
0000
0001
0000
0100
0010
1000
0100
,  // measure 33
0010
0001
0100
1000
0100
0001
1000
0100
,  // measure 34
0020
0000
0030
1001
,  // measure 35
0001
0000
0100
0010
0100
0000
0001
0000
0020
0000
0000
0000
1000
0000
0000
0000
,  // measure 36
0031
0000
0000
0000
1001
0000
0000
0000
1000
0000
0010
0100
0010
0000
1000
0000
,  // measure 37
0200
0001
1300
1001
,  // measure 38
0001
0101
0110
1010
,  // measure 39
1000
0001
0011
0000
0100
1000
0001
0100
,  // measure 40
0110
1001
0110
1001
,  // measure 41
1000
0000
0100
0010
0001
0000
0100
0000
0020
0000
0000
0000
0001
0000
0000
0000
,  // measure 42
1030
0000
0000
0000
1001
0000
0000
0000
0001
0000
0010
0100
1000
0000
0010
0000
,  // measure 43
0200
1000
0301
1001
,  // measure 44
1000
0100
0010
0001
0100
0000
0010
0000
,  // measure 45
1001
0000
0110
0000
0001
0010
0100
1000
,  // measure 46
0001
1000
0110
0001
,  // measure 47
0010
0000
0100
1000
0010
0000
0100
0000
,  // measure 48
0001
1000
0100
0000
0001
0000
0100
1000
,  // measure 49
0010
0000
0100
0000
0001
0100
0010
0000
,  // measure 50
1000
0000
0100
0010
0001
0000
1000
0000
,  // measure 51
0010
0100
0101
0000
1000
1100
0000
0011
,  // measure 52
0000
1010
0000
0001
0010
0100
1000
0000
,  // measure 53
0001
0100
1000
0100
0002
0000
0000
0000
,  // measure 54
0103
0010
1000
0000
1000
0100
0001
0100
,  // measure 55
2000
0000
0000
0000
3100
0010
0001
0100
,  // measure 56
0100
0010
1000
1000
0001
0010
0100
1000
,  // measure 57
0001
0100
0110
0000
0010
1010
0000
1000
,  // measure 58
1001
0000
0001
0011
0000
0010
0110
0000
,  // measure 59
1100
0101
1010
0011
,  // measure 60
2002
0000
0000
3003
,  // measure 61
1001
0000
0000
0000
1000
0000
0001
0100
0001
0000
1000
0000
0100
0000
0010
0000
,  // measure 62
0001
0000
0010
0000
0100
0000
0000
0000
1001
0000
0000
0000
0001
0000
1000
0100
,  // measure 63
1000
0001
0100
0010
1000
0010
0100
0000
,  // measure 64
0001
0010
0010
0100
1000
1000
0001
0100
,  // measure 65
0010
0000
0100
0000
0001
0000
0000
0000
1000
0100
1000
0000
0010
0000
0100
0000
,  // measure 66
0001
0010
0100
1000
0001
1000
1100
0000
,  // measure 67
0101
0000
0010
1000
0100
0010
1000
0010
,  // measure 68
0100
0000
1100
0000
1000
0010
0001
0010
,  // measure 69
1000
0000
1010
0000
0010
0100
0100
0001
,  // measure 70
0010
0010
0100
0000
1100
0000
1000
0001
,  // measure 71
0001
0100
0010
0010
1000
0100
0010
0000
,  // measure 72
0011
0000
0000
0000
0001
0100
0010
1000
0001
0000
0010
0000
1000
0000
0010
0000
,  // measure 73
0001
0000
0010
0000
0100
0000
0000
0000
1001
0000
0000
0000
1000
0010
0100
0001
,  // measure 74
1000
0010
0001
0010
1000
0010
0100
0000
,  // measure 75
0001
0000
1000
0100
1000
0000
0010
0000
0100
0000
0001
0000
1000
0000
0100
0000
,  // measure 76
0001
0000
0100
0000
1000
0000
0000
0000
0001
0100
0001
0000
0010
0000
0100
0000
,  // measure 77
1000
0010
1000
0000
0001
0000
0100
0000
1000
0000
0100
0000
0001
0000
0000
0000
,  // measure 78
1001
0000
1000
0100
0001
0100
0010
0001
,  // measure 79
0010
0100
0010
0000
1001
0000
0001
0100
,  // measure 80
1000
0100
0010
1000
0010
0100
0010
0000
,  // measure 81
1000
0000
0001
0100
0001
0000
0010
0000
0100
0000
1000
0000
0001
0000
0010
0000
,  // measure 82
1000
0000
0010
0000
0001
0000
0000
0000
0001
0000
1000
0100
1000
0000
0010
0000
,  // measure 83
0100
0001
1000
0010
0001
0010
1000
0000
,  // measure 84
2002
0000
3003
1100
,  // measure 85
0001
0101
0000
1000
1010
0000
0011
0000
,  // measure 86
1001
0000
1000
1100
0000
0001
0101
0000
,  // measure 87
1001
1100
0011
1010
,  // measure 88
0101
0000
1001
0000
0110
0000
0101
0100
,  // measure 89
0010
1010
1000
0001
1100
0100
0010
0011
,  // measure 90
0001
1000
1001
0000
0000
0000
0000
0000
;

//---------------dance-single - ----------------
#NOTES:
     dance-single:
     :
     Challenge:
     10:
     0.838,0.918,0.480,0.069,0.313: // measure 1
0000
0000
0000
0000
,  // measure 2
0000
0000
0000
0000
,  // measure 3
0000
0000
0000
0000
,  // measure 4
0000
0000
0000
0000
,  // measure 5
0000
0000
0000
0000
,  // measure 6
0001
0100
0001
0100
0010
0100
0010
0100
,  // measure 7
0001
1000
0001
1000
0010
1000
0010
1000
,  // measure 8
0001
0010
0001
0010
0100
0010
0100
0010
,  // measure 9
0001
1000
0001
1000
0100
1000
0100
1000
,  // measure 10
0001
0010
0000
0001
0100
0000
0001
0010
,  // measure 11
0000
0001
0100
0000
0010
1000
1001
0000
,  // measure 12
1000
0100
0000
1000
0010
0000
1000
0100
,  // measure 13
0000
0000
1000
0000
0010
0000
0000
0000
1000
0000
0100
0000
0010
0000
0001
1000
,  // measure 14
0001
0100
0001
0100
0010
0100
0010
0100
,  // measure 15
1000
0100
1000
0100
0010
0100
0010
0100
,  // measure 16
0001
0010
0001
0010
0100
0010
0100
0010
,  // measure 17
1000
0010
1000
0010
0100
0010
0100
0010
,  // measure 18
0001
0100
0000
0010
0100
0000
0010
1000
,  // measure 19
0000
0100
1000
0000
0001
0010
0110
0000
,  // measure 20
1000
0100
0000
0010
0100
0000
0010
0001
,  // measure 21
1000
0010
0100
0001
1000
0100
0001
0100
,  // measure 22
1000
0000
1010
0000
0010
0100
0001
0000
,  // measure 23
0011
0110
1000
0100
,  // measure 24
0001
0100
1000
1000
,  // measure 25
0001
0000
0011
0000
0010
0100
1000
0000
,  // measure 26
1010
0110
0001
0100
,  // measure 27
1000
0100
0001
0001
,  // measure 28
1100
0000
0010
0001
1001
0000
0010
0000
,  // measure 29
1100
0001
0101
0010
,  // measure 30
1001
0010
0101
0010
,  // measure 31
1100
0110
0011
1001
,  // measure 32
1010
0000
0110
0000
0101
0100
0010
1000
,  // measure 33
0100
0000
0010
0000
0001
0000
0100
0000
0010
1000
0010
1000
0001
1000
0001
1000
,  // measure 34
0200
0000
0000
0000
0000
0300
0110
0000
,  // measure 35
0010
0001
1000
0001
0010
0000
0100
0000
1000
0000
0010
0000
0100
0000
0010
0000
,  // measure 36
0001
0000
0010
0000
0100
0000
0000
0000
0010
1000
0001
1000
0010
0000
0100
0000
,  // measure 37
0001
0010
0100
0010
1000
0010
0100
0000
,  // measure 38
1000
0001
0100
0010
,  // measure 39
1000
0010
0100
0000
0001
0010
1000
0010
,  // measure 40
0011
1010
1001
0110
,  // measure 41
0010
1000
0001
1000
0100
0000
0010
0000
0001
0000
0100
0000
0010
0000
0100
0000
,  // measure 42
1000
0000
0100
0000
0010
0000
0000
0000
0100
0001
1000
0001
0100
0000
0010
0000
,  // measure 43
1000
0100
0010
0100
0001
0100
0010
0000
,  // measure 44
0001
0100
0001
0000
0010
0000
0100
0000
1000
0000
0000
0000
0100
0000
0000
0000
,  // measure 45
0010
0000
0000
0000
0001
0000
0000
0000
0100
0010
0100
0000
0001
0000
1000
0000
,  // measure 46
1100
0000
0101
0000
1001
0000
1000
0100
,  // measure 47
0010
0001
0100
0001
0100
0010
1000
0001
,  // measure 48
0010
0001
0010
0100
1000
0010
0100
0010
,  // measure 49
0100
0001
1000
0100
0010
0100
0010
0001
,  // measure 50
0100
0010
1000
0001
0010
0100
1000
0001
,  // measure 51
0010
0001
0101
0000
1000
1100
0000
1001
,  // measure 52
0000
0000
0110
0000
0000
0000
0010
0000
1000
0100
1000
0100
0010
0000
0001
0000
,  // measure 53
0100
1000
0100
0001
0020
0000
0000
0000
,  // measure 54
0130
1000
0001
0100
0010
0001
0010
1000
,  // measure 55
0200
0000
0000
0000
0310
0001
1000
0100
,  // measure 56
0100
0000
0001
0000
0100
0000
0100
0000
1000
0000
0001
0000
0100
0010
0100
0010
,  // measure 57
0100
0001
0101
0000
1000
1100
0000
0001
,  // measure 58
0011
0000
1000
1010
0000
0001
1001
0000
,  // measure 59
0011
0000
0101
0000
2001
3000
2010
3000
,  // measure 60
2200
3000
0000
0000
0000
0000
0000
0300
,  // measure 61
0110
0000
0010
0000
0001
0100
0010
1000
0001
0000
0010
0000
0100
0000
0010
0000
,  // measure 62
1000
0000
0010
0000
0100
0000
0010
0000
0001
0000
1000
0000
0001
0100
0010
1000
,  // measure 63
0001
0100
0010
0100
1000
0100
0010
0100
,  // measure 64
0001
0000
0010
0100
0010
0000
0001
0000
0100
0000
0010
0000
1000
0000
0100
0000
,  // measure 65
0010
0000
0100
0000
0001
0000
0100
0000
1000
0010
0100
0001
1000
0100
0010
0100
,  // measure 66
1000
0001
0100
0010
1000
0000
0100
0000
0010
0000
0100
0000
0001
0000
0100
0000
,  // measure 67
1000
0000
0001
0000
0100
0010
1000
0010
0100
0000
0001
0000
0010
0000
0100
0000
,  // measure 68
0001
0000
0100
0000
1000
0000
0000
0000
0010
0100
0001
0100
0010
0000
1000
0000
,  // measure 69
0001
0000
0100
0000
1000
0000
0100
0000
0010
0000
1000
0100
1000
0000
0001
0100
,  // measure 70
0001
0000
0100
0000
0010
0000
1000
0000
0001
0000
0000
0000
1000
0000
0100
0010
,  // measure 71
0100
0000
0010
0100
0010
0000
0001
0000
1000
0010
0100
0001
1000
0000
0000
0000
,  // measure 72
1001
0000
0000
0000
0001
0100
0010
1000
0100
0000
0010
0000
0100
0000
0001
0000
,  // measure 73
0100
0000
0010
0000
0100
0000
1000
0000
1001
0000
0000
0000
0001
0010
0100
1000
,  // measure 74
0010
0100
0010
0001
0010
0100
0010
1000
,  // measure 75
0001
0000
0010
0100
0010
0000
0001
0000
0100
0000
0010
0000
1000
0000
0100
0000
,  // measure 76
0001
0000
0100
0000
1000
0000
0001
0000
1000
0100
0010
0001
0100
0010
1000
0010
,  // measure 77
0100
0001
0010
0100
1000
0000
0100
0000
0010
0000
0100
0000
0001
0000
0100
0000
,  // measure 78
1100
0000
1000
0001
0100
0010
0001
0010
,  // measure 79
0100
0010
1000
0001
0101
0000
0100
0010
,  // measure 80
1000
0001
0010
0100
0010
1000
0010
0001
,  // measure 81
0101
0000
0100
0010
0100
0000
0001
0000
0010
0000
0100
0000
0010
0000
1000
0000
,  // measure 82
0010
0000
0001
0000
0010
0000
0100
0000
1100
0000
1000
0001
1000
0000
0010
0000
,  // measure 83
0100
0001
0011
0000
1100
0000
1010
0000
,  // measure 84
0102
0000
0000
0000
0000
0000
0000
0000
0000
0000
0003
0000
0101
0000
1000
0001
,  // measure 85
1000
0000
0100
0000
0010
0001
0010
0000
0001
0000
0100
0000
1000
0000
0100
0000
,  // measure 86
0010
0000
1000
0001
1000
0000
0001
0000
0010
0100
0010
0000
0100
0000
0001
0000
,  // measure 87
0100
0000
0000
1000
0000
0000
0001
0000
0100
0000
0001
0000
1000
0000
0100
0000
1000
0000
0001
0000
0010
0000
0001
0000
,  // measure 88
1000
0000
0000
0000
0010
0000
0000
0000
1000
0000
0000
0000
0001
0000
0000
0000
0100
0000
0000
0000
0010
0000
0000
0000
1000
0000
0000
0000
0100
0000
0000
0000
0010
0000
0000
0000
0001
0000
0000
0000
0000
0000
1000
0000
0000
0100
0000
0000
,  // measure 89
1000
0000
0001
0000
0010
0100
0010
0000
0001
0000
0100
0010
0100
0000
0001
0000
,  // measure 90
1000
0100
1000
0000
1001
0000
0000
0000
0000
0000
0000
0000
0000
0000
0000
0000
;

//---------------dance-single - ----------------
#NOTES:
     dance-single:
     :
     Medium:
     7:
     0.497,0.574,0.137,0.129,0.000: // measure 1
0000
0000
0000
0000
,  // measure 2
0000
0000
0000
0000
,  // measure 3
0000
0000
0000
0000
,  // measure 4
0000
0000
0000
0000
,  // measure 5
0000
0000
0000
0000
,  // measure 6
1000
0100
1000
0100
,  // measure 7
0001
0100
0001
0100
,  // measure 8
0001
0010
0001
0010
,  // measure 9
1000
0010
1000
0010
,  // measure 10
1000
0000
0000
0100
0000
0000
0010
0000
,  // measure 11
0000
0001
0000
0000
0100
0000
0010
0000
,  // measure 12
1000
0000
0000
0010
0000
0000
0100
0000
,  // measure 13
0000
0001
0000
0000
0010
0000
0100
0000
,  // measure 14
1000
0100
0001
0100
,  // measure 15
1000
0100
0001
0100
,  // measure 16
1000
0010
0001
0010
,  // measure 17
1000
0010
0001
0010
,  // measure 18
0100
0000
0000
0001
0000
0000
0010
0000
,  // measure 19
0000
0100
0000
0000
1000
0000
0001
0000
,  // measure 20
0100
0000
0000
0010
0000
0000
1000
0000
,  // measure 21
0000
0100
0000
0000
0010
0000
0001
0000
,  // measure 22
1000
0100
0100
0010
,  // measure 23
0001
0100
0002
0023
,  // measure 24
0230
2300
3002
0023
,  // measure 25
0031
0100
0100
0010
,  // measure 26
1000
0100
2000
3020
,  // measure 27
0230
0302
2003
3020
,  // measure 28
0130
0000
0001
0010
0001
0000
1000
0000
,  // measure 29
0010
0100
0001
0010
,  // measure 30
1000
0010
0001
0010
,  // measure 31
0100
0100
1000
1000
,  // measure 32
0001
0000
0001
0000
0100
0010
0100
0000
,  // measure 33
0010
1000
0010
0000
1000
0001
1000
0001
,  // measure 34
0010
0000
0000
1001
,  // measure 35
1000
0001
1000
0000
0100
0000
0010
0000
,  // measure 36
0100
0000
1000
0000
0010
0100
0010
0000
,  // measure 37
1000
0100
0010
0001
,  // measure 38
0100
0010
0100
0001
,  // measure 39
0010
0100
1000
0000
0001
0100
0010
0100
,  // measure 40
0001
0010
0100
1000
,  // measure 41
0001
0000
0100
0010
0100
0000
0001
0000
,  // measure 42
1000
0000
0001
0000
0010
0100
0010
0000
,  // measure 43
0001
1000
0010
0100
,  // measure 44
0001
1000
0001
0000
0010
0000
0100
0000
,  // measure 45
1000
0000
0001
0000
0100
0010
0100
0000
,  // measure 46
0001
1000
0100
0010
,  // measure 47
0001
0001
0100
0010
,  // measure 48
0010
1000
0100
0100
,  // measure 49
0010
0001
0001
1000
,  // measure 50
0010
0010
0100
0001
,  // measure 51
0001
0000
1000
0000
0100
0010
0000
0010
,  // measure 52
0000
0010
0000
0010
0001
1000
0001
0000
,  // measure 53
0100
0000
0010
1000
0002
0000
0000
0000
,  // measure 54
0003
0000
1000
0000
0100
0000
0010
0001
,  // measure 55
2000
0000
0000
0000
3000
0000
0001
0100
,  // measure 56
0001
0100
0010
0000
1000
0000
0100
0000
,  // measure 57
0010
0000
0001
0000
0001
0100
0000
0100
,  // measure 58
0010
0000
0010
1000
0000
1000
0001
0000
,  // measure 59
0100
0101
1000
0100
,  // measure 60
1100
0000
0000
0000
,  // measure 61
1001
0000
0001
0100
0010
0100
0001
0000
,  // measure 62
0010
0000
0100
0000
1000
0000
0001
0010
,  // measure 63
0100
0010
0001
0000
0100
0000
0010
0000
,  // measure 64
1000
0100
1000
0001
0100
0001
1000
0000
,  // measure 65
0010
0000
0100
0000
0001
0010
0100
1000
,  // measure 66
0100
0010
0001
0000
1000
0000
0010
0000
,  // measure 67
0100
0000
0001
0010
0100
1000
0001
0000
,  // measure 68
1000
0000
0010
0000
1000
0100
0010
0001
,  // measure 69
1000
0000
0001
0000
0100
0010
0100
0001
,  // measure 70
1000
0001
0010
0000
0100
0000
1000
0001
,  // measure 71
1000
0010
0100
0010
1000
0000
0001
0000
,  // measure 72
0010
0000
0100
1000
0001
1000
0100
0000
,  // measure 73
0010
0000
0001
0000
0100
0000
0010
1000
,  // measure 74
0001
1000
0010
0000
0100
0000
0001
0000
,  // measure 75
1000
0100
1000
0001
0100
0001
1000
0000
,  // measure 76
0010
0000
0100
0000
0001
0010
0100
1000
,  // measure 77
0100
0010
0001
0000
0010
0000
0100
0000
,  // measure 78
1000
0000
0001
0000
0100
0010
0100
0000
,  // measure 79
0001
1000
0100
0010
,  // measure 80
0001
1000
0001
0000
0100
0000
0010
0000
,  // measure 81
1000
0100
1000
0001
0100
0001
1000
0000
,  // measure 82
0010
0000
0100
0000
0001
0010
0001
1000
,  // measure 83
0010
1000
0001
0000
0010
0000
0100
0000
,  // measure 84
2000
0000
3000
1100
,  // measure 85
0000
0101
0000
0000
0001
0000
1000
0000
,  // measure 86
1010
0000
0000
0011
0000
0000
1000
0000
,  // measure 87
0001
1000
1100
0001
,  // measure 88
0101
1000
1001
0110
,  // measure 89
0000
0110
0000
0000
1001
0000
0000
1001
,  // measure 90
0000
0110
0000
0000
;

//---------------dance-single - ----------------
#NOTES:
     dance-single:
     :
     Easy:
     4:
     0.291,0.306,0.026,0.026,0.000: // measure 1
0000
0000
0000
0000
,  // measure 2
0000
0000
0000
0000
,  // measure 3
0000
0000
0000
0000
,  // measure 4
0000
0000
0000
0000
,  // measure 5
0000
0000
0000
0000
,  // measure 6
0001
0001
0100
0000
,  // measure 7
0010
0010
1000
0000
,  // measure 8
1000
1000
0100
0000
,  // measure 9
0010
0010
0001
0000
,  // measure 10
1000
0000
0010
0000
,  // measure 11
0100
0000
0001
0000
,  // measure 12
1000
0000
0100
0000
,  // measure 13
0010
0000
0001
0000
,  // measure 14
1000
1000
0010
0000
,  // measure 15
0100
0100
0001
0000
,  // measure 16
0001
0001
0010
0000
,  // measure 17
0100
0100
1000
0000
,  // measure 18
0001
0000
0100
0000
,  // measure 19
0010
0000
1000
0000
,  // measure 20
0100
0000
0010
0000
,  // measure 21
0001
0001
1000
1000
,  // measure 22
0001
0000
0100
0000
,  // measure 23
1000
0000
0100
0000
,  // measure 24
0001
0000
0010
0000
,  // measure 25
0100
0000
1000
0000
,  // measure 26
0010
0000
0001
0000
,  // measure 27
0010
0000
1000
0000
,  // measure 28
0001
0000
0010
0000
,  // measure 29
0100
0000
1000
0000
,  // measure 30
0010
0000
0100
0000
,  // measure 31
0001
0000
0010
0000
,  // measure 32
1000
0000
0001
0000
,  // measure 33
0100
0000
1000
1000
,  // measure 34
1000
0000
0000
0001
,  // measure 35
0000
0100
0100
0001
,  // measure 36
0001
1000
0000
0100
,  // measure 37
0100
1000
1000
0001
,  // measure 38
0000
0010
0010
0001
,  // measure 39
0001
1000
0000
0010
,  // measure 40
0010
1000
1000
0001
,  // measure 41
0000
0100
0100
0001
,  // measure 42
0001
0010
0000
0100
,  // measure 43
0100
1000
1000
0010
,  // measure 44
0000
0010
0010
0100
,  // measure 45
0100
0001
0000
0010
,  // measure 46
0010
0100
0100
1000
,  // measure 47
0000
0000
1001
0000
,  // measure 48
0000
0010
0000
0000
,  // measure 49
0110
0000
0000
0001
,  // measure 50
0000
0000
1001
0000
,  // measure 51
0000
0000
0100
0000
0000
0100
0000
0100
,  // measure 52
0000
0100
0000
0000
0000
0000
0001
0000
,  // measure 53
0000
0010
0200
0000
,  // measure 54
0300
1000
0000
0010
,  // measure 55
0200
0000
0300
0001
,  // measure 56
0000
0000
1000
0000
,  // measure 57
0000
0000
0010
0000
0000
0100
0000
0000
,  // measure 58
0001
0000
0000
1000
0000
0000
0001
0000
,  // measure 59
0001
0010
0100
0100
,  // measure 60
1000
0000
0000
0000
,  // measure 61
0001
0000
1000
1000
,  // measure 62
0100
0100
0010
0000
,  // measure 63
0001
0001
0100
0100
,  // measure 64
0010
0000
1000
1000
,  // measure 65
0010
0010
0100
0000
,  // measure 66
0001
0001
0010
0010
,  // measure 67
0100
0000
1000
0100
,  // measure 68
0100
0010
0000
0001
,  // measure 69
0100
0100
0010
0000
,  // measure 70
1000
0010
0010
0100
,  // measure 71
0000
0001
0010
0010
,  // measure 72
0100
0000
1000
0001
,  // measure 73
0001
1000
0001
0000
,  // measure 74
0001
1000
1000
0001
,  // measure 75
1000
0000
0010
0100
,  // measure 76
0100
0010
0100
0000
,  // measure 77
0100
0010
0010
0100
,  // measure 78
0001
0000
1000
0100
,  // measure 79
0010
0001
1000
0000
,  // measure 80
0001
0010
0100
1000
,  // measure 81
0001
0000
1000
0010
,  // measure 82
0100
0001
1000
0000
,  // measure 83
0001
0100
0010
1000
,  // measure 84
0002
0000
0003
1000
,  // measure 85
0000
0100
0000
0000
0010
0000
0010
0000
,  // measure 86
0001
0000
0000
0100
0000
0000
0010
0000
,  // measure 87
0010
1000
1000
0001
,  // measure 88
0001
1000
1000
0001
,  // measure 89
0000
0100
0000
0000
0010
0000
0000
1000
,  // measure 90
0000
0001
0000
0000
;
