#TITLE:ACID VISION;
#SUBTITLE:;
#ARTIST:L.E.D.;
#TITLETRANSLIT:;
#SUBTITLETRANSLIT:;
#ARTISTTRANSLIT:;
#GENRE:;
#CREDIT:;
#BANNER:[Round 4 Singles] - ACID VISION-bn.png;
#BACKGROUND:[Round 4 Singles] - ACID VISION-bg.png;
#LYRICSPATH:;
#CDTITLE:cdtitle.png;
#MUSIC:[Round 4 Singles] - ACID VISION.ogg;
#OFFSET:6.595987;
#SAMPLESTART:60.664001;
#SAMPLELENGTH:13.000000;
#LASTBEATHINT:2.119598;
#SELECTABLE:YES;
#DISPLAYBPM:46.000000:182.000000;
#BPMS:0.000000=22.750000
,8.000000=182.000000
,92.000000=273.000000
,93.000000=182.000000
,120.000000=364.000000
,121.500000=182.000000
,125.000000=364.000000
,126.000000=182.000000
,132.000000=364.000000
,135.000000=182.000000
,135.750000=48.660000
,138.625000=45.500000
,139.000000=182.000000
,200.500000=50.049999
,204.625000=45.500000
,205.000000=182.000000
,222.000000=364.000000
,225.000000=182.000000
,253.000000=364.000000
,257.000000=182.000000
,268.500000=53.520000
,271.000000=182.000000
;
#STOPS:92.000000=0.014000,
92.125000=0.013000,
92.250000=0.014000,
92.375000=0.014000,
92.500000=0.014000,
92.625000=0.013000,
92.750000=0.014000,
92.875000=0.014000,
120.000000=0.021000,
120.125000=0.020000,
120.250000=0.021000,
120.375000=0.021000,
120.500000=0.020000,
120.625000=0.021000,
120.750000=0.020000,
120.875000=0.021000,
121.000000=0.021000,
121.125000=0.020000,
121.250000=0.021000,
121.375000=0.020000,
125.000000=0.041000,
125.250000=0.041000,
125.500000=0.041000,
125.750000=0.042000,
132.000000=0.124000,
132.750000=0.123000,
133.500000=0.124000,
134.250000=0.124000,
154.500000=0.330000,
185.500000=0.330000,
222.000000=0.137000,
222.833328=0.138000,
223.666672=0.138000,
224.500000=0.081000,
253.000000=0.137000,
253.833328=0.138000,
254.666672=0.137000,
255.500000=0.138000,
256.333344=0.109000,
286.500000=0.330000
;
#BGCHANGES:;
#KEYSOUNDS:;
#ATTACKS:;

//---------------dance-single - ----------------
#NOTES:
     dance-single:
     :
     Hard:
     10:
     0.843788,0.815862,0.563270,0.438099,0.551535,627.000000,72.000000,56.000000,15.000000,0.000000,12.000000,0.843788,0.815862,0.563270,0.438099,0.551535,627.000000,72.000000,56.000000,15.000000,0.000000,12.000000:
// measure 0
0000
0000
0000
0000
,  // measure 1
0000
0000
0000
0000
,  // measure 2
0101
0000
0000
0000
0010
0000
1001
0000
0000
0000
1100
0000
1000
0010
0100
0010
,  // measure 3
0100
0000
0100
0000
0101
0000
0001
1000
0001
0010
0100
0000
1100
0000
1000
0000
,  // measure 4
0101
0000
1000
1100
0000
0001
0011
0000
,  // measure 5
1001
0000
1000
1010
0000
0001
0101
0000
,  // measure 6
1001
0000
0100
0000
0010
0000
0001
0100
0010
0100
0001
0000
0010
0000
0100
0000
,  // measure 7
2000
0000
3001
0000
0002
0000
1003
0010
0100
0010
1000
0000
0100
0000
0010
0000
,  // measure 8
0001
0000
0101
0001
0000
1000
1010
0000
,  // measure 9
0110
0000
0000
0000
0101
0000
0100
0001
0100
0010
1000
0000
0011
0000
0010
0001
,  // measure 10
1000
0001
0100
0000
0010
0000
1000
0000
0100
0000
0100
1000
0100
1000
0020
0000
,  // measure 11
0230
0000
2300
0000
3100
0000
0010
0100
0010
0100
0001
0000
1000
0000
0100
0000
,  // measure 12
0011
0000
0100
0101
0000
0010
1010
0000
,  // measure 13
1001
0000
0000
0000
0100
0000
0110
0000
0000
0000
0001
0000
1001
0000
1000
0001
,  // measure 14
2000
0000
3020
0000
1030
0000
0100
1000
0100
0010
0001
0000
0100
0000
1000
0000
,  // measure 15
0200
0000
0302
0000
0203
0000
0301
1000
0001
1000
0100
0000
0010
0000
0001
0000
,  // measure 16
0100
0000
0000
0000
1010
0000
1000
0000
0000
0000
0001
0000
1000
0100
1000
0100
,  // measure 17
0020
0000
0000
0032
0000
0000
4003
0000
,  // measure 18
3001
0000
0100
0000
0101
0000
0010
1000
0001
1000
0001
0000
0010
0000
0100
0000
,  // measure 19
1000
0000
1000
0000
0010
0000
1000
0100
0010
0100
0010
0000
0001
0000
0100
0000
,  // measure 20
0010
0000
0010
0000
1000
0000
0001
0010
0100
0010
0001
0000
1000
0000
0100
0000
,  // measure 21
0001
0000
0001
0000
0100
0000
1000
0010
0100
0010
1000
0000
0001
0000
0100
0000
,  // measure 22
0101
0000
0000
0000
0010
0000
0110
0000
0000
0000
1000
0000
1001
0000
0010
0100
,  // measure 23
0004
0000
0000
0000
1003
0000
1100
0000
0000
0000
0010
0000
0101
0000
0001
0010
,  // measure 24
0001
0010
0001
0010
0001
0010
0200
0000
0300
0000
1100
0000
1000
0010
0100
0001
,  // measure 25
2000
0000
3000
0000
0011
0000
0010
0100
1000
0010
0100
0000
0101
0000
0010
1000
,  // measure 26
0100
0010
0001
0000
1010
0000
0010
0000
0100
0000
0001
1000
0001
0100
0010
0000
,  // measure 27
2002
0000
3003
0000
1000
0000
0001
0010
0100
1000
0010
0000
1000
0000
0100
0000
,  // measure 28
0001
0000
0100
0000
1000
0000
0010
0100
0001
1000
0001
0000
1000
0000
0100
0000
,  // measure 29
0020
0000
0032
0000
0023
0000
0130
1000
0100
1000
0001
0000
0100
0000
0001
0000
,  // measure 30
4000
0000
0000
0000
0000
0000
3001
0000
0000
0000
0011
0000
0010
0001
0010
0100
,  // measure 31
2000
0000
3001
0100
0040
0000
4030
0000
3001
0000
0010
0100
0010
0100
0010
0100
,  // measure 32
0110
0000
0000
0000
0000
0000
0011
0000
0000
0000
0000
0000
0001
0100
0010
1000
,  // measure 33
1001
0000
0000
0011
0000
0000
0110
0000
0000
1100
0000
0000
2002
0000
0000
3MM3
,  // measure 34
0000
0000
0000
0000
0000
0000
0000
0000
0000
0000
0000
0000
0000
0000
0000
0000
0000
0000
0000
0000
0000
0000
0000
0000
0000
0000
0000
0000
0000
0000
0000
0000
0000
0000
0000
0000
0000
0000
0000
0000
0000
0000
1000
0000
0010
0100
0001
0000
1000
0000
0000
0000
0000
0000
0000
0000
0001
0000
0000
0000
0000
0000
0000
0000
,  // measure 35
1000
0100
0010
0001
0100
0000
0100
0000
0001
0100
0010
1000
0100
0000
1000
0000
,  // measure 36
1000
0000
0010
0100
0010
0000
2001
0000
0000
0000
3001
0000
1000
0000
0100
0000
,  // measure 37
0001
0000
0100
0000
1000
0000
0100
0000
1000
0010
0100
0000
0010
0000
1000
0000
,  // measure 38
0001
0000
0001
0100
0001
0000
0202
0000
0000
0000
0303
0000
1020
0000
0000
0000
,  // measure 39
0130
0000
0100
0000
0010
1000
0001
0100
0001
0000
0001
0000
0001
0000
1000
0100
,  // measure 40
0010
0000
0012
0000
0000
0000
1003
0000
0010
0100
0010
0100
0001
0000
2000
0000
,  // measure 41
0000
0000
3100
0000
0010
0001
0010
0001
0100
0000
1000
0000
0100
0000
0001
0100
,  // measure 42
0001
0100
0020
0000
0000
0000
1030
0000
1200
0000
0000
0000
0310
0100
0010
0100
,  // measure 43
1000
0000
1000
0000
0010
0100
0010
0100
0001
0000
1000
0000
1000
0000
0100
0010
,  // measure 44
0001
0201
0000
0310
1000
0100
1000
0010
,  // measure 45
0001
0000
0010
0000
1000
0001
1000
0000
0100
0000
0010
0000
0001
0000
0100
0001
,  // measure 46
0100
0220
0000
0330
2010
0000
3001
0001
,  // measure 47
0100
0000
0010
0000
1000
0000
0100
0000
0010
0000
0001
0100
0001
0000
1020
0000
,  // measure 48
0000
1030
0001
0100
0001
1000
0100
1000
,  // measure 49
0010
0000
0100
0001
1000
0000
0100
0000
0001
0000
0100
1000
0100
0010
0002
0000
,  // measure 50
0000
MM03
0000
0000
0000
0000
0000
0000
,  // measure 51
0000
0000
0000
0000
0000
0000
0000
0000
0000
0000
1000
0000
0010
0100
0001
0000
1000
0000
0000
0000
0000
0000
0000
0000
1000
0000
0000
0000
0000
0000
0000
0000
0001
0000
0000
0000
0010
0000
0000
0000
0100
0000
0000
0000
1000
0000
0000
0000
0010
0000
0000
0000
0000
0000
0000
0000
0010
0000
0000
0000
0000
0000
0000
0000
,  // measure 52
1000
0100
0010
0001
1000
0000
0010
0000
0010
0100
0001
1000
0001
0000
1002
0000
,  // measure 53
0000
0013
1000
0010
0001
0100
0010
1000
,  // measure 54
0001
0010
1000
0010
0001
0000
1000
0000
0100
0000
0010
0001
4000
0000
3010
1000
,  // measure 55
0004
0000
0000
1003
0000
0000
0000
0000
0000
0000
0000
0000
12M0
0000
0000
0000
0300
02M1
0000
0000
0000
0300
12M0
0000
,  // measure 56
0000
0000
0000
0000
0300
0000
02M1
0000
0000
0000
0000
0000
1300
0000
0000
0000
0000
0000
0010
0000
0000
0000
0000
0000
0110
0000
0000
0000
0000
0000
0100
0000
0000
0010
0000
0000
1000
0000
0000
0000
0000
0000
1200
0000
0000
0000
0000
0000
,  // measure 57
0000
0301
0100
1000
0100
0010
0001
0010
,  // measure 58
0001
0100
1000
0100
0001
0000
0100
0000
0001
0000
1000
0100
1000
0000
1002
0000
,  // measure 59
0000
0103
0010
0100
1000
0100
0001
0100
,  // measure 60
0010
1000
0010
0100
0001
0000
0010
0000
0010
0000
0100
0010
0100
0000
0210
0000
,  // measure 61
0000
0301
0100
0001
0100
1000
0100
0010
,  // measure 62
0001
0100
0001
0100
0010
0000
1000
0001
1000
0000
1000
0001
0040
0000
0031
1000
,  // measure 63
0400
0000
0000
1300
0000
0000
1M20
0000
0000
0000
0030
0M21
0000
0000
0000
0030
1M20
0000
0000
0000
0030
0M21
0000
0000
,  // measure 64
0000
0000
0030
0000
1M20
0000
0000
0000
0000
0000
0000
0000
0130
0000
0000
0000
0000
0000
0001
0000
0000
0000
0000
0000
1001
0000
0000
0000
0000
0000
1000
0000
0000
0100
0000
0000
0010
0000
0000
0000
0000
0000
0210
0000
0000
0000
0000
0000
,  // measure 65
0000
1300
0001
0100
1000
0001
0010
1000
,  // measure 66
0001
0010
0100
0010
0001
0000
1000
0000
0010
0000
0100
0001
0100
0000
0002
0000
,  // measure 67
0000
0MM3
0000
0000
0000
0000
1100
0100
,  // measure 68
0010
0001
1000
0100
0010
0000
0010
0000
0001
1000
0100
1000
0010
0000
0100
0000
,  // measure 69
0100
0000
0001
1000
0001
0000
0210
0000
0000
0000
1300
0000
0010
0000
0001
0000
,  // measure 70
0010
0000
0100
0000
1000
0000
0100
0000
0001
0100
0001
1000
0001
0000
0010
0000
,  // measure 71
0100
0000
1000
0010
0100
0000
0220
0000
0000
0000
0330
1000
0002
0000
0000
0000
,  // measure 72
0013
0000
0010
0000
0001
0000
0010
0000
1000
0000
0010
0000
0001
0000
0100
0010
,  // measure 73
0100
1002
0000
1003
0100
0010
0001
0010
,  // measure 74
0100
0000
1000
0000
0010
0000
0100
0000
0001
1000
0001
1000
0100
1000
0100
1000
,  // measure 75
0400
0340
0034
0000
,  // measure 76
0000
0000
0000
0000
,  // measure 77
0000
0003
0000
0000
;

//---------------dance-single - ----------------
#NOTES:
     dance-single:
     :
     Medium:
     9:
     0.643737,0.604342,0.328574,0.359867,0.070409,488.000000,42.000000,46.000000,13.000000,0.000000,5.000000,0.643737,0.604342,0.328574,0.359867,0.070409,488.000000,42.000000,46.000000,13.000000,0.000000,5.000000:
0000
0000
0000
0000
,
0000
0000
0000
0000
,
1000
0000
0101
0001
0000
1000
0001
0010
,
0100
0000
0110
0100
0010
0100
1000
0010
,
0101
0000
1100
1000
0000
0010
0110
0000
,
1001
0000
1000
1100
0000
0001
0011
0000
,
0110
0000
0100
1000
0100
0010
0001
1000
,
0001
0000
1000
0010
1000
0001
0100
0001
,
0010
0000
0100
1100
0000
1000
1001
0000
,
0001
0000
0100
0000
0010
0000
0010
0100
0010
0000
1000
0000
0100
0000
0001
0000
,
0100
0000
1000
0000
0100
0000
0000
0000
1000
0001
1000
0000
0010
0000
1000
0000
,
1001
0000
0010
0100
1000
0001
0010
0001
,
0101
0000
0010
1010
0000
1000
1100
0000
,
0011
0000
0110
0100
0000
1001
0001
0000
,
1010
0000
1000
0001
0100
0010
0100
0001
,
2000
0000
3002
0000
1003
0100
0010
0001
,
0100
0000
0010
1010
0000
0100
0101
0001
,
2000
0000
0000
0002
3000
0000
0000
0000
,
1003
0001
1000
0010
1000
1000
0100
0010
,
0200
0000
1300
0010
1000
0010
0001
0010
,
1000
0001
0100
0010
1000
1000
0001
0010
,
0200
0000
1300
0100
0001
0100
0010
0100
,
1000
0000
0001
0101
0000
0010
1010
1000
,
0004
0000
1003
1100
0000
1000
0010
0100
,
0010
0100
0010
0110
0000
1000
0100
0100
,
1100
0000
0001
0100
0100
1000
0100
0001
,
0100
0010
1000
0001
1000
0001
0010
0100
,
2000
0000
3001
1000
0010
0001
0010
0100
,
0010
1000
0010
0100
0001
1000
0001
0010
,
0002
0000
2003
0000
3001
0100
0010
1000
,
0004
0000
0003
1001
0000
1000
0010
0010
,
0100
0000
0001
0000
0002
0000
2003
0000
3100
0000
0010
0001
0010
0000
0001
0000
,
1001
0000
0000
1010
0000
0000
0100
0001
,
0101
0000
0000
0110
0000
0000
1001
0000
0000
0011
0000
0000
2200
0000
0000
33MM
,
0000
0000
0000
0000
0000
0000
0000
0000
0000
0000
0000
0000
0000
0000
0000
0000
0000
0000
0000
0000
0000
1000
0010
0000
1020
0000
0000
0000
0000
0000
0000
0000
,
0130
0100
0001
1000
0001
0100
0010
1000
,
0100
1000
0100
0020
0000
0130
0010
0100
,
1000
0001
1000
0010
0100
0001
0100
1000
,
0100
0001
0001
2000
0000
3000
1100
0000
,
0001
0001
0010
0100
1000
0010
1000
0010
,
0100
0002
0000
1003
0100
0001
0100
0002
,
0000
0103
1000
0100
1000
0010
0010
1000
,
0001
2000
0000
3100
0010
0001
0010
0001
,
0100
0010
0100
0001
1000
0001
0100
0010
,
1000
0200
0000
0310
0001
0100
0001
0100
,
0010
1000
0001
1000
0100
0001
0100
1000
,
0010
0200
0000
0300
1001
0000
1000
1000
,
0001
0010
0100
1000
0001
0100
0001
2000
,
0000
3001
1000
0100
0010
0001
0010
0100
,
1000
0000
0010
0100
0010
0000
0100
0000
0001
0000
1000
0000
0001
0000
0200
0000
,
0000
03M0
0000
0000
0000
0000
0000
0000
,
0000
0000
0000
0000
0000
0001
0010
0000
0002
0000
0000
0000
0000
0000
0000
0000
0103
0000
0000
0000
0010
0000
0000
0000
1000
0000
0000
0000
1000
0000
0000
0000
,
0001
0010
0001
0000
0100
0000
0001
0000
0100
0000
0010
0000
1000
0000
0200
0000
,
0000
0310
0001
0010
0100
1000
0100
0010
,
0001
0100
1000
0100
0001
0010
0200
0000
,
2300
0000
0000
0000
0000
0000
3000
0000
0000
0000
0000
0000
M201
0000
0000
0000
0000
032M
0000
0000
0000
0000
2M30
0000
,
0000
30M2
1003
0001
0010
0001
0010
0200
,
0000
0310
0001
0100
1000
0100
0001
0100
,
0010
1000
0100
0010
0100
1000
0001
0200
,
0000
0301
1000
0010
0100
1000
0100
0100
,
0010
0100
0001
1000
0001
0010
0100
0020
,
0000
0130
1000
0001
1000
0010
0100
0001
,
0010
1000
0010
0001
0100
0010
2000
0001
,
3001
0000
0000
1000
0000
0000
120M
0000
0000
0000
0000
M320
0000
0000
0000
0000
0M32
0000
0000
0000
0000
02M3
0000
0000
,
0000
0000
M320
0000
0000
0000
1030
0000
0000
0001
0000
0000
0001
0000
0000
0010
0000
0000
0100
0000
0000
0020
0000
0000
,
0000
0031
0100
1000
0100
0010
0100
0010
,
1000
0001
1000
0100
0001
0100
1000
0002
,
0000
M003
0000
0000
0000
0000
0102
0000
,
1003
0010
1000
1000
0100
0001
0100
1000
,
1000
0100
0010
0012
0000
1003
0010
0100
,
0001
0000
0100
0000
0001
0000
1000
0000
0001
1000
0001
0000
0010
0000
0100
0000
,
1000
0100
0010
0002
0000
1003
1001
0000
,
0010
0010
0100
0001
0100
0001
1000
0100
,
0010
0200
0000
1300
0001
0100
0001
1000
,
0010
1000
0001
0010
0100
1000
0010
0100
,
0004
4003
3400
0000
,
0000
0000
0000
0000
,
0000
0300
0000
0000
;

//---------------dance-single - ----------------
#NOTES:
     dance-single:
     :
     Easy:
     5:
     0.369925,0.392822,0.156464,0.281635,0.023470,275.000000,20.000000,36.000000,13.000000,0.000000,0.000000,0.369925,0.392822,0.156464,0.281635,0.023470,275.000000,20.000000,36.000000,13.000000,0.000000,0.000000:
0000
0000
0000
0000
,
0000
0000
0000
0000
,
1000
0000
0001
0100
0000
0001
0100
0000
,
0001
1001
1000
0100
,
0010
0000
0000
0011
0000
0000
0100
0000
,
1000
0000
0000
1010
0000
0000
0010
0000
,
1000
0000
0001
0010
0000
0001
0010
0000
,
0100
0100
1000
0001
,
1000
0000
0010
1000
0000
1000
0010
0000
,
0100
0110
0010
0100
,
0001
0000
0001
0000
1000
0100
0000
1000
,
0100
0010
0001
1000
,
0001
0000
0000
0101
0000
0000
0001
0000
,
1000
0000
0000
1100
0000
0000
1000
0000
,
0001
0000
1000
0010
0000
1000
0010
0000
,
0100
0100
0010
1000
,
0001
0000
1000
0100
0000
0100
1000
0000
,
0020
0000
0230
0000
,
0301
0000
1000
0000
0010
1000
0010
0000
,
1000
0100
0010
0001
,
1000
0000
0010
0000
0100
0001
0100
0000
,
0001
0010
0100
1000
,
0001
0000
0000
0101
0000
0000
0001
0000
,
2000
0000
3000
1100
0000
0000
1000
0000
,
1000
0000
1000
0010
0000
0000
1000
0000
,
0001
0010
0010
0001
,
1000
1000
0010
1000
,
0010
0100
0001
1000
,
1000
0100
0010
0001
,
0100
0100
0010
1000
,
0002
0000
0003
1001
0000
0000
1000
0000
,
0100
2000
3001
0100
,
0101
0000
0000
1010
0000
0000
1000
0000
,
1100
0000
0000
0000
0000
0000
0011
0000
0000
0000
0000
0000
2002
0000
0000
3MM3
,
0000
0000
0000
0220
,
0330
0010
0100
0010
,
0100
0000
0001
2000
0000
3000
0001
0000
,
0100
0001
0100
0010
,
1000
0001
2002
3003
,
1000
1000
0100
0010
,
0001
0200
0000
0300
0001
0000
1000
0100
,
0000
0100
1000
0000
0010
0000
0010
0000
,
0100
0002
0000
0003
1000
0000
0001
0000
,
1000
0001
0010
0001
,
0010
0200
0000
0300
1000
0000
0100
0000
,
1000
0100
0010
0001
,
1000
2002
3003
0001
,
0001
0000
0100
0000
0010
0000
1000
0200
,
0000
0300
1000
0000
0001
0100
0000
0100
,
0001
0000
0010
0000
0100
0000
1000
0002
,
0000
00M3
0000
0000
0000
0000
0000
0000
,
0000
2020
3030
1000
,
0001
0000
1000
0000
0001
0000
0010
0002
,
0000
0003
0100
0000
0010
0000
0100
0000
,
0010
1000
0001
0100
,
0100
0000
0000
0000
0000
0000
0000
0000
0000
0000
0000
0000
0M02
0000
0000
0000
0000
0M00
0000
0000
0000
0000
0M00
0000
,
0000
0M00
1003
0000
0001
0000
0010
0002
,
0000
0003
1000
0000
0010
0000
1000
0000
,
0010
0000
0100
0000
0010
0000
1000
0002
,
0000
0003
0010
0000
0010
0000
0100
0000
,
0010
0000
0100
0000
1000
0000
0001
0200
,
0000
0300
0001
0000
0100
0000
0001
0000
,
1000
0001
0010
0100
,
0100
0000
0000
0000
0000
0000
20M0
0000
0000
0000
0000
00M0
0000
0000
0000
0000
00M0
0000
0000
0000
0000
00M0
0000
0000
,
0000
0000
00M0
0000
0000
0000
3001
0000
0000
0000
0000
0000
1000
0000
0000
0000
0000
0000
0010
0000
0000
2000
0000
0000
,
0000
3000
0001
0000
0100
0000
0001
0000
,
0100
0000
0100
0000
0010
0000
1000
0002
,
0000
M003
0000
0000
0000
0000
0220
0000
,
0330
0100
1000
0100
,
0010
0000
0001
1000
0000
1000
0001
0000
,
0100
0001
0100
0010
,
1000
0001
2002
3003
,
1000
0010
0010
1000
,
0001
0010
0000
0010
0001
0000
0100
0000
,
0010
1000
0001
0010
,
0200
2300
3002
0000
,
0000
0000
0000
0000
,
0000
0003
0000
0000
;
