#TITLE:マトリョシカ;
#SUBTITLE:;
#ARTIST:ハチ feat.初音ミク・GUMI;
#TITLETRANSLIT:Matryoshka;
#SUBTITLETRANSLIT:;
#ARTISTTRANSLIT:Hachi feat. Hatsune Miku and GUMI;
#GENRE:;
#CREDIT:;
#BANNER:[Round 3 Singles] - Matryoshka-bn.png;
#BACKGROUND:[Round 3 Singles] - Matryoshka-bg.png;
#LYRICSPATH:;
#CDTITLE:cdtitle.png;
#MUSIC:[Round 3 Singles] - Matryoshka.ogg;
#OFFSET:0.000000;
#SAMPLESTART:46.389999;
#SAMPLELENGTH:13.000000;
#SELECTABLE:YES;
#DISPLAYBPM:205.000000;
#BPMS:0.000000=205.000000
,384.000000=208.800003
,385.000000=204.996002
,386.000000=208.800003
,388.000000=204.996002
,389.000000=216.850006
,390.000000=212.750000
,391.000000=204.996002
,393.000000=208.815002
,394.000000=204.996002
,395.000000=212.750000
,396.000000=204.996002
,397.000000=221.149994
,398.000000=204.996002
,399.000000=234.977997
,400.000000=216.850006
,401.000000=230.149994
,402.000000=225.565002
,404.000000=239.979996
,405.000000=221.110001
,406.000000=225.565002
,407.000000=234.964005
,408.000000=245.199997
,409.000000=234.977997
,410.000000=239.979996
,411.000000=245.250000
,412.000000=245.199997
,413.000000=250.674988
,414.000000=250.699997
,415.000000=250.674988
,416.000000=245.199997
,417.000000=256.399994
,418.000000=262.399994
,420.000000=256.399994
,421.000000=262.399994
,429.000000=250.669983
,430.000000=289.359985
,431.000000=275.200012
,432.000000=268.649994
,433.000000=275.200012
,435.000000=282.100006
,436.000000=268.600006
,437.000000=289.390015
,438.000000=282.100006
,439.000000=290.399994
,440.000000=281.250000
,441.000000=284.799988
,442.000000=281.250000
,443.000000=288.450012
,444.000000=281.250000
,447.000000=290.399994
;
#STOPS:158.000000=0.292000,
285.000000=1.756000,
319.000000=0.293000
;
#BGCHANGES:;
#KEYSOUNDS:;
#ATTACKS:;

//---------------dance-single - ----------------
#NOTES:
     dance-single:
     :
     Hard:
     10:
     0.836476,0.723932,0.661577,0.456260,0.038022,623.000000,87.000000,60.000000,4.000000,0.000000,0.000000,0.836476,0.723932,0.661577,0.456260,0.038022,623.000000,87.000000,60.000000,4.000000,0.000000,0.000000:
// measure 0
0000
0000
0000
0000
,  // measure 1
0000
0000
0000
0000
,  // measure 2
0000
0000
0000
0000
,  // measure 3
M000
0M00
00M0
000M
,  // measure 4
2000
0000
3001
0100
0010
0200
0000
0301
,  // measure 5
1000
0100
0010
0000
0002
0000
1003
0010
,  // measure 6
1000
0000
0001
0100
0010
1000
0000
0001
,  // measure 7
0010
0100
0010
0100
1000
0010
0010
0100
,  // measure 8
0002
0000
1003
0010
0100
0020
0000
1030
,  // measure 9
0100
0010
0001
0000
2000
0000
3001
0100
,  // measure 10
0001
0000
1000
0100
0010
0001
0000
1000
,  // measure 11
0010
0100
0010
0100
0001
0010
0010
0100
,  // measure 12
1100
1000
0000
0001
0100
1000
0100
0001
,  // measure 13
0100
0000
0010
1000
0020
0000
0030
1001
,  // measure 14
0000
1000
0100
0010
0100
0000
1000
0010
,  // measure 15
0100
0001
0010
0100
0020
0000
0030
0000
,  // measure 16
0000
1100
0000
0001
1000
0010
0001
0010
,  // measure 17
1000
0000
0001
0100
0002
0000
0003
1010
,  // measure 18
0000
0001
0010
0100
1000
0010
0000
1000
,  // measure 19
1100
0000
0011
0000
0102
0000
0000
1000
,  // measure 20
2003
0000
3100
0010
0001
0020
0000
0031
,  // measure 21
0100
1000
0100
0000
0002
0000
1003
0100
,  // measure 22
1000
0000
0001
0010
0100
1000
0000
0001
,  // measure 23
0100
0010
0100
0010
1000
0100
0100
0010
,  // measure 24
0011
0001
1000
0100
0001
0100
1000
0001
,  // measure 25
1000
0000
0001
0100
0020
0000
0030
1010
,  // measure 26
0000
1000
0001
0010
0100
0000
1000
0001
,  // measure 27
0100
0010
1000
0001
0020
0000
0030
0000
,  // measure 28
0000
0110
0100
0001
0100
1000
0010
0001
,  // measure 29
0010
0100
0001
0100
0020
0000
0030
1001
,  // measure 30
0000
1000
0100
0010
0100
1000
0001
0010
,  // measure 31
0001
0100
0010
1000
0200
0000
0300
0000
,  // measure 32
0012
0000
0000
0000
0003
0000
1000
0010
,  // measure 33
0100
0000
0110
0000
1001
0000
0000
1010
,  // measure 34
0000
1000
0100
0010
0001
0000
0001
1000
,  // measure 35
0000
1000
0010
0100
0002
0000
0003
0000
,  // measure 36
2010
0000
0000
0000
3000
0000
0001
0010
,  // measure 37
0100
0110
1001
0000
,  // measure 38
0101
1010
1100
0011
,  // measure 39
1001
1001
1001
0101
,  // measure 40
0001
0010
0000
0100
0000
1000
0000
0010
,  // measure 41
0100
0001
0200
0000
0300
0000
0001
0010
,  // measure 42
0001
0001
1000
0010
1000
1000
0001
0000
,  // measure 43
0100
0001
0101
0000
1100
0000
1001
0000
,  // measure 44
0100
0010
0000
1000
0000
0100
0000
0010
,  // measure 45
0002
2003
3000
0101
,  // measure 46
0000
0101
0000
1000
0010
0001
0010
1000
,  // measure 47
0010
0100
0002
0000
0003
0000
1010
0000
,  // measure 48
1000
0001
0000
0011
0000
1100
0000
0100
,  // measure 49
0010
0000
0002
0000
0003
0000
1000
0100
,  // measure 50
1000
1000
0001
0100
0001
0001
0010
0000
,  // measure 51
0100
1000
1100
0000
0101
0000
1001
0000
,  // measure 52
0010
1000
0000
1010
0000
1100
0000
0100
,  // measure 53
0020
0032
0003
1100
,  // measure 54
1000
0100
0000
0100
0001
0100
1000
0010
,  // measure 55
0100
0000
0001
0000
0010
0000
0100
1000
0100
0000
0000
0000
2100
0000
0000
0000
,  // measure 56
0100
0000
3100
0000
1000
0001
0102
0000
,  // measure 57
0100
0100
0103
2010
,  // measure 58
0010
0000
3010
0000
1000
0001
0012
0000
,  // measure 59
0010
0000
0010
0000
0013
0000
0100
1000
,  // measure 60
0100
0010
0001
0100
0010
1000
2001
0000
,  // measure 61
0001
0000
0001
0000
3001
0001
0010
1000
,  // measure 62
0010
0001
0100
0010
1000
0100
0010
0000
,  // measure 63
2001
3010
1002
0013
,  // measure 64
2200
3300
2200
3300
,  // measure 65
0001
0000
0001
0100
0000
0100
0010
0000
0010
1000
0000
0000
,  // measure 66
0022
0033
0022
0033
,  // measure 67
1000
0000
1000
0100
0000
0100
0010
0000
0010
0001
0000
0000
,  // measure 68
2020
3030
2020
3030
,  // measure 69
0001
0000
0000
0000
0001
0000
0100
0000
0000
0000
0100
0000
0010
0000
0000
0000
0010
0000
1000
0000
0000
0100
0000
0000
,  // measure 70
0010
0001
1000
0010
0100
0001
1000
0100
,  // measure 71
0010
0001
0100
0000
1010
0000
1010
0000
,  // measure 72
1010
0000
0101
0000
1000
0100
0000
0100
,  // measure 73
0000
1100
0000
1000
0010
0100
0001
0000
,  // measure 74
0101
0000
0010
2000
3000
0001
0010
0002
,  // measure 75
0003
1000
0010
0000
0100
0001
0101
0000
,  // measure 76
1100
0000
0011
0000
0001
0100
0000
0100
,  // measure 77
0000
0101
0000
0001
0020
0000
0230
0000
,  // measure 78
0300
0000
1100
0000
0000
1100
0000
1000
,  // measure 79
0100
1000
0010
0100
0001
0010
0100
0000
,  // measure 80
1000
0010
1000
0001
0100
1000
0100
0010
,  // measure 81
0001
0010
0100
0001
0100
0010
1000
0001
,  // measure 82
1000
0100
0001
0001
0100
1000
1000
0001
,  // measure 83
0100
0010
1000
0100
0001
0100
0100
1000
,  // measure 84
0001
0100
0010
1000
0100
0010
0100
1000
,  // measure 85
0001
0100
0001
0010
0100
1000
0001
0000
,  // measure 86
0101
0000
1000
1100
0000
0011
0000
0001
,  // measure 87
0010
1000
0010
0100
0010
0001
0001
1000
,  // measure 88
0020
0000
1030
0001
0200
0000
0310
1000
,  // measure 89
0000
1000
0001
0000
1000
0100
1000
0100
,  // measure 90
0020
0000
0031
1000
0200
0000
0310
0001
,  // measure 91
0101
0000
1010
0000
0101
0001
0001
0010
,  // measure 92
0200
0000
1300
0001
0020
0000
0130
1000
,  // measure 93
0000
1000
0001
0000
1000
0010
1000
0010
,  // measure 94
0200
0000
0301
1000
0020
0000
1030
0100
,  // measure 95
1100
0000
0011
0000
1100
1000
1000
0100
,  // measure 96
1000
0010
1000
0001
1000
0100
1000
0001
,  // measure 97
0100
0010
0100
0010
1000
0100
1000
0001
,  // measure 98
0100
0001
0010
0001
0100
0001
1000
0001
,  // measure 99
0010
0100
0010
0100
1000
0010
0010
0100
,  // measure 100
0001
1000
0001
0100
0001
1000
0001
0010
,  // measure 101
0100
0010
0100
1000
0001
0100
0001
1000
,  // measure 102
0010
0100
0010
0100
0001
1000
0001
0010
,  // measure 103
0100
0010
0100
0010
0001
0100
0100
0010
,  // measure 104
1010
0101
1010
0101
,  // measure 105
0001
0010
0100
1000
0010
0000
1000
0000
,  // measure 106
1100
0011
1100
0011
,  // measure 107
0001
0010
0100
1000
0010
0000
0100
0000
,  // measure 108
0101
1100
0101
1100
,  // measure 109
1000
0100
0010
0001
0100
0000
0010
0000
,  // measure 110
1000
0001
0010
0100
1000
0000
0010
0000
,  // measure 111
1000
0100
0010
0001
1000
0000
2002
0000
,  // measure 112
3003
0000
0000
0000
;

//---------------dance-single - ----------------
#NOTES:
     dance-single:
     :
     Challenge:
     10:
     1.000000,0.894269,0.486677,0.235734,0.422040,850.000000,64.000000,31.000000,4.000000,0.000000,0.000000,1.000000,0.894269,0.486677,0.235734,0.422040,850.000000,64.000000,31.000000,4.000000,0.000000,0.000000:
0000
0000
0000
0000
,
0000
0000
0000
0000
,
0000
0000
0000
0000
,
000M
0M00
00M0
M000
,
1000
0000
0001
0100
0010
0000
1000
0000
0100
0000
0010
0000
0000
0000
0010
0000
,
0001
0000
1000
0010
0100
0000
0001
0000
0100
0000
0000
0000
0010
0000
1000
0000
,
0001
0000
0010
0100
1000
0000
0001
0000
1000
0000
0020
0000
0000
0000
0130
0000
,
0001
0000
1000
0100
0010
0000
0001
0000
1000
0000
0010
0100
0010
0000
0100
0000
,
0001
0000
1000
0100
0010
0000
0001
0000
0100
0000
0010
0000
0000
0000
0010
0000
,
1000
0000
0001
0010
0100
0000
1000
0000
0100
0000
0000
0000
0010
0000
0001
0000
,
1000
0000
0010
1000
0001
0000
1000
0000
0001
0000
0020
0000
0000
0000
0130
0000
,
1000
0000
0010
0100
0001
0000
1000
0000
0100
0000
0010
0100
0010
0000
0001
0000
,
1001
1000
0010
0100
0010
1000
0001
0100
,
0002
0000
0013
0100
2000
0000
3000
0102
,
0000
1003
0100
0010
0100
0000
1000
0001
,
0100
0000
1000
0000
0100
0000
0001
0000
0010
0000
0100
0010
0100
0000
1000
0000
,
0001
1000
0000
0010
0100
1000
0100
0001
,
0020
0000
0130
1000
0200
0000
0300
0021
,
0000
0130
1000
0010
0100
0002
0000
1003
,
1100
0000
0000
0000
0011
0000
0000
0000
0001
1000
0001
1000
0001
0000
0100
0000
,
0101
0000
0001
0100
0010
0000
1000
0000
0100
0000
0010
0000
0000
0000
0100
0000
,
1000
0000
0010
0100
0001
0000
1000
0000
0001
0000
0000
0000
0010
0000
1000
0000
,
0010
0000
0001
1000
0100
0000
0010
0000
0001
0000
0200
0000
0000
0000
0310
0000
,
1000
0000
0001
0010
0100
0000
1000
0000
0010
0000
0100
0001
0100
0000
0001
0000
,
1001
1000
0100
0010
0100
0001
0100
1000
,
0002
0000
1003
0100
0020
0000
0030
0201
,
0000
0310
1000
0001
0020
0000
0130
1000
,
0010
0000
0001
0000
0010
0000
0100
0000
0010
0000
1000
0010
1000
0000
0001
0000
,
0100
0010
0100
0001
0010
0100
0010
0001
,
1000
0100
0010
0001
2000
0000
3000
0120
,
0000
1030
0001
0100
1000
0100
1000
0100
,
0001
0000
0001
0000
0010
0000
0100
0000
1000
0001
1000
0001
1000
0000
0010
0000
,
2010
0000
3001
0001
0100
0001
0010
0010
,
0200
0000
1300
0001
0200
0000
0310
2000
,
0000
3001
0100
0001
0020
0000
0130
2000
,
0000
3001
0100
0001
1000
1000
0100
0000
,
0012
0000
1003
1000
0010
0100
0010
1000
,
0200
0000
0310
0001
1000
0001
0100
0010
,
1010
1000
0100
0100
0010
0010
0001
0001
,
1001
0000
0010
0000
1001
0000
0010
0000
1001
0000
0000
0000
0101
0000
0001
0100
,
0010
0000
1000
0000
0100
0000
0001
0000
0100
0000
1000
0000
0010
0000
0100
0001
,
1000
0000
0100
0000
0001
0000
0100
0000
1000
0000
0001
0000
1000
0000
0010
0100
,
0010
0000
1000
0000
0001
0000
0010
0100
0010
0000
0001
0000
1000
0000
0010
0100
,
0001
0000
0010
0000
0100
0000
0010
0001
0010
0000
0100
0000
1000
0000
0010
0100
,
0001
0000
1000
0000
0100
0000
0001
0000
0100
0000
1000
0000
0010
0000
0100
0001
,
1000
0000
0001
0000
0010
0000
0100
0000
1000
0000
0100
0000
0010
0000
0001
0100
,
0010
0000
0010
0000
0100
0000
0001
0000
0100
0000
0010
0000
1000
0000
0001
0010
,
0100
0000
1000
0000
0100
0000
0010
0001
0010
0000
0001
0000
1000
0000
0001
0010
,
0100
0000
0010
0000
0001
0000
1000
0000
0010
0000
0001
0000
0010
0000
1000
0100
,
0010
0000
0001
0000
0100
0000
1000
0000
0100
0000
0001
0000
1000
0000
0100
0010
,
0100
0000
1000
0000
0001
0000
0100
0010
0100
0000
0001
0000
0010
0000
0100
1000
,
0001
0000
1000
0000
0010
0000
0100
0001
0100
0000
0010
0000
1000
0000
0001
0010
,
0100
0000
0001
0000
0100
0000
1000
0000
0100
0000
0010
0000
0001
0000
0100
0010
,
1000
0000
0001
0000
0010
0000
0100
0000
0010
0000
0001
0000
0100
0000
0010
1000
,
0100
0000
0001
0000
0100
0000
1000
0000
0001
0000
1000
0000
0100
0000
0010
0001
,
1000
0000
0100
0000
0010
0000
0001
1000
0001
0000
0000
0000
1010
0000
0010
0000
,
1000
0100
0001
0100
1000
0001
0101
0000
,
0011
1100
1001
0101
,
0011
0000
1100
0000
1010
0010
0101
0000
,
0011
0000
1100
0000
1010
0000
0110
0010
,
0100
1000
0100
0001
0010
0100
1100
0000
,
1010
0000
0101
0000
1001
1000
0100
1000
,
0010
0000
0001
0000
0010
0000
0100
0000
1000
0000
0100
0000
0101
0000
0001
0100
,
0001
0000
1000
0100
1000
0000
0001
0100
0001
0000
1000
0100
1000
0000
0000
0000
,
1000
0100
0010
0001
0000
0000
1000
0010
0100
0001
0000
0000
,
1000
0100
0010
0001
0100
0010
1000
0001
0100
0010
0000
0000
,
1000
0100
0010
0100
0000
0000
1000
0010
0100
0010
0000
0000
,
1000
0001
0100
0001
0010
0100
1000
0010
0100
0010
0000
0000
,
1000
0001
0010
0001
0000
0000
0100
0010
1000
0001
0000
0000
,
0010
0000
0100
0000
0010
0000
0001
0000
1000
0000
0010
0000
0100
0000
0001
0000
1000
0000
0100
0000
0000
0010
0000
0000
,
0001
0000
0100
0000
0010
0000
1000
0000
0000
0001
0000
0000
0010
0000
0100
0000
1000
0000
0010
0000
0100
0000
0001
0000
,
1000
0100
0010
0002
0000
0000
1000
0000
0000
1000
0000
0000
,
1003
0000
1010
0000
0010
0100
0000
0101
,
0000
1001
0000
0001
0010
0100
1000
0010
,
0100
0000
0001
0010
0010
0001
0100
0010
,
0010
1000
0001
0000
1000
0100
1100
0000
,
0011
0000
0101
0000
0010
1000
0000
1001
,
0000
0110
0000
0010
1000
0000
0101
0001
,
1001
0000
1100
0000
0001
0101
0000
0001
,
0100
0001
0010
1000
0010
0001
1000
0010
,
0100
0000
0001
1000
0001
0000
0010
0000
0100
0000
1000
0000
0100
0000
0001
0000
,
0100
0000
1000
0001
1000
0000
0010
0000
0100
0000
0001
0000
0010
0000
0100
0000
,
1000
0000
0010
0001
0010
0000
1000
0000
0001
0000
0010
1000
0010
0000
0001
0000
,
0100
0000
1000
0100
1000
0000
0100
0000
0001
0000
0100
0001
0100
0000
0001
0000
,
1000
0000
0001
1000
0001
0000
0010
0000
0100
0000
1000
0000
0010
0000
0001
0000
,
0010
0000
0100
0010
0100
0000
0010
0000
1000
0000
0010
0000
0100
0000
0001
0000
,
0100
0000
0010
1000
0001
0000
0001
0000
1000
0000
0001
0000
0010
0000
0100
0000
,
1000
0000
0001
0000
1000
0000
0100
0000
0010
0000
0001
1000
0001
0000
0001
0000
,
1000
0000
0010
0100
0001
0000
1000
0000
0100
0000
1000
0000
0001
0000
0010
0000
,
0001
0000
0100
0001
1000
0000
0001
0000
1000
0000
0100
0000
1000
0000
0100
0000
,
0020
0001
0031
1000
0200
0010
0310
0001
,
1000
0000
0100
0000
0001
0000
0100
0000
1000
0000
0001
0100
0001
0000
1000
0000
,
0001
0000
1000
0010
0100
0000
0001
0000
1000
0000
0100
0000
0010
0000
0100
0000
,
1000
0000
0001
0010
0100
0000
1000
0000
0001
0000
0100
0000
0001
0000
0100
0000
,
0020
1000
1030
0001
0200
0010
0310
1000
,
0001
0000
0100
0000
1000
0000
0100
0000
0001
0000
1000
0100
1000
0000
0001
0000
,
0100
0000
0010
0100
0001
0000
1000
0000
0100
0000
0001
0000
0100
0000
1000
0000
,
0100
0000
0010
0001
1000
0000
0001
0000
0100
0000
0010
0000
0001
0000
0010
0000
,
1000
0000
0010
0100
0001
0000
1000
0000
0001
0000
0010
0000
1000
0000
0010
0000
,
0001
0000
1000
0100
0010
0000
0001
0000
0100
0000
0010
1000
0010
0000
0100
0000
,
0001
0000
0010
0100
1000
0000
0010
0000
0100
0000
0001
0000
1000
0000
0100
0000
,
0010
0000
0001
1000
0010
0000
0001
0000
0010
0000
1000
0000
0001
0000
0010
0000
,
0100
0000
1000
0010
0100
0000
0001
0000
1000
0000
0100
0000
0001
0000
0100
0000
,
1000
0000
0010
0100
0001
0000
1000
0000
0100
0000
0010
0001
0010
0000
0100
0000
,
1100
1001
0101
1010
,
0001
0010
1000
0010
0001
0000
0011
0000
,
1100
1010
0101
0011
,
1000
0010
0001
0010
1000
0000
1100
0000
,
0011
0101
0110
1010
,
1000
0100
0001
0100
1000
0000
1010
0000
,
0001
0100
1000
0100
0001
0000
0011
0000
,
1000
0100
0010
0001
1000
0000
2002
0000
,
3003
0000
0000
0000
;

//---------------dance-single - ----------------
#NOTES:
     dance-single:
     :
     Medium:
     8:
     0.620296,0.681348,0.334591,0.273756,0.000000,491.000000,44.000000,36.000000,0.000000,0.000000,0.000000,0.620296,0.681348,0.334591,0.273756,0.000000,491.000000,44.000000,36.000000,0.000000,0.000000,0.000000:
0000
0000
0000
0000
,
0000
0000
0000
0000
,
0000
0000
0000
0000
,
0000
0000
0000
0000
,
1000
0000
0010
0000
0100
0001
0000
0010
,
0100
0000
1000
0000
0001
0000
1000
0010
,
1000
0000
0010
0000
0100
0001
0000
1000
,
0001
0010
0001
0000
0020
0000
0000
0030
,
0001
0000
0100
0000
0010
1000
0000
0100
,
0010
0000
0001
0000
1000
0000
0001
0100
,
0001
0000
0100
0000
0010
1000
0000
0001
,
1000
0100
1000
0000
0200
0000
0000
0300
,
1001
1000
0010
0100
,
0010
0000
1000
0001
1000
0000
0000
0200
,
0000
0000
0310
0000
0001
0000
0010
0100
,
1000
0010
0200
0300
,
0101
0001
1000
0100
,
0010
0000
0001
1000
0001
0000
0000
2000
,
0000
3010
0100
0001
1000
0100
0000
0100
,
0010
0000
0110
0000
2001
0000
0000
0010
,
3010
0000
1000
0000
0100
0010
0000
0001
,
1000
0000
0010
0000
0001
0000
0010
0100
,
0010
0000
1000
0000
0100
0010
0000
0001
,
0100
0001
0100
0000
0020
0000
0000
0030
,
1010
0000
1000
0000
0001
0010
0001
0000
,
0100
0000
0010
1000
0002
0000
0003
2000
,
0000
0000
3100
0000
0010
0000
0001
1000
,
0100
0010
0100
0000
2000
0000
3000
0000
,
0101
0001
0010
0100
,
1000
0010
0100
0010
2000
0000
0000
3002
,
0000
1003
0100
0000
0010
0001
0010
0000
,
0001
0100
0010
1000
0200
0000
0300
0000
,
0022
0000
0033
1000
,
0010
0000
0100
0000
0100
0000
0010
1000
,
0000
1000
0001
0000
1000
0000
0001
0010
,
0000
0010
0100
0010
0002
0000
0003
0000
,
2020
0000
3030
0001
,
0100
0010
0010
1000
,
0001
0010
0100
1000
,
1001
1001
1001
1000
,
0010
0100
0001
0010
,
1000
0000
0010
0000
0001
0000
1000
0010
,
0100
0000
0010
0100
0001
0000
1000
0000
,
0100
1100
0011
0001
,
0100
0010
0100
0001
,
1000
0010
0100
0001
,
1000
0100
0000
0100
0010
0000
0001
0000
,
1000
0010
0100
0001
,
1000
0001
0010
0100
,
1000
0000
0010
0000
0001
0000
0010
1000
,
0010
0000
0100
0001
0100
0000
0010
0000
,
1000
1010
0101
1000
,
0100
0010
0100
1000
,
0001
0100
0001
1000
,
0100
0010
0000
0010
0001
0010
0100
0000
,
1000
0002
0003
1010
,
1000
0000
0100
0000
1000
0001
0100
0000
,
0010
1000
0001
0010
,
0100
0000
1000
0000
0001
0010
0001
0000
,
0100
0000
1000
0000
0100
0000
0001
1000
,
0100
1000
0001
0000
1000
0010
0100
0000
,
0001
0000
0010
0000
0100
0000
1000
0100
,
0010
0001
1000
0000
0001
0100
0101
0000
,
1010
0101
1010
1001
,
0200
0300
0200
0300
,
0010
0001
1000
0010
1000
0000
0000
0000
,
0020
0030
0020
0030
,
0100
0001
0010
0100
1000
0000
0000
0000
,
0002
0003
0002
0003
,
1000
0100
1000
0001
0100
0000
0001
0010
,
0001
0000
1000
0100
1000
0000
0001
0100
,
0010
1000
0001
0000
0011
0000
0011
0000
,
0011
0000
1000
0000
0010
0100
0000
0100
,
0001
0000
1000
0000
0100
0010
0000
0010
,
0001
0000
1000
0010
1000
0000
0001
0100
,
0001
0000
1001
0000
1000
0100
0010
0000
,
1001
0000
0001
0000
0100
0010
0000
0010
,
1000
0000
0100
0000
0010
0001
0000
0001
,
1000
0000
0010
0000
1000
0001
0000
0001
,
1000
0100
0010
0001
0010
0100
1000
0000
,
0001
0100
0001
0010
,
0100
1000
0001
0100
,
0001
0010
1000
0000
1000
0010
0001
0000
,
0001
0000
1000
0010
1010
0000
0101
0000
,
1000
0100
0001
0100
,
1000
0010
0100
0001
,
1000
0000
0100
0010
0000
0010
0001
0010
,
0100
1000
0010
0100
0002
0000
0003
0000
,
1000
0100
1000
0001
,
1000
0000
0010
0000
0100
0001
0100
0000
,
0102
1003
2100
3001
,
0011
1100
2002
3003
,
0001
0100
0001
1000
,
0001
0000
0010
0000
0100
1000
0100
0000
,
2010
3001
0012
1003
,
1100
0011
2002
3003
,
0001
0100
1000
0100
,
0001
0100
0010
0000
1000
0000
1010
0000
,
1000
0100
0010
0001
,
0100
0010
1000
0000
0100
0000
1100
0000
,
0010
0001
0010
0100
,
1000
0010
0100
0000
0001
0000
0101
0000
,
0010
1000
0001
0000
1000
0000
1100
0000
,
0100
1000
0010
0100
0002
0000
0003
0000
,
1100
1000
0010
0100
,
0001
0010
0100
0000
0010
0000
0001
0000
,
1000
0010
0001
0010
,
1000
0010
0100
0000
0001
0000
0010
0000
,
0110
0100
1000
0001
,
1000
0010
0100
0000
0001
0000
0010
0000
,
0100
1000
0001
0000
0100
0000
0010
0000
,
1000
0100
0010
0001
2000
0000
0000
0000
,
3000
0000
0000
0000
;

//---------------dance-single - ----------------
#NOTES:
     dance-single:
     :
     Easy:
     6:
     0.435620,0.424892,0.197713,0.243339,0.000000,343.000000,26.000000,32.000000,0.000000,0.000000,0.000000,0.435620,0.424892,0.197713,0.243339,0.000000,343.000000,26.000000,32.000000,0.000000,0.000000,0.000000:
0000
0000
0000
0000
,
0000
0000
0000
0000
,
0000
0000
0000
0000
,
0000
0000
0000
0000
,
1000
0100
1000
0000
,
0001
0010
0001
1000
,
0010
0100
0001
0000
,
1000
0100
2200
3300
,
0001
0010
0001
0000
,
1000
0100
1000
0001
,
0100
0010
1000
0000
,
0001
0010
0022
0033
,
1001
0000
1000
1000
,
0010
0000
1010
0000
,
0001
0100
0001
0000
,
1000
0001
1000
0000
,
0011
0000
0001
0001
,
0100
0000
0101
0000
,
1000
0100
1000
0000
,
0001
0010
0100
0000
,
1000
0010
1000
0000
,
0001
0100
0001
1000
,
0100
0010
0001
0000
,
1000
0010
2020
3030
,
0001
0001
1000
0100
,
0010
0001
1001
0000
,
1000
0010
1000
0000
,
0001
0001
0100
0000
,
0010
1000
0010
0010
,
0100
0001
1000
0000
,
1100
0000
0001
1000
,
0001
0100
0010
0000
,
2020
0000
3030
0000
,
0101
0000
1001
0000
,
1000
1000
0200
0300
,
0010
0010
0002
0003
,
0202
0000
0303
0000
,
1010
0000
1001
0000
,
0001
0010
0100
1000
,
0001
0001
1001
1000
,
0001
0010
0000
0001
,
1000
0000
0010
0000
1000
0000
0001
0010
,
0000
0000
0100
1000
0000
0001
0100
0000
,
0010
0100
0100
0001
,
0010
0100
0000
0010
,
0100
1000
0001
1000
,
0000
1000
0000
0000
0001
0000
0100
0000
,
0001
0200
0300
0010
,
1000
0001
0000
0010
,
0001
0000
1000
0000
0010
0000
1000
0100
,
0000
0000
0010
0001
0000
1000
0010
0000
,
0100
0010
0010
1000
,
0100
0010
0000
0100
,
0010
0001
1000
0001
,
0000
0001
0000
0000
1000
0000
0010
0000
,
1000
0020
0030
1000
,
0000
1000
0000
1000
,
0100
0020
0030
1000
,
0100
0010
0001
0001
,
0100
0020
0030
1000
,
0001
0100
0010
1000
,
0100
0020
0030
0001
,
0100
0010
0000
1010
,
0011
1010
0011
0000
,
0002
0003
2000
3000
,
0010
0100
0010
0000
,
2000
3000
0002
0003
,
0010
0100
0010
0000
,
0002
0003
0200
0300
,
0010
1000
0010
1000
,
1000
0100
0100
0010
,
0001
1000
0001
0001
,
0001
1000
0010
0000
,
0010
0000
0100
0000
,
0100
0001
1000
0000
,
1000
0000
0001
0000
,
0001
0010
0100
0000
,
0100
0000
1000
0000
,
1000
0001
0100
0000
,
0100
0010
1000
0001
,
1000
0100
1000
0000
,
0001
0100
0001
1000
,
0100
0010
0000
0000
0001
1000
0000
1000
,
0001
0100
0010
0010
,
1000
0001
0010
0000
,
0010
0001
0100
0010
,
1000
0000
0001
0010
0000
0100
0000
1000
,
0100
0010
0002
0003
,
2000
3000
0020
0030
,
1000
0100
0010
0010
,
0011
0000
1100
0000
,
1000
0010
2020
3030
,
0002
0003
0200
0300
,
0001
0010
0100
0100
,
1100
0000
1010
0000
,
0001
0100
0202
0303
,
0001
1000
0001
0000
,
1000
0100
1000
0100
,
0010
0001
0010
0000
,
0001
0100
0001
0000
,
1000
0010
1000
0000
,
0010
0100
0010
0100
,
0001
0100
0001
0000
,
1000
0100
1000
0000
,
0001
0010
0100
1000
,
0001
1000
0001
0000
,
1000
0010
0100
0001
,
1000
0001
1000
0000
,
0001
0100
0001
0100
,
0010
1000
0010
0000
,
1000
0100
1000
0000
,
0001
0010
0001
0010
;
