#VERSION:0.82;
#TITLE:MENTAL MELTDOWN;
#SUBTITLE:;
#ARTIST:GUHROOVY fw. DJ TECHNORCH;
#TITLETRANSLIT:;
#SUBTITLETRANSLIT:;
#ARTISTTRANSLIT:;
#GENRE:;
#ORIGIN:;
#CREDIT:;
#BANNER:MENTAL MELTDOWN.png;
#BACKGROUND:MENTAL MELTDOWN-bg.png;
#PREVIEWVID:;
#JACKET:MENTAL MELTDOWN-jacket.png;
#CDIMAGE:CLOUDIO-CDTitle.png;
#DISCIMAGE:;
#LYRICSPATH:;
#CDTITLE:;
#MUSIC:MENTAL MELTDOWN.ogg;
#OFFSET:-0.405000;
#SAMPLESTART:43.434921;
#SAMPLELENGTH:13.240014;
#SELECTABLE:YES;
#BPMS:0.000=145.000,
36.000=72.500,
50.000=36.250,
50.500=72.500,
51.000=145.000,
84.000=36.250,
84.500=72.500,
85.000=145.000,
150.000=72.500,
152.000=145.000,
156.000=72.500,
158.000=145.000,
178.000=36.250,
179.000=72.500,
179.500=145.000,
180.000=290.000,
185.000=145.000;
#STOPS:;
#DELAYS:;
#WARPS:;
#TIMESIGNATURES:0.000=4=4;
#TICKCOUNTS:0.000=4;
#COMBOS:0.000=1;
#SPEEDS:0.000=1.000=0.000=0;
#SCROLLS:0.000=1.000;
#FAKES:;
#LABELS:0.000=Song Start;
#BGCHANGES:;
#KEYSOUNDS:;
#ATTACKS:
;

//---------------dance-single - ----------------
#NOTEDATA:;
#CHARTNAME:;
#STEPSTYPE:dance-single;
#DESCRIPTION:;
#CHARTSTYLE:;
#DIFFICULTY:Hard;
#METER:9;
#RADARVALUES:0.565160,0.672581,0.116356,0.124668,0.265957,447.000000,14.000000,15.000000,0.000000,0.000000,0.000000,0.000000,0.000000,0.565160,0.672581,0.116356,0.124668,0.265957,447.000000,14.000000,15.000000,0.000000,0.000000,0.000000,0.000000,0.000000;
#CREDIT:;
#NOTES:
0000
0000
0000
0000
,
0000
0000
0000
0000
,
0000
0000
0000
0000
,
0000
0000
0000
0000
,
0000
0000
0000
0000
,
1000
0010
1000
0001
,
1000
0100
0010
0001
,
0100
0010
0100
0001
,
1000
0001
1000
0010
1000
0100
0010
0001
,
2001
0010
0000
0100
0000
0001
0000
0010
,
3020
0100
0000
0001
0000
1000
0000
0100
,
0230
0001
0010
0001
1000
0010
1000
0001
,
0302
0010
0010
1000
2000
0000
3003
0000
,
1001
0000
0001
0000
0100
0000
0000
0010
0000
1000
0001
0000
0100
0000
1000
0000
,
0100
0000
0001
0000
0010
0000
0000
0100
0000
1000
0001
0000
0010
0000
1000
0000
,
0010
0000
0100
0000
1000
0000
0000
0001
0000
0100
0010
0000
0100
0000
1000
0000
,
0100
0000
0010
0000
1000
0000
0000
0100
0000
0010
0001
0000
0010
0000
1000
0000
,
0010
0000
0100
0000
1000
0000
0000
0010
0000
0100
0001
0000
0100
0000
1000
0000
,
0100
0000
0001
0000
0010
0000
0000
0100
0000
1000
0001
0000
0010
0000
1000
0000
,
0010
0000
0100
0000
0010
0000
0000
0001
0000
1000
0010
0000
0100
0000
0001
0000
,
0101
0000
0000
1001
0000
0000
0011
0000
0000
0110
0000
0000
1100
0000
0001
0000
,
0012
0000
0000
0000
0000
0000
0000
0000
0013
0000
0100
0000
1000
0000
0010
1000
,
0000
0001
1000
0000
0100
0000
0001
0000
0100
0000
0010
0000
0001
0000
0100
0000
,
1000
0000
0100
0000
0001
0000
0010
0000
0100
0000
1000
0000
0001
0000
0010
0100
,
0000
1000
0100
0000
0010
0000
0001
0000
1000
0000
0010
0000
0001
0000
0010
0000
,
1000
0000
0100
0000
0001
0000
0100
0000
1000
0000
0001
0000
0100
0000
0010
0100
,
0000
0001
0100
0000
0010
0000
1000
0000
0001
0000
0100
0000
0010
0000
1000
0000
,
0100
0000
0001
0000
0100
0000
1000
0000
0010
0000
0100
0000
0001
0000
0010
0001
,
0000
1000
0001
0000
0100
0000
0010
0000
0100
0000
0001
1000
0000
0000
0100
0000
,
1000
0000
0000
0001
0000
0000
0000
0000
0000
0000
0000
0000
0010
0000
0000
0000
0100
0000
0000
0000
0010
0000
0000
0000
0100
0000
0000
0000
0000
0000
1000
0000
0000
0000
0000
0000
0100
0000
0000
0000
0000
0000
0010
0000
0000
0000
0000
0000
,
0001
0100
0010
0000
0100
0001
0100
0010
,
0100
0000
0000
0001
0000
0000
0010
0000
0001
0000
1000
0000
0010
0000
0000
0100
0000
0000
0001
0000
0000
0100
0000
0000
,
0010
1000
0001
0000
0010
0100
1000
0001
,
0100
0010
1000
0001
1000
0100
0010
0001
,
0100
1000
0100
0001
0010
1000
0010
0100
,
1000
0000
0000
0001
0000
0000
0100
0000
0010
0000
1000
0000
0100
0000
0000
0010
0000
0000
0001
0000
0000
1000
0000
0000
,
0010
0001
0010
1000
0100
0010
0100
1000
,
0001
0100
0010
1000
2002
0000
0000
3003
,
0001
1000
0001
1000
0001
0000
1000
0001
1000
0001
1000
0000
0001
1000
0001
0000
,
0202
0000
0000
0000
0000
0000
0303
0000
0100
0001
0100
0001
0100
0000
0001
0100
,
0001
0100
0001
0000
0100
0001
0100
0000
0210
0000
0000
0000
0310
1000
0001
1000
,
0020
0000
0000
0000
1030
0001
0100
0001
2000
0000
0000
0000
3001
0100
0010
0100
,
0002
0000
0000
0000
0013
0100
1000
0100
0010
0000
0001
0000
0010
0000
1000
0000
,
0010
0001
0100
1000
0100
0001
0010
0100
,
1000
0001
0100
1000
0200
0000
0300
0000
,
0000
0000
0000
0001
0000
0010
0000
0001
0000
0010
0000
0000
,
0110
0000
0100
1000
0100
0001
0100
0010
,
0001
0100
1000
0100
0010
1000
0001
0010
,
0100
0010
0001
0100
1000
0100
0010
1000
,
0100
0010
0001
0010
1000
0010
0001
0100
,
0010
0001
0010
1000
0100
0010
0001
0100
,
1000
0100
0010
1000
0100
0010
0001
0100
,
0010
0100
0001
0010
1000
0010
0100
1000
,
0001
0100
0010
0000
1010
0000
1001
0000
,
0001
0100
0010
0001
0010
1000
0100
0010
,
0001
0100
1000
0100
0010
1000
0001
0010
,
0100
1000
0001
0100
0010
0100
0001
1000
,
0010
0100
1000
0100
0010
1000
0100
0010
,
0001
0100
0001
0010
0100
0001
0100
0010
,
0001
0100
1000
0100
0010
1000
0001
1000
,
0100
0000
0010
0000
0001
0100
0001
0000
0010
0100
0010
0000
0100
1000
0100
0000
,
0010
0001
0010
0000
0100
1000
0100
1000
0010
1000
0010
1000
0001
1000
0001
1000
,
0100
0010
0001
0100
0010
0000
0000
0000
0000
0000
0000
0000
0000
0000
0000
0000
;

//---------------dance-single - ----------------
#NOTEDATA:;
#CHARTNAME:;
#STEPSTYPE:dance-single;
#DESCRIPTION:;
#CHARTSTYLE:;
#DIFFICULTY:Medium;
#METER:7;
#RADARVALUES:0.460676,0.413896,0.041556,0.024934,0.099734,380.000000,5.000000,3.000000,0.000000,0.000000,0.000000,0.000000,0.000000,0.460676,0.413896,0.041556,0.024934,0.099734,380.000000,5.000000,3.000000,0.000000,0.000000,0.000000,0.000000,0.000000;
#CREDIT:;
#NOTES:
0000
0000
0000
0000
,
0000
0000
0000
0000
,
0000
0000
0000
0000
,
0000
0000
0000
0000
,
0000
0000
0000
0000
,
1000
0010
1000
0010
,
1000
0001
1000
0001
,
0010
0001
0010
0001
,
0010
0100
0010
0100
,
1000
0001
0000
0100
0000
0001
0000
0010
,
0100
1000
0000
0010
0000
0100
0000
0001
,
0010
0100
0010
0001
0100
0010
0100
0001
,
0010
0100
1000
0010
0200
0000
0000
0000
,
0301
0000
1000
0000
0001
0000
0000
0010
0000
0000
0100
0000
1000
0000
0000
0000
,
0001
0000
0100
0000
0001
0000
0000
1000
0000
0000
0100
0000
0010
0000
0000
0000
,
0001
0000
1000
0000
0001
0000
0000
0100
0000
0000
0010
0000
0100
0000
0000
0000
,
0001
0000
0010
0000
0100
0000
0000
1000
0000
0000
0001
0000
0100
0000
0010
0000
,
0100
0000
0001
0000
1000
0000
0000
0100
0000
0000
0010
0000
0001
0000
0000
0000
,
1000
0000
0001
0000
0100
0000
0000
0010
0000
0000
1000
0000
0100
0000
0000
0000
,
0010
0000
0001
0000
1000
0000
0000
0010
0000
0000
0100
0000
0001
0000
0000
0000
,
0010
0000
0000
0100
0000
0000
1000
0000
0000
0001
0000
0000
0100
0000
0010
0000
,
0200
0000
0000
0000
0000
0000
0000
0000
0301
0000
0010
0000
0100
0000
0000
1000
,
0000
0010
0100
0001
0100
0000
0001
0010
,
0100
0000
0000
0000
1000
0000
0010
0000
0100
0000
0001
0000
0100
0000
0000
0010
,
0000
0000
1000
0000
0100
0000
0010
0000
0001
0000
0000
0010
0001
0000
0000
1000
,
0001
0000
0000
0100
0001
0000
0000
0000
1000
0000
0010
0000
1000
0000
0000
0001
,
0000
0010
0100
1000
0001
0000
0100
0001
,
1000
0000
0000
0000
0100
0000
0010
0000
0001
0000
1000
0000
0001
0000
0000
0100
,
0000
0000
0010
0000
1000
0000
0001
0000
0100
0000
0000
0001
0000
0000
1000
0000
,
0000
0000
0000
0010
0000
0000
0000
0000
0000
0000
0000
0000
0100
0000
0000
0000
0001
0000
0000
0000
0100
0000
0000
0000
0001
0000
0000
0000
0000
0000
0010
0000
0000
0000
0000
0000
0100
0000
0000
0000
0000
0000
0000
0000
0000
0000
0000
0000
,
1000
0000
0001
0000
0100
0010
0100
0001
,
0100
0000
0000
0010
0000
0000
1000
0000
0100
0000
1000
0000
0100
0000
0000
0010
0000
0000
0001
0000
0000
0000
0000
0000
,
1000
0000
0001
0000
1000
0010
1000
0001
,
1000
0100
0010
0001
0100
0010
0100
0010
,
1000
0001
1000
0001
1000
0100
0010
0001
,
1000
0100
0010
0001
1000
0001
1000
0001
,
0100
0010
0100
0010
1000
0010
0100
0001
,
1000
0010
0100
0001
0101
0000
0000
0000
,
0100
0001
0100
0001
0100
0001
0100
0001
,
1001
0000
0000
0000
1000
0001
1000
0001
,
1000
0001
1000
0001
1000
0000
0100
0010
,
0001
0000
0100
0010
1000
0000
0010
0100
,
0001
0000
0010
0100
1000
0001
1000
0010
,
1000
0001
1000
0100
1000
0001
1000
0010
,
0100
0001
1000
0100
0020
0000
0000
0000
,
0030
0000
0000
0001
0000
1000
0000
0001
0000
1000
0000
0000
,
1001
0000
0001
0010
0100
0010
0001
0100
,
0010
1000
0001
1000
0001
0010
0001
0100
,
0001
0010
0100
1000
0010
0100
0001
1000
,
0010
0100
0001
1000
0010
1000
0100
0010
,
0100
1000
0001
1000
0010
0100
0010
1000
,
0100
0010
0001
0100
0001
0010
0001
1000
,
0001
0100
0010
0100
0001
0010
0100
1000
,
0010
0100
0010
0000
1010
0000
1001
0000
,
0001
0100
0001
1000
0010
0100
0001
0100
,
0010
0100
0001
0010
0100
0010
0001
0100
,
0010
0100
0001
1000
0010
0100
0010
1000
,
0001
0100
0001
0010
0001
0010
0100
1000
,
0010
0100
0010
1000
0001
0100
0010
1000
,
0001
0010
0100
1000
0001
0100
0001
0010
,
0001
0010
0100
1000
0010
0001
0010
1000
,
0100
0001
0100
1000
0010
0001
0010
0100
,
0001
0010
0100
0000
0000
0000
0000
0000
;

//---------------dance-single - ----------------
#NOTEDATA:;
#CHARTNAME:;
#STEPSTYPE:dance-single;
#DESCRIPTION:;
#CHARTSTYLE:;
#DIFFICULTY:Easy;
#METER:4;
#RADARVALUES:0.326510,0.413896,0.066489,0.066489,0.008311,259.000000,8.000000,8.000000,0.000000,0.000000,0.000000,0.000000,0.000000,0.326510,0.413896,0.066489,0.066489,0.008311,259.000000,8.000000,8.000000,0.000000,0.000000,0.000000,0.000000,0.000000;
#CREDIT:;
#NOTES:
// measure 0
0000
0000
0000
0000
,  // measure 1
0000
0000
0000
0000
,  // measure 2
0000
0000
0000
0000
,  // measure 3
0000
0000
0000
0000
,  // measure 4
0000
0000
0000
0000
,  // measure 5
1000
0100
0010
0001
,  // measure 6
0100
0010
1000
0001
,  // measure 7
0100
0010
1000
0001
,  // measure 8
0010
0100
1000
0010
,  // measure 9
0200
0000
0000
0000
,  // measure 10
0302
0000
0000
0000
,  // measure 11
1003
0100
0010
0001
0010
0100
1000
0001
,  // measure 12
0010
0100
1000
0010
0200
0000
0300
0000
,  // measure 13
0010
1000
0001
1000
,  // measure 14
0100
0000
0010
0000
0001
0010
0100
1000
,  // measure 15
0010
0100
0001
0100
,  // measure 16
0010
0000
1000
0000
0001
1000
0010
0100
,  // measure 17
0001
1000
0001
0100
,  // measure 18
0010
0000
1000
0000
0001
0100
0010
1000
,  // measure 19
0001
0010
0100
1000
,  // measure 20
0010
0000
0000
0100
0000
0000
0010
0000
0000
0100
0000
0000
0010
0000
1000
0000
,  // measure 21
0020
0000
0000
0000
0130
0000
0001
0010
,  // measure 22
0000
0100
1000
0000
0010
0000
0100
0001
,  // measure 23
0000
1000
0010
0000
0100
0000
0001
0010
,  // measure 24
0000
0100
1000
0000
0001
0000
1001
0000
,  // measure 25
0100
0000
1001
0000
0010
0000
0100
0001
,  // measure 26
0000
0010
0100
0000
1000
0000
0010
0100
,  // measure 27
0000
0001
1000
0000
0100
0000
1000
0001
,  // measure 28
0000
0100
0010
0000
1000
0000
1001
0000
,  // measure 29
0001
0000
0101
0000
0100
0010
0100
0000
,  // measure 30
0001
0000
0100
0000
0010
1000
0010
0100
,  // measure 31
0001
0010
0100
0000
1000
0001
1000
0000
,  // measure 32
0100
0000
0010
0000
0001
0100
0001
1000
,  // measure 33
0001
0100
0010
0000
1000
0001
1000
0001
,  // measure 34
0010
0001
0010
0001
0010
0100
0010
0100
,  // measure 35
1000
0001
1000
0001
0100
0010
0100
0001
,  // measure 36
0010
0001
0010
0100
1000
0010
0100
0010
,  // measure 37
1000
0100
0010
0001
0100
0000
0000
0000
,  // measure 38
2002
0000
0000
0000
,  // measure 39
3003
0000
0220
0000
,  // measure 40
0000
0000
0000
0000
0330
0000
0100
0001
,  // measure 41
1000
0000
0010
1000
0001
0000
0010
0100
,  // measure 42
1000
0000
0010
0100
0001
0000
0010
0000
,  // measure 43
0100
0000
1000
0000
0001
0010
0001
0010
,  // measure 44
0100
1000
0100
1000
0001
0000
0000
0000
,  // measure 45
0000
0000
0000
0000
,  // measure 46
1001
0001
0010
0100
,  // measure 47
1000
0010
0100
0001
,  // measure 48
1000
0001
0100
0010
,  // measure 49
0100
0001
1000
0010
,  // measure 50
0100
0001
0100
0010
,  // measure 51
0100
0001
0010
0100
,  // measure 52
1000
0010
0100
0010
,  // measure 53
1000
0100
0010
0001
,  // measure 54
0100
0010
0100
0001
,  // measure 55
0010
0001
1000
0100
,  // measure 56
1000
0001
0010
0100
,  // measure 57
0010
0001
1000
0100
,  // measure 58
0010
0001
0100
0010
,  // measure 59
0100
0001
0010
0001
,  // measure 60
1000
0100
1000
0010
,  // measure 61
0100
0010
0001
0010
,  // measure 62
1000
1001
0000
0000
;
