#VERSION:0.81;
#TITLE:Call;
#SUBTITLE:;
#ARTIST:猫叉Master;
#TITLETRANSLIT:;
#SUBTITLETRANSLIT:Nekomata Master;
#ARTISTTRANSLIT:;
#GENRE:WORLD/ELECTRONICA;
#ORIGIN:;
#CREDIT:;
#BANNER:Call-banner.png;
#BACKGROUND:Call-bg.png;
#PREVIEWVID:;
#JACKET:Call-jacket.png;
#CDIMAGE:;
#DISCIMAGE:;
#LYRICSPATH:;
#CDTITLE:;
#MUSIC:CALL.ogg;
#OFFSET:0.008000;
#SAMPLESTART:72.613724;
#SAMPLELENGTH:12.000000;
#SELECTABLE:YES;
#BPMS:0.000=158.000;
#STOPS:186.000=1.519;
#DELAYS:;
#WARPS:;
#TIMESIGNATURES:0.000=4=4;
#TICKCOUNTS:0.000=4;
#COMBOS:0.000=1;
#SPEEDS:0.000=1.000=0.000=0;
#SCROLLS:0.000=1.000;
#FAKES:;
#LABELS:0.000=Song Start;
#BGCHANGES:;
#KEYSOUNDS:;
#ATTACKS:
;

//---------------dance-single - ----------------
#NOTEDATA:;
#CHARTNAME:;
#STEPSTYPE:dance-single;
#DESCRIPTION:;
#CHARTSTYLE:;
#DIFFICULTY:Hard;
#METER:8;
#RADARVALUES:0.533763,0.495472,0.211185,0.211185,0.138082,408.000000,26.000000,26.000000,0.000000,0.000000,0.000000,0.000000,0.000000,0.533763,0.495472,0.211185,0.211185,0.138082,408.000000,26.000000,26.000000,0.000000,0.000000,0.000000,0.000000,0.000000;
#CREDIT:;
#NOTES:
// measure 0
0000
0000
0000
0000
,  // measure 1
0000
0000
0000
0000
,  // measure 2
0000
0000
0000
0000
,  // measure 3
0000
0000
0000
0000
,  // measure 4
0000
0000
2001
0000
,  // measure 5
0000
0100
0000
0000
,  // measure 6
3002
0000
0000
0103
,  // measure 7
0000
0000
1002
0000
,  // measure 8
0000
0100
0000
0000
,  // measure 9
2003
0000
0000
3100
,  // measure 10
0000
0000
1002
0100
,  // measure 11
1003
0100
0020
0000
1000
0000
0031
0100
,  // measure 12
1000
0000
0100
0000
0001
0000
0000
0000
1001
0000
0000
0001
1000
0000
0000
1000
,  // measure 13
0001
0100
0010
0000
2001
0000
0100
0000
,  // measure 14
3020
0000
0000
0000
0001
0000
0000
0000
0100
0000
0000
0000
1030
0000
0000
1000
,  // measure 15
0001
0000
0000
0001
1000
0000
0100
0000
0010
0000
0000
0000
1001
0000
0000
1000
,  // measure 16
0001
0100
0010
0000
2001
0000
0100
0000
,  // measure 17
3001
0100
0020
0000
0001
0000
1030
0100
,  // measure 18
0001
0000
0100
0000
1000
0000
0000
0000
1001
0000
0000
1000
0001
0000
0000
0001
,  // measure 19
1000
0100
0010
0000
0120
0000
1000
0000
,  // measure 20
0031
0000
0000
0001
0200
0000
0000
0000
1000
0000
0000
0000
0010
0000
0000
0000
,  // measure 21
0301
1000
0100
0010
0000
0100
0010
0100
,  // measure 22
0010
0001
1000
0000
2001
0000
0100
0000
,  // measure 23
3001
0100
0020
0000
0001
0000
1030
0100
,  // measure 24
0001
0000
0100
0000
1000
0000
0000
0000
1001
0000
0000
1000
0001
0000
0000
0001
,  // measure 25
1000
0100
0010
0000
1002
0000
0100
0000
,  // measure 26
0023
0000
0000
0000
1000
0000
0000
0000
0100
0000
0000
0000
0031
0000
0000
0001
,  // measure 27
1000
0000
0000
1000
0001
0000
0100
0000
0010
0000
0000
0000
1001
0000
0000
0001
,  // measure 28
1000
0100
0010
0000
1002
0000
0100
0000
,  // measure 29
1003
0100
0020
0000
1000
0000
0031
0100
,  // measure 30
1000
0000
0100
0000
0001
0000
0000
0000
1001
0000
0000
0001
1000
0000
0000
1000
,  // measure 31
0001
0100
0010
0000
0120
0000
0001
0000
,  // measure 32
1030
0000
0000
1000
0200
0000
0000
0000
0001
0000
0000
0000
0010
0000
0000
0000
,  // measure 33
1300
0001
0100
0010
0000
0100
0010
0100
,  // measure 34
0010
1000
0001
0000
1001
0000
1000
0100
,  // measure 35
0000
0100
1000
0010
1000
0010
0000
0010
,  // measure 36
0100
0000
0100
0001
1000
0100
1000
0100
,  // measure 37
0010
0001
0000
0001
0100
0000
0100
0010
,  // measure 38
0000
0010
1000
0000
1000
0001
0000
0001
,  // measure 39
1000
0100
0010
0100
1000
0001
0100
0010
,  // measure 40
0100
0010
1000
0000
1001
0000
0001
0100
,  // measure 41
0000
0100
0001
0010
0001
0010
0000
0010
,  // measure 42
0100
0000
0100
1000
0001
0100
0001
0100
,  // measure 43
0010
1000
0000
1000
0100
0000
0100
0010
,  // measure 44
0000
0010
0001
0000
0001
1000
0000
1000
,  // measure 45
0001
0100
0010
0100
0001
1000
0100
0010
,  // measure 46
0100
0010
0001
0000
1001
0000
1200
0000
,  // measure 47
0001
0000
0000
0000
1300
0000
0010
0000
0100
0000
0000
0100
0010
0000
0000
0000
,  // measure 48
1000
0000
0100
0000
0010
0000
0000
0010
0100
0000
0000
0000
1000
0000
0001
0000
,  // measure 49
0100
0001
0100
0010
1000
0100
0001
0100
,  // measure 50
1000
0000
0000
0000
0001
0000
0100
0000
0010
0000
0000
0010
0100
0000
0000
0000
,  // measure 51
0001
0000
0010
0000
0100
0000
0000
0100
0010
0000
0000
0000
0001
0000
1000
0000
,  // measure 52
0010
1000
0010
0100
0001
0010
1000
0010
,  // measure 53
0001
0000
0000
0000
1000
0000
0010
0000
0001
0000
0000
0001
0010
0000
0000
0000
,  // measure 54
1000
0000
0100
0000
0001
0000
0000
0001
0100
0000
0000
0000
1000
0000
0010
0000
,  // measure 55
0000
0010
0100
0000
0001
0010
1000
0010
,  // measure 56
0001
0000
0000
0001
0100
0000
0010
0000
0100
0000
0010
0000
1000
0000
0000
1000
,  // measure 57
0100
0000
0010
0000
0100
0000
0010
0000
0001
0000
0000
0001
0100
0000
0010
0000
,  // measure 58
0100
0010
1000
0000
1001
0000
0201
0000
,  // measure 59
1000
0000
0000
0000
0301
0000
0010
0000
0100
0000
0000
0100
0010
0000
0000
0000
,  // measure 60
0001
0000
0100
0000
0010
0000
0000
0010
0100
0000
0000
0000
0001
0000
1000
0000
,  // measure 61
0100
1000
0100
0010
0001
0100
1000
0100
,  // measure 62
0001
0000
0000
0000
1000
0000
0100
0000
0010
0000
0000
0010
0100
0000
0000
0000
,  // measure 63
1000
0000
0010
0000
0100
0000
0000
0100
0010
0000
0000
0000
1000
0000
0001
0000
,  // measure 64
0010
0001
0010
0100
1000
0010
0001
0010
,  // measure 65
1000
0000
0000
0000
0001
0000
0010
0000
1000
0000
0000
1000
0010
0000
0000
0000
,  // measure 66
0001
0000
0100
0000
1000
0000
0000
1000
0100
0000
0000
0000
0001
0000
0010
0000
,  // measure 67
0000
0010
0100
0000
1000
0010
0001
0010
,  // measure 68
1000
0000
0000
1000
0100
0000
0010
0000
0100
0000
0010
0000
0001
0000
0000
0001
,  // measure 69
0100
0000
0010
0000
0100
0000
0010
0000
1000
0000
0000
1000
0100
0000
0010
0000
,  // measure 70
0100
0010
0001
0000
0000
0000
0000
0000
,  // measure 71
1002
0000
0000
0100
0100
0100
0103
0000
,  // measure 72
0000
0000
0000
0000
2001
0000
0000
0100
,  // measure 73
0100
0100
3100
0000
0000
0000
0000
0000
,  // measure 74
1002
0000
0000
0010
0010
0010
0013
0000
,  // measure 75
0000
0000
0000
0000
2001
0000
0000
0010
,  // measure 76
0010
0010
3010
0000
0000
0000
0000
0000
;

//---------------dance-single - ----------------
#NOTEDATA:;
#CHARTNAME:;
#STEPSTYPE:dance-single;
#DESCRIPTION:;
#CHARTSTYLE:;
#DIFFICULTY:Medium;
#METER:6;
#RADARVALUES:0.505915,0.495472,0.357389,0.682289,0.000000,308.000000,44.000000,84.000000,0.000000,0.000000,0.000000,0.000000,0.000000,0.505915,0.495472,0.357389,0.682289,0.000000,308.000000,44.000000,84.000000,0.000000,0.000000,0.000000,0.000000,0.000000;
#CREDIT:;
#NOTES:
0000
0000
0000
0000
,
0000
0000
0000
0000
,
0000
0000
0000
0000
,
0000
0000
0000
0000
,
0000
0000
1002
0000
,
0000
0100
0000
0000
,
2003
0000
0000
3100
,
0000
0000
2001
0000
,
0000
0100
0000
0000
,
3002
0000
0000
0103
,
0000
0000
2001
3200
,
0302
0023
2030
3200
,
0320
0000
0032
0000
0000
1000
1003
0000
,
0000
0000
1002
0203
,
2300
3020
0032
1003
,
1001
0000
0001
0010
0100
0000
1001
0000
,
1000
0010
0100
0000
1002
0000
0203
0000
,
2300
3020
0032
0203
,
0320
0000
2030
0000
0000
0001
3001
0000
,
0000
0000
1002
0100
,
0023
1000
0100
0031
,
1001
0000
0000
0110
0000
0000
1001
0000
,
0000
0110
0000
0000
1002
0000
0203
0000
,
2300
3020
0032
0203
,
0320
0000
2030
0000
0000
0001
3001
0000
,
0000
0000
2001
3200
,
0302
0023
2030
3001
,
1001
0000
1000
0010
0100
0000
1001
0000
,
0001
0010
0100
0000
2001
0000
3200
0000
,
0302
0023
2030
3200
,
0320
0000
0032
0000
0000
1000
1003
0000
,
0000
0000
2001
0100
,
3020
0001
0100
1030
,
1001
0000
0000
0110
0000
0000
1001
0000
,
0000
0110
0000
0000
1002
0000
0000
0203
,
0000
0000
2300
0000
0000
3020
0000
0000
,
0032
0000
0100
0103
0010
0100
0200
0000
,
0000
0302
0000
0000
0023
0000
0000
2030
,
0000
0000
3200
0000
0000
0302
0000
0000
,
2003
0000
0100
3100
0010
0100
0200
0000
,
2300
0000
3001
0000
2001
0000
0000
3200
,
0000
0000
0302
0000
0000
0023
0000
0000
,
2030
0000
0100
3100
0010
0100
0200
0000
,
0000
2300
0000
0000
3020
0000
0000
0032
,
0000
0000
0203
0000
0000
2300
0000
0000
,
3002
0000
0103
0100
0010
0100
0200
0000
,
0302
1003
1001
0201
,
1000
0000
0301
0010
1000
0000
0011
0000
,
0001
0100
1000
0000
0101
0000
0001
0001
,
1000
0100
0010
0001
0010
0100
1000
0001
,
0001
0000
1000
0100
0001
0000
1100
0000
,
1000
0010
0001
0000
1010
0000
1000
1000
,
0001
0010
0100
1000
0100
0010
0001
1000
,
1000
0000
0001
0010
0100
0000
0011
0000
,
0001
0100
0010
0000
0101
0000
0001
0100
,
0000
0100
0010
0000
1000
0100
0001
0100
,
1000
0000
0001
0100
1000
0100
0001
0000
,
1000
0001
0100
0001
1000
0000
0001
1000
,
0100
1000
0001
0000
1001
0000
1200
0000
,
0001
0000
1300
0010
0001
0000
1010
0000
,
1000
0100
0001
0000
1100
0000
1000
1000
,
0001
0100
0010
1000
0010
0100
0001
1000
,
1000
0000
0001
0100
1000
0000
0101
0000
,
0001
0010
1000
0000
0011
0000
0001
0001
,
1000
0010
0100
0001
0100
0010
1000
0001
,
0001
0000
1000
0010
0100
0000
1010
0000
,
1000
0100
0010
0000
1100
0000
1000
0100
,
0000
0100
0010
0000
0001
0100
1000
0100
,
0001
0000
1000
0100
0001
0100
1000
0000
,
0001
1000
0100
1000
0001
0000
1000
0001
,
0100
0001
1000
0000
0000
0000
0000
0000
,
2001
0000
0000
0100
0100
0100
3100
0000
,
0000
0000
0000
0000
1002
0000
0000
0100
,
0100
0100
0103
0000
0000
0000
0000
0000
,
2001
0000
0000
0010
0010
0010
3010
0000
,
0000
0000
0000
0000
1002
0000
0000
0010
,
0010
0010
0013
0000
0000
0000
0000
0000
;

//---------------dance-single - ----------------
#NOTEDATA:;
#CHARTNAME:;
#STEPSTYPE:dance-single;
#DESCRIPTION:;
#CHARTSTYLE:;
#DIFFICULTY:Easy;
#METER:4;
#RADARVALUES:0.433973,0.464505,0.300532,1.000000,0.000000,211.000000,37.000000,126.000000,0.000000,0.000000,0.000000,0.000000,0.000000,0.433973,0.464505,0.300532,1.000000,0.000000,211.000000,37.000000,126.000000,0.000000,0.000000,0.000000,0.000000,0.000000;
#CREDIT:;
#NOTES:
0000
0000
0000
0000
,
0000
0000
0000
0000
,
0000
0000
0000
0000
,
0000
0000
0000
0000
,
0000
0000
2001
0000
,
0000
0100
0000
0000
,
3002
0000
0000
0103
,
0000
0000
1002
0000
,
0000
0100
0000
0000
,
2003
0000
0000
3100
,
0000
0000
1002
0203
,
2300
3020
0032
0203
,
0320
0000
2030
0000
0000
0001
3001
0000
,
0000
0000
2001
3200
,
0302
0023
2030
3001
,
2001
0000
3100
1002
,
0000
0103
2001
3200
,
0302
0023
2030
3200
,
0320
0000
0032
0000
0000
1000
1003
0000
,
0000
0000
2001
0100
,
3020
0001
0100
1030
,
1001
0000
0000
0110
0000
0000
1001
0000
,
0000
0110
0000
0000
2001
0000
3200
0000
,
0302
0023
2030
3200
,
0320
0000
0032
0000
0000
1000
1003
0000
,
0000
0000
1002
0203
,
2300
3020
0032
1003
,
1002
0000
0103
2001
,
0000
3100
1002
0203
,
2300
3020
0032
0203
,
0320
0000
2030
0000
0000
0001
3001
0000
,
0000
0000
1002
0100
,
0023
1000
0100
0031
,
1001
0000
0000
0110
0000
0000
1001
0000
,
0000
0110
0000
0000
1002
0000
0000
0203
,
0000
0000
2300
0000
0000
3020
0000
0000
,
0032
0000
0000
0203
0000
0000
0320
0000
,
0000
2030
0000
0000
3200
0000
0000
0302
,
0000
0000
0023
0000
0000
2030
0000
0000
,
3200
0000
0000
0320
,
0032
0000
1003
0000
2001
0000
0000
3200
,
0000
0000
0302
0000
0000
0023
0000
0000
,
2030
0000
0000
3200
0000
0000
0320
0000
,
0000
0032
0000
0000
0203
0000
0000
2300
,
0000
0000
3020
0000
0000
0032
0000
0000
,
0203
0000
0000
0320
,
2030
3001
1001
1200
,
0001
0000
0000
2300
,
0000
0000
3002
0000
,
0203
2300
3020
0031
,
0201
0000
0000
0302
,
0000
0000
2003
0000
,
3200
0302
0023
2030
,
3002
0010
0000
2003
,
0010
0000
0000
0000
3001
0000
1000
0100
,
0000
0100
2000
0000
3020
0000
0032
0000
,
0203
0000
1300
0010
0100
0000
1001
0000
,
0001
0010
0100
0000
1001
0000
1000
0100
,
0001
0000
0001
0100
1000
0000
0201
0000
,
1000
0000
0000
0302
,
0000
0000
2003
0000
,
3200
0302
0023
1030
,
1200
0000
0000
2300
,
0000
0000
3002
0000
,
0203
2300
3020
0032
,
2003
0010
0000
3002
,
0010
0000
0000
0000
1003
0000
0001
0100
,
0000
0100
0002
0000
0023
0000
2030
0000
,
3200
0000
0301
0010
0100
0000
1001
0000
,
1000
0010
0100
0000
1001
0000
0001
0100
,
1000
0000
1000
0100
0001
0000
0000
0000
,
1002
0000
0000
0103
,
0000
0000
2001
0000
,
0000
3100
0000
0000
,
1002
0000
0000
0013
,
0000
0000
2001
0000
,
0000
3010
0000
0000
;
