#TITLE:Scars of FAUNA;
#SUBTITLE:;
#ARTIST:猫叉Master;
#TITLETRANSLIT:;
#SUBTITLETRANSLIT:;
#ARTISTTRANSLIT:Nekomata Master;
#GENRE:;
#CREDIT:Silverhawke;
#MENUCOLOR:;
#METERTYPE:DDR;
#BANNER:[Round 3 Singles & Doubles] - Scars of FAUNA.png;
#BACKGROUND:[Round 3 Singles & Doubles] - Scars of FAUNA-bg.png;
#LYRICSPATH:;
#CDTITLE:cdtitle.png;
#MUSIC:[Round 3 Singles & Doubles] - Scars of FAUNA.mp3;
#OFFSET:-0.028;
#SAMPLESTART:81.092;
#SAMPLELENGTH:15.000;
#SELECTABLE:YES;
#LISTSORT:;
#BPMS:0.000=165.000;
#STOPS:;
#BGCHANGES:;
#ATTACKS:;

//---------------dance-single - ----------------
#NOTES:
     dance-single:
     :
     Easy:
     3:
     0.244,0.263,0.016,0.155,0.000:
0000
0000
0000
0000
,
0000
0000
0000
0000
,
0000
0000
0000
0000
,
0000
0000
0000
0000
,
1000
0000
1000
0100
,
0000
0100
0010
0000
,
0010
0001
0000
0001
,
0100
0000
0100
0010
,
0000
0010
1000
0000
,
1000
0001
0000
0001
,
0100
0100
0100
0100
,
0000
0001
0001
0001
,
0001
0001
0000
1000
,
2000
0000
0000
0000
,
3000
0100
0020
0000
,
0030
0002
0000
0003
,
0200
0300
0010
1000
,
0000
0100
0000
0000
0020
0000
0000
0000
,
0030
0001
0100
0010
,
2000
0000
0000
0000
,
3000
0010
0200
0000
,
0300
0002
0000
0003
,
0020
0030
0100
1000
,
0000
0010
0000
0000
0200
0000
0000
0000
,
0300
0001
0010
0100
,
1000
0100
0000
0010
,
0001
0000
1000
0010
,
0000
0100
0001
0000
,
1000
0100
0000
0010
,
0001
0000
1000
0010
,
0000
0100
0001
0001
,
0000
0000
0000
1000
,
0000
0001
0100
0001
,
0100
0001
0000
1000
,
0100
1000
0100
1000
,
0000
0001
0010
0001
,
0010
0001
0000
1000
,
0010
1000
0000
0002
,
0000
0000
0000
0000
,
0003
1000
0000
1000
,
0100
0000
0100
2000
,
0000
0000
0000
0000
,
3000
0001
0000
0001
,
0100
0000
0000
0100
0000
0000
0000
0000
,
0100
0010
0010
0000
,
1000
0000
0001
0010
,
0010
0000
0100
0000
,
1000
0010
0010
0000
,
0100
0001
0000
0000
,
1000
0000
0001
0000
,
0100
0010
0010
0000
,
1000
0000
0001
0010
,
0010
0000
0100
0000
,
1000
0010
0010
0000
,
0100
0002
0000
0003
,
2000
0000
3000
0001
,
0001
0000
1000
1000
,
0000
0000
0010
0000
0000
0100
0000
0000
,
0001
0000
0000
1000
0000
0000
0100
0000
,
0100
0000
0000
0000
0010
0000
0000
0001
,
0000
1000
0000
0001
,
1000
0000
0001
0100
,
0100
0000
0010
0010
,
0000
0000
1000
0000
0000
0001
0000
0000
,
0100
0000
0000
0010
0000
0000
1000
0000
,
1000
0000
0000
0000
0001
0000
0000
0010
,
0000
0100
0000
1000
,
0100
0010
0001
2000
,
0000
0000
0000
3000
,
0100
0020
0000
0030
,
0002
0000
0003
0200
,
0300
0000
0010
0000
1000
0000
0000
0100
,
0000
0020
0000
0030
,
0001
1000
0001
0100
,
0000
0100
0010
0000
,
0010
1000
0000
1000
,
0001
0000
0001
0010
,
0000
0010
0100
0000
,
0100
1000
0000
1000
,
0001
0000
0001
1001
,
0000
0000
0110
0000
;

//---------------dance-single - ----------------
#NOTES:
     dance-single:
     :
     Medium:
     6:
     0.450,0.462,0.098,0.204,0.029:
0000
0000
0000
0000
,
0000
0000
0000
0000
,
0000
0000
0000
0000
,
0000
0000
0000
0000
,
0001
0010
0100
1000
,
0010
0100
0001
1000
,
0010
1000
0001
0010
,
0001
0000
0001
0100
0010
0000
1000
0000
,
1000
0100
0010
0000
0001
0000
0001
0010
,
0100
0000
1000
0000
1000
0010
0100
0000
,
0001
0000
0000
0010
0000
0000
0001
0000
0100
0000
0000
0000
0010
0000
0000
1000
,
0000
0000
0100
0000
0010
0000
0000
0000
0010
0000
0000
0001
0000
0000
1000
0000
,
0010
0000
0000
0000
0100
0000
0000
0001
0000
0000
0010
0000
0100
0000
0000
0000
,
2000
0000
0000
0001
,
0000
0000
3010
0100
0002
0000
0000
0000
,
0000
2003
0000
0000
,
3020
0000
0000
0000
0130
0001
1000
0000
,
0000
0100
0000
0000
0020
0000
0000
0000
,
0031
0000
0100
0000
0010
0000
1000
0001
,
2000
0000
0000
0010
,
0000
0000
3100
0010
0002
0000
0000
0000
,
0000
0203
0000
0000
,
0320
0000
0000
0000
1030
0001
0100
0000
,
0000
0010
0000
0000
2000
0000
0000
0000
,
3001
0000
0100
0000
0010
1000
0010
0000
,
0100
0000
0001
1000
0001
0000
0010
0000
,
0100
1000
0100
0000
0010
0000
0001
1000
,
0001
0000
0100
0000
0010
1000
0001
0000
,
0001
0000
0010
0100
0010
0000
0001
0000
,
1000
0100
1000
0000
0010
0000
0100
0001
,
0100
0000
0010
1000
0001
1000
0200
0000
,
0000
0000
0300
0010
,
0001
0000
0011
0000
1000
0000
0100
0010
,
0001
1000
0010
1010
,
0001
0000
1000
0100
0010
0000
0001
0000
,
0100
0000
0101
0000
1000
0000
0010
0100
,
0001
1000
0100
1100
,
0001
0100
0010
1000
0000
0001
0010
0000
,
0100
0000
0100
0000
1000
0001
1000
0001
,
0100
0010
0100
0100
,
0001
1000
0100
0010
0000
0001
1000
0000
,
0100
0000
0100
0000
0010
0001
0010
0001
,
1000
0010
0100
0100
,
0001
1000
0100
0010
0000
0000
0001
0000
,
1000
0000
0100
0000
1100
0000
0001
0100
,
0010
1000
0000
0000
0100
0000
0010
0000
,
0110
0000
0001
1000
0020
0000
0030
0000
,
1000
0000
0100
0000
1100
0000
0010
0001
,
1000
0001
0200
0000
0000
0000
0300
0001
,
1000
0001
0010
0200
0000
0000
0300
0000
,
1000
0000
0001
0000
0101
0000
1000
0100
,
0010
0001
0000
0000
0010
0000
0100
0000
,
1100
0000
0010
0001
0200
0000
0300
0000
,
0010
0000
1000
0000
1100
0000
0001
0100
,
0010
0000
1000
0000
0200
0000
0000
0000
0000
0000
0000
0000
0300
0000
1000
0001
,
1000
0100
0010
0001
,
0010
0100
1000
0000
0001
0000
0100
0010
,
1000
0000
0001
0100
0010
0100
0001
1000
,
0100
0000
0000
1000
0000
0001
0100
0000
,
0010
1000
0010
0000
0100
0000
0001
1000
,
0000
1000
0200
0000
0000
0000
0310
0001
,
2000
0000
3002
0103
,
0010
1000
0001
0000
0010
0000
0100
1000
,
0001
0000
0010
0100
0010
0001
1000
0001
,
0100
0000
0000
0010
0000
1000
0001
0000
,
0100
0010
0100
0000
0001
0000
0010
0100
,
0000
0100
2000
0000
3000
0000
0001
0000
,
0010
1000
0100
0002
,
0100
0103
2000
0100
,
3100
0010
0002
0000
0010
0000
0013
0000
,
2000
0010
3010
0001
,
0100
0000
0010
1000
0001
0000
0000
0010
,
0000
0200
1000
1300
,
0001
0100
1000
0100
,
0010
1000
0100
0000
0010
0000
0001
0100
,
0010
0000
0100
0000
0001
1000
0100
0000
,
0010
0000
0001
1000
0100
0000
0010
0000
,
0001
0100
0010
0000
0100
0000
0001
1000
,
0100
0000
0010
0000
0100
1000
0010
0000
,
0100
0000
0000
0000
0001
0000
0010
0000
0100
0000
0000
0000
1000
0000
0000
0001
,
0000
0000
0100
0000
0101
0000
0000
0000
0001
0000
0000
1000
0000
0000
0100
0000
,
1100
0000
0000
0000
;

//---------------dance-single - ----------------
#NOTES:
     dance-single:
     :
     Hard:
     9:
     0.634,0.694,0.302,0.383,0.228:
0000
0000
0000
0000
,
0000
0000
0000
0000
,
0000
0000
0000
0000
,
0000
0000
0000
0000
,
0001
0000
0000
0010
0000
0000
0001
0000
0001
0000
0000
0000
1000
0000
0000
0010
,
0000
0000
1000
0000
1000
0000
0000
0000
0001
0000
0000
0100
0000
0000
0001
0000
,
0001
0000
0000
0000
1000
0000
0000
0100
0000
0000
1000
0000
1000
0000
0000
0000
,
0001
0000
0000
0010
0000
0000
0100
0000
1000
0000
0000
0000
0010
0000
0000
0100
,
0000
0000
0010
0000
1000
0000
0000
0000
0001
0000
0000
0010
0000
0000
0001
0000
,
0100
0000
0000
0000
0010
0000
0000
1000
0000
0000
0001
0000
0010
0000
0000
0000
,
0100
0000
0000
1000
0000
0000
0010
0000
0100
0000
0000
0000
0001
0000
0000
1000
,
0000
0000
0001
0000
0010
0000
0000
0000
0100
0000
0000
1000
0000
0000
0100
0000
,
0010
0000
0000
0000
0001
0000
0000
0101
0000
0000
1000
0000
1100
0000
0000
0000
,
1002
0000
0000
0000
,
0000
0000
0013
0100
2000
0000
0000
0000
,
0000
3020
0000
0000
,
0230
0000
0000
0000
0301
0010
0200
0000
,
0000
2300
0000
0000
3020
0000
0000
0000
,
0230
0000
0302
0000
2003
0000
3100
0010
,
0002
0100
0100
2003
,
0100
0000
3100
0010
0002
0000
0100
0000
,
0100
0023
0100
0130
,
1000
0000
0000
0001
0000
0000
1000
0000
1100
0000
0000
0000
0001
0000
0000
1000
,
0000
0000
0001
0000
0101
0000
0000
0000
1000
0000
0000
0010
0000
0000
0100
0000
,
1010
0000
0000
0000
0001
0000
0010
0100
0010
0000
0000
0000
0001
1000
0001
0000
,
0100
0000
0000
0010
1000
0000
0010
0000
0100
0000
0000
0000
0001
0000
0000
0010
,
0100
0000
0010
0000
0001
0000
0000
0000
1000
0000
0000
0001
0100
0000
0001
0000
,
1000
0000
0000
0000
0100
0000
0000
0010
0001
0000
0010
0000
0100
0000
0000
0000
,
1000
0000
0000
0001
0100
0000
0010
0000
1000
0000
0000
0000
0001
0000
0000
0010
,
0100
0000
1000
0000
0001
0000
0000
0000
0100
0000
0000
0010
1000
0000
0001
0000
,
0010
0000
0000
0000
0100
0000
1000
0001
0000
1000
0001
0000
0200
0000
0000
0000
,
0000
0000
0300
0110
,
0101
0000
0000
0000
1001
0000
0001
0100
0010
0000
1000
0000
0100
0000
0010
0000
,
0001
0000
0100
0000
0110
0000
0000
0000
0101
0000
0000
0000
1001
0000
1000
0100
,
0010
0000
0001
0000
1000
0000
0010
0000
0100
0001
1000
0001
0200
0000
0000
0000
,
1000
0000
0000
0000
0301
0000
0010
0100
1000
0000
0001
0000
0100
0000
0010
0000
,
1000
0000
0100
0000
0020
0000
0000
0000
1000
0000
0000
0000
0031
0000
1000
0100
,
0010
0001
0100
0020
0000
1030
0001
0100
,
0100
0010
1000
1000
0001
0010
1000
0010
,
0001
0100
0010
1000
1000
0100
0010
0010
,
0001
1000
0010
0200
0000
0301
0010
0100
,
0100
1000
0010
0010
0100
1000
0100
0001
,
1000
0100
0010
0001
0001
1000
0010
0010
,
0100
1000
0100
0002
0000
0000
1003
0000
,
1100
0000
0110
0000
0011
0000
1000
0100
,
0001
0100
1000
0000
1001
0000
0101
0000
,
0110
0000
0010
1000
0100
0000
0010
0000
,
0011
0000
1001
0000
1010
0000
0001
0100
,
1000
0000
0100
0000
0002
0000
0000
0000
0010
0000
0000
0000
1003
0000
0100
0010
,
0100
1000
0001
0200
0000
0000
0310
0000
,
1020
0000
0001
0000
0130
0000
1000
0100
,
0001
0010
0100
0000
0210
0000
0001
0000
,
1300
0000
0000
0000
0001
0000
0100
0010
1000
0000
0000
0000
0100
0000
0000
0000
,
1200
0000
0001
0000
0310
0000
1000
0010
,
0001
0000
0000
0010
0000
0000
0200
0000
0000
0000
0000
0000
0000
0000
0000
0000
0000
0000
0300
0000
0000
1000
0001
1000
,
0002
0000
0203
0000
0320
0000
1030
0100
,
1000
0010
0001
0010
0100
1000
0100
0001
,
0010
0000
0000
0100
0000
0000
1000
0000
0000
0001
0100
0001
0100
0000
0000
0010
0000
0000
1000
0000
0000
0001
0000
0000
,
0020
0000
0030
0200
0000
1300
0001
0100
,
0001
0010
1000
0010
0002
0000
0103
0020
,
0000
1030
2002
0000
3003
0000
0001
0100
,
0020
0000
0000
0130
0000
0000
0001
0000
2000
0000
0000
0000
3001
0000
0100
0000
,
0001
0010
1000
0010
0100
0001
0100
1000
,
0010
0000
0000
0100
0000
0000
0001
0000
0000
1000
0100
1000
0100
0000
0000
0010
0000
0000
0001
0000
0000
1000
0000
0000
,
0020
0000
0030
0200
0000
0301
1000
0100
,
1000
0010
0001
0010
2000
0000
3100
0020
,
0000
0031
2002
0000
3003
0000
2000
0000
,
3200
0000
0302
0000
0023
0000
1030
0001
,
1000
0100
0010
0000
0001
1000
0001
0100
,
0010
0000
1000
0100
0010
0001
0100
0010
,
0100
0000
0001
0000
0010
0000
0100
0000
1000
0000
0000
0000
0001
0000
0000
0100
,
0000
0000
0010
0000
0101
0000
0000
0000
1000
0000
0000
0100
0000
0000
0010
0000
,
1100
0000
0000
0000
0001
0000
0000
1000
0000
0000
0100
0000
0011
0000
0000
0000
,
1000
0000
0001
0100
0000
0010
1000
0000
0001
0000
0010
0000
0100
0000
0000
1000
,
0001
0000
0100
0000
0010
0000
0000
0000
1000
0000
0000
0100
0010
0000
0001
0000
,
0100
0000
0010
0000
0100
0000
0000
0001
1000
0000
0100
0000
0010
0000
0000
0000
,
0001
0000
0000
1000
0010
0000
0100
0000
0001
0000
1000
0000
0100
0000
0000
0010
,
1000
0000
0010
0000
0001
0000
0000
0000
0100
0000
0000
0010
0001
0000
0010
0000
,
1000
0000
0001
0000
0010
0000
0000
0100
0001
0000
0100
0000
1000
0000
0000
0000
,
0010
0000
0000
0100
1000
0000
0100
0000
0001
0000
1000
0000
1100
0000
0000
0101
,
0000
0000
1100
0000
1001
0000
0000
0000
0011
0000
0000
1010
0000
0000
0011
0000
,
1001
0000
0000
0000
;

//---------------dance-double - ----------------
#NOTES:
     dance-double:
     :
     Hard:
     9:
     0.632,0.628,0.367,0.416,0.192:
00000000
00000000
00000000
00000000
,
00000000
00000000
00000000
00000000
,
00000000
00000000
00000000
00000000
,
00000000
00000000
00000000
00000000
,
00010000
00000000
00000000
00001000
00000000
00000000
01000000
00000000
00010000
00000000
00000000
00000000
00100000
00000000
00000000
01000000
,
00000000
00000000
10000000
00000000
00100000
00000000
00000000
00000000
01000000
00000000
00000000
00001000
00000000
00000000
00010000
00000000
,
00000100
00000000
00000000
00000000
00000010
00000000
00000000
00000001
00000000
00000000
00000100
00000000
00001000
00000000
00000000
00000000
,
00001000
00000000
00000000
00010000
00000000
00000000
00000100
00000000
00001000
00000000
00000000
00000000
00000010
00000000
00000000
00000100
,
00000000
00000000
00000001
00000000
00000010
00000000
00000000
00000000
00000100
00000000
00000000
00010000
00000000
00000000
00001000
00000000
,
01000000
00000000
00000000
00000000
00100000
00000000
00000000
10000000
00000000
00000000
01000000
00000000
00010000
00000000
00000000
00000000
,
00001000
00000000
00000000
01000000
00000000
00000000
00010000
00000000
00100000
00000000
01000000
00000000
10000000
00000000
00000000
00100000
,
00000000
00000000
01000000
00000000
00010000
00000000
00000000
00000000
00100000
00000000
00000000
01000000
00000000
00000000
00010000
00000000
,
00001000
00000000
00000100
00000000
00000010
00000000
00000000
00001010
00000000
00000000
00000100
00000000
00000101
00000000
00000000
00000000
,
00000020
00000000
00000000
00000000
,
00000000
00000000
00010030
00001000
00200000
00000000
00000000
00000000
,
00000000
02300000
00000000
00000000
,
23000000
00000000
00000000
00000000
30100000
01000000
00002000
00000000
,
00000000
00023000
00000000
00000000
00030200
00000000
00000000
00000000
,
00000320
00000000
00000032
00000000
00002003
00000000
00003100
00010000
,
00002000
01000000
01000000
00203000
,
01000000
00000000
01300000
10000000
00020000
00000000
01000000
00000000
,
01000000
00000000
00230000
00000000
00001000
00000000
00301000
00010000
,
01000000
00000000
00000000
00100000
00000000
00000000
00010000
00000000
01010000
00000000
00000000
00000000
01000000
00000000
00000000
00001000
,
00000000
00000000
00010000
00000000
00010010
00000000
00000000
00000000
00000010
00000000
00000000
00001000
00000000
00000000
00000100
00000000
,
00000110
00000000
00000000
00000000
00000001
00000000
00001000
00000100
00001000
00000000
00000000
00000000
00000100
00010000
00000100
00000000
,
00010000
00000000
00000000
00010000
00001000
00000000
01000000
00000000
00100000
00000000
00000000
00000000
10000000
00000000
00000000
10000000
,
01000000
00000000
00010000
00000000
00001000
00000000
00010000
00000000
00000010
00000000
00000000
00000010
00000100
00000000
00000001
00000000
,
00001000
00000000
00000000
00000000
00000100
00000000
00000000
00000100
00010000
00000000
00001000
00000000
00000100
00000000
00000000
00000000
,
00001000
00000000
00000000
00001000
00010000
00000000
00100000
00000000
01000000
00000000
00000000
00000000
00010000
00000000
00000000
00010000
,
10000000
00000000
01000000
00000000
00100000
00000000
00010000
00000000
01000000
00000000
00000000
01000000
00001000
00000000
00010000
00000000
,
00001000
00000000
00000000
00000000
00011000
00000000
00000000
00010100
00000000
00000000
01001000
00000000
00011000
00000000
00000000
00000000
,
00000000
00000000
00000000
20010000
,
00100000
00000000
00000000
00000000
30100000
00000000
01000000
00010000
01000000
00000000
00100000
00000000
00010000
00000000
00001000
00000000
,
00000100
00000000
00000010
00000000
00001020
00000000
00000000
00000000
00000100
00000000
00000000
00000000
00000130
00000000
00001000
00010000
,
00001000
00000000
00100000
00000000
01000000
00000000
10000000
00000000
00100000
01000000
00010000
01000000
00200000
00000000
00000000
00000000
,
10000000
00000000
00000000
00000000
10300000
00000000
01000000
00100000
01000000
00000000
00010000
00000000
00001000
00000000
00000100
00000000
,
00000010
00000000
00001000
00000000
00001002
00000000
00000000
00000000
00000010
00000000
00000000
00000000
00000013
00000000
00000100
00010000
,
00000100
00001000
00000010
00000200
00000000
00001300
00010000
00100000
,
00100000
01000000
00001000
00001000
00010000
00100000
10000000
00100000
,
00010000
00010000
00001000
00000100
00000010
00001000
00000100
00000010
,
00001000
00010000
01000000
00200000
00000000
00310000
01000000
00001000
,
00001000
00010000
00000100
00000100
00001000
00000010
00000001
00000010
,
00001000
00001000
00000100
00010000
00001000
01000000
00001000
00010000
,
00100000
01000000
00001000
00020000
00000000
00000000
01030000
00000000
,
11000000
00000000
10010000
00000000
01010000
00000000
01000000
00001000
,
00010000
00000100
00000000
00000000
00001100
00000000
00000101
00000000
,
00001001
00000000
00000001
00000100
00002000
00000000
00013000
00000000
,
00011000
00000000
01001000
00000000
01010000
00000000
00100000
10000000
,
01000000
00000000
00010000
00000000
00002000
00000000
00000000
00000000
00010000
00000000
00000000
00000000
00013000
00000000
00000100
00001000
,
00000001
00000100
00000010
00002000
00000000
00000000
00003100
00000000
,
00000110
00000000
00000011
00000000
00000101
00000000
00000100
00001000
,
00010000
01000000
00000000
00000000
11000000
00000000
01100000
00000000
,
00110000
00000000
10000000
01000000
00020000
00000000
00031000
00000000
,
00011000
00000000
00010100
00000000
00000110
00000000
00000010
00000001
,
00000100
00000000
00001000
00000000
00020000
00000000
00000000
00000000
00000000
00000000
00000000
00000000
00000000
00000000
01030000
00100000
,
02000000
00000000
23000000
00000000
30020000
00000000
01030000
00001000
,
01000000
00100000
00010000
00001000
00000100
00000010
00000100
00001000
,
00010000
00100000
10000000
01000000
00010000
00001000
00000010
00000001
,
00002000
00000000
00003000
00000002
00000000
00000103
00001000
00010000
,
00001000
00100000
01000000
00100000
00020000
00000000
01030000
00002000
,
00000000
00013000
00000200
00000000
00001000
00000000
00001300
00000100
,
00000020
00000000
00000000
00000031
00000000
00000000
00000100
00000000
00000010
00000000
00000000
00000000
00000100
00000000
00000010
00000000
,
00000100
00001000
00010000
00100000
01000000
00010000
01000000
00100000
,
00010000
00001000
00000010
00001000
00010000
01000000
10000000
00100000
,
02000000
00000000
03000000
00020000
00000000
10030000
00100000
01000000
,
00100000
00010000
00001000
00010000
00000200
00000000
00000310
00000002
,
00000000
00000103
00002000
00000000
00013000
00000000
00020000
00000000
,
02030000
23000000
30200000
00320000
,
00031000
01000000
00001000
00000000
00010000
00000000
00000100
00000010
,
00000100
00001000
00000001
00000000
00000100
00000010
00000100
00000000
,
00001000
00000000
00000000
00000000
01000000
00000000
00100000
00000000
01000000
00000000
00000000
00000000
01002000
00000000
00000000
00100000
,
00000000
00000000
00010000
00000000
00013000
00000000
00000000
00000000
00020100
00000000
00000000
00000010
00000000
00000000
00001000
00000000
,
00031000
00000000
00000000
00000000
00102000
00000000
00000000
01000000
00000000
00000000
00010000
00000000
00013000
00000000
00000000
00000000
,
00000200
00000000
00000000
00000000
00000302
00000000
00000000
00000000
00000203
00000000
00000000
00000000
00010300
00000000
00000000
00010000
,
00001000
00000000
01000000
00000000
00100000
00000000
00000000
00000000
10000000
00000000
00000000
10000000
00010000
00000000
01000000
00000000
,
00001000
00000000
00000000
00000000
00010000
00000000
00000000
00010000
00000100
00000000
00001000
00000000
00000010
00000000
00000100
00000000
,
00000001
00000000
00000000
00000001
00001000
00000000
00000100
00000000
00010000
00000000
00000000
00000000
00001000
00000000
00000000
00001000
,
00100000
00000000
01000000
00000000
10000000
00000000
00000000
00000000
00100000
00000000
00000000
00100000
01000000
00000000
00001000
00000000
,
00010000
00000000
00000000
00000000
00000100
00000000
00000000
00000100
00000010
00000000
00000001
00000000
00001000
00000000
00000100
00000000
,
00010100
00000000
00000000
01001000
00000000
00000000
00011000
00000000
00011000
00000000
00000000
00000000
01001000
00000000
00000000
00101000
,
00000000
00000000
01001000
00000000
00011000
00000000
00000000
00000000
00010100
00000000
00000000
00010010
00000000
00000000
00010100
00000000
,
00011000
00000000
00000000
00000000
;

//---------------dance-double - ----------------
#NOTES:
     dance-double:
     :
     Medium:
     6:
     0.445,0.496,0.171,0.179,0.073: // measure 1
00000000
00000000
00000000
00000000
,  // measure 2
00000000
00000000
00000000
00000000
,  // measure 3
00000000
00000000
00000000
00000000
,  // measure 4
00000000
00000000
00000000
00000000
,  // measure 5
00001000
00010000
00000100
00010000
,  // measure 6
00001000
01000000
00001000
00010000
,  // measure 7
00000010
00010000
00001000
00000100
,  // measure 8
00000001
00000000
00000000
00000100
00000000
00000000
00000001
00000000
00000100
00000000
00000000
00000000
00000010
00000000
00000000
00010000
,  // measure 9
00000000
00000000
00000010
00000000
00010000
00000000
00000000
00000000
00001000
00000000
00000000
00100000
00000000
00000000
00001000
00000000
,  // measure 10
00100000
00000000
00000000
00000000
00010000
00000000
00000000
10000000
00000000
00000000
00010000
00000000
10000000
00000000
00000000
00000000
,  // measure 11
10000000
00000000
00000000
01000000
00000000
00000000
10000000
00000000
01000000
00000000
00000000
00000000
01000000
00000000
00000000
00010000
,  // measure 12
00000000
00000000
01000000
00000000
00010000
00000000
00000000
00000000
00010000
00000000
00000000
00001000
00000000
00000000
00010000
00000000
,  // measure 13
00001000
00000000
00000000
00000000
00001000
00000000
00000000
00000100
00000000
00000000
00000001
00000000
00001001
00000000
00000000
00000000
,  // measure 14
00002000
00000000
00000000
00000000
,  // measure 15
00003000
00000000
00000100
00010000
00000200
00000000
00000000
00000000
,  // measure 16
00000300
00020000
00000000
00030000
,  // measure 17
00002000
00000000
00003000
00000000
01000000
00010000
01000000
00000000
,  // measure 18
00000000
00100000
00000000
00000000
20000000
00000000
00000000
00000000
,  // measure 19
30000000
00010000
01000000
00001000
,  // measure 20
00020000
00000100
00000100
00000000
,  // measure 21
00030100
00000000
00001000
00000001
00002000
00000000
00000010
00000000
,  // measure 22
00003010
00000200
00000001
00000301
,  // measure 23
00000001
00000000
00000000
00001000
00000000
00000000
00000100
00000000
00001000
00000000
00000000
00000000
00000100
00000000
00000000
00010000
,  // measure 24
00000000
00000000
00001000
00000000
00010000
00000000
00000000
00000000
00001000
00000000
00000000
01000000
00000000
00000000
00010000
00000000
,  // measure 25
01000000
00200000
00010000
10300000
,  // measure 26
10000000
00010000
01010000
01000000
,  // measure 27
00001000
00010000
00000100
00001000
,  // measure 28
00001001
00000001
00000100
00000010
,  // measure 29
00010000
00001000
00101000
00100000
,  // measure 30
00010000
10000000
10010000
10010000
,  // measure 31
10010000
00000000
00000000
00000000
00010000
00000000
00000000
10000000
00000000
00000000
01000000
00000000
01100000
00000000
00000000
00000000
,  // measure 32
00000000
00000000
00000000
00100000
,  // measure 33
00110000
00000000
00110000
00000000
00010000
00100000
00010000
00100000
,  // measure 34
00001000
00010000
00010010
00010010
,  // measure 35
00000010
00001000
00000010
00001000
00000001
00000000
00000010
00000000
,  // measure 36
00000110
00000000
00000110
00000000
00000100
00010000
00000100
00010000
,  // measure 37
00001000
01000000
01010000
01010000
,  // measure 38
00010000
10000000
01000000
10000000
00000000
00010000
01000000
00000000
,  // measure 39
00100000
00000000
00100000
00000000
10000000
00010000
10000000
00010000
,  // measure 40
01000000
00001000
00010000
00010000
,  // measure 41
00000100
00001000
00000100
00001000
00000000
00000001
00000100
00000000
,  // measure 42
00000010
00000000
00000010
00000000
00010000
00001000
00010000
00001000
,  // measure 43
00100000
00010000
01000000
01000000
,  // measure 44
00100000
10000000
00010000
02000000
00000000
03000000
00000000
00000000
,  // measure 45
00100000
00000000
10000000
00000000
10000000
00000000
01000000
00100000
,  // measure 46
01000000
00100000
00000000
00000000
00001000
00000000
00010000
00000000
,  // measure 47
00000010
00000000
00000100
00000001
00002000
00000000
00003000
00000000
,  // measure 48
00000100
00000000
00000010
00000000
00000010
00000000
00000001
00000100
,  // measure 49
00000010
00001000
00000100
00000000
00010000
00000000
00010000
00000000
,  // measure 50
00001000
00100000
00001000
02000000
00000000
03000000
00000000
00000000
,  // measure 51
00010000
00000000
10000000
00000000
10000000
00000000
01000000
00100000
,  // measure 52
01000000
00100000
00000000
00000000
00001000
00000000
00010000
00000000
,  // measure 53
00001000
00000000
00000100
00000010
00000200
00000000
00000300
00000000
,  // measure 54
00000010
00000000
00001000
00000000
00001000
00000000
00000001
00000010
,  // measure 55
00000100
00001000
00000002
00000000
00000003
00000000
00000000
00001000
,  // measure 56
00000100
00000000
00010000
00000000
00001000
00000000
01000000
00010000
,  // measure 57
10000000
00010000
01000000
00000000
00100000
10000000
00010000
10000000
,  // measure 58
00100000
00000000
01000000
00100000
01000000
00000000
00001000
00010000
,  // measure 59
00002000
00000000
00003000
00010000
00000000
00010000
00000100
00000000
,  // measure 60
00001000
00000000
00000010
00000100
00000010
00000000
00001000
00000001
,  // measure 61
00000000
00000001
00000100
00000000
00000010
00000000
00001000
00000100
,  // measure 62
00001000
00000000
00000100
00000000
00010000
00000000
00001000
01000000
,  // measure 63
00010000
01000000
00001000
00000000
01000000
00001000
00010000
00001000
,  // measure 64
01000000
00000000
00100000
10000000
00100000
00000000
01000000
00001000
,  // measure 65
02000000
00000000
03000000
00001000
00000000
00001000
00010000
00000000
,  // measure 66
00000100
00000000
00000010
00000001
00000010
00000000
00000100
00010000
,  // measure 67
00000000
00010000
00002000
00000000
00003000
00000000
01000000
00000000
,  // measure 68
00010000
10000000
01000000
00200000
,  // measure 69
00000000
00000000
00000000
00300000
,  // measure 70
00001000
00010000
00002000
00000000
00000000
00000000
00003000
00000000
,  // measure 71
00020000
00000000
00030000
00000020
,  // measure 72
00000030
00000000
00000100
00000001
00000100
00000000
00000000
00000010
,  // measure 73
00000000
00002000
00000000
00003000
,  // measure 74
00000001
00000100
00001000
00010000
,  // measure 75
00001000
00011000
00010000
00001000
,  // measure 76
01001000
01000000
00100000
01100000
,  // measure 77
01000000
00000000
00000000
00000000
00100000
00000000
00000000
00000000
10100000
00000000
00000000
00000000
10000000
00000000
00000000
00100000
,  // measure 78
00000000
00000000
10000000
00000000
00100000
00000000
00000000
00000000
00100000
00000000
00000000
00010000
00000000
00000000
00100000
00000000
,  // measure 79
00010000
00000000
00000000
00000000
00001000
00000000
00000000
00000010
00000000
00000000
00001000
00000000
00000010
00000000
00000000
00000000
,  // measure 80
00000010
00000000
00000000
00000001
00000000
00000000
00000010
00000000
00000001
00000000
00000000
00000000
00000001
00000000
00000000
00000100
,  // measure 81
00000000
00000000
00000010
00000000
00000100
00000000
00000000
00000000
00001000
00000000
00000000
00010000
00000000
00000000
00001000
00000000
,  // measure 82
00011000
00000000
00000000
00000000
;

//---------------dance-double - ----------------
#NOTES:
     dance-double:
     :
     Easy:
     3:
     0.224,0.230,0.008,0.147,0.000: // measure 1
00000000
00000000
00000000
00000000
,  // measure 2
00000000
00000000
00000000
00000000
,  // measure 3
00000000
00000000
00000000
00000000
,  // measure 4
00000000
00000000
00000000
00000000
,  // measure 5
10000000
00000000
10000000
01000000
,  // measure 6
00000000
01000000
00100000
00000000
,  // measure 7
00100000
00001000
00000000
00001000
,  // measure 8
00010000
00000000
00010000
00000100
,  // measure 9
00000000
00000100
00000010
00000000
,  // measure 10
00000010
00000001
00000000
00000001
,  // measure 11
00001000
00000000
00001000
00000100
,  // measure 12
00000000
00000100
00010000
00000000
,  // measure 13
00010000
00001000
00001000
00001000
,  // measure 14
02000000
00000000
00000000
00000000
,  // measure 15
00000000
03000000
00200000
00000000
,  // measure 16
00300000
20000000
00000000
30000000
,  // measure 17
00020000
00000000
00030000
00200000
,  // measure 18
00000000
00300000
00002000
00000000
,  // measure 19
00003000
00020000
00000000
00030000
,  // measure 20
00000020
00000000
00000000
00000000
,  // measure 21
00000000
00000030
00000200
00000000
,  // measure 22
00000300
00000002
00000000
00000003
,  // measure 23
00002000
00000000
00003000
00000200
,  // measure 24
00000000
00000300
00020000
00000000
,  // measure 25
00030000
00001000
00001000
00001000
,  // measure 26
01000000
00000000
01000000
00100000
,  // measure 27
00000000
00100000
10000000
00000000
,  // measure 28
10000000
00010000
00000000
00010000
,  // measure 29
00100000
00000000
00100000
00001000
,  // measure 30
00000000
00001000
00010000
00000000
,  // measure 31
00010000
00000100
00000000
00000100
,  // measure 32
00000000
00000000
00000000
00000010
,  // measure 33
00000010
00000010
00000000
00000000
,  // measure 34
00000000
00000001
00000001
00000001
,  // measure 35
00000000
00000000
00000000
00001000
,  // measure 36
00001000
00001000
00000000
00000000
,  // measure 37
00000000
00000100
00000100
00000100
,  // measure 38
00000000
00000000
00000000
00010000
,  // measure 39
00000000
00010000
00000000
00000000
00010000
00000000
00000000
00000000
,  // measure 40
00000000
00000000
00001000
00000000
00000000
00001000
00000000
00000000
,  // measure 41
00001000
00000000
00000000
01000000
,  // measure 42
00000000
00010000
00000000
00000000
00010000
00000000
00000000
00000000
,  // measure 43
00000000
00000000
00100000
00000000
00000000
01000000
00000000
00000000
,  // measure 44
01000000
00000000
00000000
00000000
,  // measure 45
10000000
00010000
00010000
00000000
,  // measure 46
01000000
00000000
00010000
00100000
,  // measure 47
00100000
00000000
00001000
00000000
,  // measure 48
00010000
00000000
00000100
00000000
00000100
00000000
00000000
00010000
,  // measure 49
00000000
00000100
00000000
00000000
,  // measure 50
00001000
00000001
00000000
00000000
,  // measure 51
00000100
00000010
00000010
00000000
,  // measure 52
00001000
00000000
00000100
00010000
,  // measure 53
00010000
00000000
00001000
00000000
,  // measure 54
01000000
00000000
00010000
00000000
00010000
00000000
00000000
10000000
,  // measure 55
00000000
01000000
00000000
00000000
,  // measure 56
00100000
00010000
10000000
00010000
,  // measure 57
00010000
00000000
01000000
01000000
,  // measure 58
00000000
00000000
00001000
00000000
00000000
00001000
00000000
00000000
,  // measure 59
00010000
00000000
00000000
00010000
00000000
00000000
00000100
00000000
,  // measure 60
00000100
00000000
00000000
00000000
00000010
00000000
00000000
00000001
,  // measure 61
00000000
00000010
00000000
00000100
,  // measure 62
00000010
00000000
00000001
00001000
,  // measure 63
00001000
00000000
00000100
00000100
,  // measure 64
00000000
00000000
00010000
00000000
00000000
00001000
00000000
00000000
,  // measure 65
00010000
00000000
00000000
00001000
00000000
00000000
01000000
00000000
,  // measure 66
01000000
00000000
00000000
00000000
00100000
00000000
00000000
10000000
,  // measure 67
00000000
00100000
00000000
01000000
,  // measure 68
01000000
00000000
00010000
20000000
,  // measure 69
00000000
00000000
00000000
30000000
,  // measure 70
00010000
02000000
00000000
03000000
,  // measure 71
00002000
00000000
00003000
00020000
,  // measure 72
00000000
00000000
00030000
00000000
00000100
00000000
00000000
00000010
,  // measure 73
00000000
00000200
00000000
00000300
,  // measure 74
00000001
00001000
00000001
00001000
,  // measure 75
00000000
00001000
00000100
00000000
,  // measure 76
00000100
00010000
00000000
00010000
,  // measure 77
00001000
00000000
00001000
01000000
,  // measure 78
00000000
01000000
00010000
00000000
,  // measure 79
00010000
00100000
00000000
00100000
,  // measure 80
01000000
00000000
01000000
10000000
,  // measure 81
00000000
00000000
10010000
00000000
;
