#TITLE:Fly Above;
#SUBTITLE:;
#ARTIST:Sota Fujimori;
#TITLETRANSLIT:;
#SUBTITLETRANSLIT:;
#ARTISTTRANSLIT:;
#GENRE:;
#CREDIT:;
#BANNER:Fly Above-bn.png;
#BACKGROUND:Fly Above-bg.png;
#LYRICSPATH:;
#CDTITLE:cdtitle.png;
#MUSIC:Fly Above.mp3;
#OFFSET:-0.376788;
#SAMPLESTART:72.349998;
#SAMPLELENGTH:12.000000;
#SELECTABLE:YES;
#DISPLAYBPM:150.000000;
#BPMS:0.000000=150.000000
;
#STOPS:
;
#BGCHANGES:0.000=Fly Above.mp4=1.000=1=0=0,
99999=-nosongbg-=1.000=0=0=0 // don't automatically add -songbackground--
;
#KEYSOUNDS:;
#ATTACKS:;

//---------------dance-single - ----------------
#NOTES:
     dance-single:
     :
     Beginner:
     1:
     0.057784,0.057239,0.000000,0.000000,0.000000,53.000000,0.000000,0.000000,0.000000,0.000000,0.000000,0.057784,0.057239,0.000000,0.000000,0.000000,53.000000,0.000000,0.000000,0.000000,0.000000,0.000000:
0000
0000
0000
0000
,
0000
0000
0000
0000
,
0000
0000
0000
0000
,
0000
0000
0000
0000
,
0000
0000
0000
0000
,
0001
1000
0000
1000
,
0001
0100
0000
0100
,
0000
1000
1000
1000
,
1000
1000
1000
1000
,
1000
1000
1000
1000
,
1000
1000
1000
1000
,
1000
1000
1000
1000
,
1000
1000
1000
1000
,
1000
1000
1000
1000
,
1000
1000
1000
1000
,
1000
1000
1000
1000
,
1000
1000
1000
1000
,
1000
1000
1000
1000
,
1000
1000
1000
1000
;

//---------------dance-single - ----------------
#NOTES:
     dance-single:
     :
     Hard:
     8:
     0.513514,0.498693,0.236587,0.396856,0.099214,388.000000,31.000000,52.000000,0.000000,0.000000,0.000000,0.513514,0.498693,0.236587,0.396856,0.099214,388.000000,31.000000,52.000000,0.000000,0.000000,0.000000:
0000
0000
0000
0000
,
0000
0000
0000
0000
,
0000
0000
0000
0000
,
0000
0000
0000
0000
,
0000
0000
0000
0000
,
1000
1100
0001
0101
,
1000
0000
0000
0000
1010
0000
0000
0000
0001
0000
0000
0000
1000
0001
1000
0000
,
0100
0110
1000
1100
,
0001
0000
0000
0011
0000
0000
1000
0000
0000
1010
0000
0000
0001
0000
0100
0000
,
0010
0000
1000
0000
0001
0000
1000
0100
,
0010
0000
0001
0000
0010
0000
0001
0100
,
0010
0000
1000
0000
0010
0000
1000
0100
,
0010
0000
0100
0000
0010
0000
0100
1000
,
0001
0000
0100
0000
0010
0000
0100
0001
,
0010
0000
0100
0000
0010
0000
0100
1000
,
0001
0000
0100
0000
1000
0000
0100
0010
,
2000
0000
0000
0000
3100
1000
0001
0000
,
0100
0000
0110
0000
0010
1000
0001
0000
,
0010
0000
0011
0000
0001
0100
0010
0000
,
0100
0000
0101
0000
1000
0100
0010
0000
,
0002
0010
2003
0010
,
3001
0000
0101
0000
0100
0010
1000
0000
,
0001
0000
1100
0000
1000
0100
0010
0000
,
0001
0000
0110
0000
0010
0001
0100
0000
,
0101
0000
1001
0000
1000
1000
0000
0001
,
0100
0010
1000
0000
0100
0000
0100
0000
,
0010
0001
1000
0000
0010
0000
0010
0000
,
0100
0001
1000
0000
0100
0000
0100
0000
,
0010
0100
0010
0000
0001
1000
0001
0100
,
0010
0000
0010
0000
1000
0001
1000
0100
,
0010
0000
0010
0000
0100
1000
0010
0100
,
0001
0000
0001
1000
0100
0000
0100
0010
,
0200
0000
1300
0002
0000
0000
0103
0000
,
0010
0000
0000
0100
0000
0000
0001
0000
0000
0000
1000
0000
0100
0000
0010
0000
,
0001
0000
0000
0100
0000
0000
0010
0000
0000
1000
0000
0000
0010
0000
0100
0000
,
0001
0000
0000
0010
0000
0000
0100
0000
0000
1000
0000
0000
0001
0000
0100
0000
,
0010
0000
0000
0010
0000
0000
1000
0000
0000
1000
0000
0000
1001
0000
0000
0000
,
1000
0000
0000
0100
0000
0000
0010
0000
0000
0000
0100
0000
1000
0000
0010
0000
,
0100
0000
0000
0001
0000
0000
1000
0000
0000
0100
0000
0000
0001
0000
0100
0000
,
0010
0000
0000
0001
0000
0000
0100
0000
0000
0010
0000
0000
0100
0000
0001
0000
,
0011
0000
0000
0110
0000
0000
1100
0000
0000
1001
0000
0000
0101
0000
0001
0100
,
0010
0000
1000
0001
0000
0001
0100
0000
,
0010
0000
0000
0000
1000
0000
0100
0000
0000
0000
0010
0000
0100
0000
1000
0100
,
1000
0000
0000
0000
0001
0000
0100
0000
0000
0000
0010
0000
1000
0001
0000
0000
,
0001
0000
0000
0000
0010
0000
0100
0000
1000
0001
1000
0001
1000
0000
0000
0000
,
1000
0000
1000
0002
0000
1003
0100
0000
,
0010
0000
0001
2000
0000
3010
0100
0000
,
0002
0000
0000
0000
0010
0000
0000
0000
1003
0000
0000
0010
0000
0000
0100
0000
,
0002
0000
0013
0200
1000
0000
0310
0100
,
2000
0000
3010
0200
0001
0000
1000
0000
,
0320
0000
1030
0200
0010
0000
0001
0000
,
2300
0000
3010
0200
0000
0302
0000
2003
,
0000
0100
0001
3100
,
0120
0000
0001
0000
0130
1000
0010
0100
,
0002
0000
0013
0200
1000
0000
1300
0000
,
0002
0000
0000
0000
0010
0000
0000
0000
1003
0000
0000
0100
0000
0000
0010
0000
,
0002
0000
0013
0200
0010
0000
0310
0010
,
0002
0000
0103
0020
1000
0000
1030
0001
,
0100
0000
0100
0020
1000
0000
1030
1000
,
0001
0000
0010
0100
0000
0010
0000
0001
,
0011
0000
1100
0000
1001
1001
0000
0100
,
0120
0000
1000
0000
0130
1000
0100
0001
,
2000
0000
0100
0000
3002
0000
0103
0010
,
2000
0000
0100
0000
3010
1000
0010
0001
,
0020
0000
0000
0000
0130
0000
0001
1000
0002
0000
0000
0000
1003
0000
0100
0000
,
0020
0000
0100
0000
1030
0010
0001
1000
,
0020
0100
2030
0100
,
3002
0000
0010
0000
0203
0000
0301
0010
,
0200
0000
1300
0001
0100
0001
1000
0000
,
0200
0000
0010
0000
1300
0010
0001
0010
,
0200
0000
0001
0000
0320
0000
1030
0001
,
0020
0000
0100
0000
1030
0010
0001
0100
,
0020
0000
0000
0000
0130
0000
0001
0010
0200
0000
0000
0000
0301
0000
0100
0000
,
2000
0000
0010
0000
3001
0100
1000
0100
,
0020
1000
0230
0301
,
1000
0100
0020
0000
0031
0100
0020
0030
,
0110
0000
1010
1001
0000
0220
0000
0330
;

//---------------dance-double - ----------------
#NOTES:
     dance-double:
     :
     Hard:
     8:
     0.574569,0.557363,0.320537,0.488438,0.122109,421.000000,42.000000,64.000000,0.000000,0.000000,0.000000,0.574569,0.557363,0.320537,0.488438,0.122109,421.000000,42.000000,64.000000,0.000000,0.000000,0.000000:
// measure 0
00000000
00000000
00000000
00000000
,  // measure 1
00000000
00000000
00000000
00000000
,  // measure 2
00000000
00000000
00000000
00000000
,  // measure 3
00000000
00000000
00000000
00000000
,  // measure 4
00000000
00000000
00000000
00000000
,  // measure 5
10000000
21000000
30010000
01020000
,  // measure 6
00130000
00000000
00000000
00000000
00102000
00000000
00000000
00000000
00013000
00000000
00000000
00000000
00000100
00010000
00000100
00000000
,  // measure 7
00000010
00000000
00000012
00000000
00000103
00000000
00000001
00000100
,  // measure 8
00000010
00000000
00000000
00010010
00000000
00000000
00100000
00000000
00000000
00101000
00000000
00000000
00001000
00000000
00010000
00000000
,  // measure 9
00002000
00000000
00010000
00000000
00013000
01000000
10000000
00010000
,  // measure 10
02000000
00000000
03100000
20000000
01000000
00000000
31000000
00100000
,  // measure 11
00002000
00000000
00010000
00000000
00013000
00000100
00000010
00000100
,  // measure 12
00002000
00000000
00003001
00000200
00000010
00000000
00000310
00000010
,  // measure 13
00002000
00000000
00003100
00000020
00000001
00000031
00000100
00000010
,  // measure 14
00001000
00000000
00000100
00020000
00001000
00000000
00031000
00010000
,  // measure 15
00002000
00100000
00023000
00030010
,  // measure 16
00011000
00000000
00000000
00000000
00010000
00010000
00011000
00000000
,  // measure 17
00001000
00000000
00010100
00000000
00000100
00000010
00000110
00000000
,  // measure 18
00000001
00000000
00000101
00000000
00000100
00000010
00000110
00000000
,  // measure 19
00010000
00000000
00011000
00000000
00010000
00001000
00101000
00000000
,  // measure 20
01000000
00000000
11000000
00000000
10000000
00010000
10010000
00000000
,  // measure 21
10000000
00000000
01010000
00000000
00010000
00100000
11000000
00000000
,  // measure 22
01000000
00000000
10010000
00000000
01000000
00001000
00011000
00000000
,  // measure 23
00000100
00000000
00000110
00000000
00000001
00000100
00001010
00000000
,  // measure 24
00001001
00000000
00000110
00000000
00001001
00002001
00000000
00003100
,  // measure 25
00000100
00000010
00000001
00000100
00001000
00010000
00001000
00000100
,  // measure 26
00000001
00000000
00001000
00000000
00000001
00001000
00000100
00000000
,  // measure 27
00000010
00001000
00010000
01000000
10000000
01000000
00010000
00001000
,  // measure 28
00010000
00000000
00000100
00000000
00000010
00000001
00000100
00000000
,  // measure 29
00000001
00000100
00001000
00010000
00001000
00010000
01000000
00010000
,  // measure 30
00001000
00000000
00010000
00000000
01000000
10000000
00010000
00000000
,  // measure 31
10000000
00100000
10000000
00100000
00010000
00001000
00000100
00000010
,  // measure 32
00001000
00000000
00000100
00000020
00000000
00000031
00001000
00000000
,  // measure 33
00000100
00000000
00000000
00000010
00000000
00000000
00000001
00000000
00000000
00000000
00001000
00000000
00000100
00010000
00000100
00010000
,  // measure 34
00000100
00000000
00000000
00000010
00000000
00000000
00000001
00000000
00000000
00000100
00000000
00000000
00001000
00000000
00010000
00000000
,  // measure 35
00100000
00000000
00000000
10000000
00000000
00000000
00010000
00000000
00000000
00100000
00000000
00000000
01000000
00000000
10000000
00000000
,  // measure 36
00010000
00000000
00000000
01000000
00000000
00000000
10000000
00000000
00000000
01000000
00000000
00000000
01100000
00000000
00100000
00000000
,  // measure 37
10000000
00000000
00000000
01000000
00000000
00000000
00100000
00000000
00000000
00000000
00010000
00000000
00100000
00001000
00100000
00001000
,  // measure 38
00100000
00000000
00000000
01000000
00000000
00000000
10000000
00000000
00000000
00100000
00000000
00000000
00010000
00000000
00001000
00000000
,  // measure 39
00000100
00000000
00000000
00000001
00000000
00000000
00001000
00000000
00000000
00000100
00000000
00000000
00000010
00000000
00000001
00000000
,  // measure 40
00000011
00000000
00000000
00000110
00000000
00000000
00001100
00000000
00000000
00001010
00000000
00000000
00000110
00000000
00000010
00001000
,  // measure 41
00000010
00000100
00000001
00001000
00000000
00000100
00010000
00001000
,  // measure 42
00010000
00000000
01000000
00000000
00100000
00000000
00010000
00000000
00000000
00000000
00100000
00000000
00010000
00000000
10000000
01000000
,  // measure 43
00010000
00001000
00000100
00000001
00000000
00001000
00000100
00000010
,  // measure 44
00000001
00000000
00000100
00000000
00000010
00000000
00001000
00000000
00000001
00001000
00000001
00001000
00000001
00000000
00000000
00000000
,  // measure 45
00000010
00000100
00010000
00002000
00000000
00103000
01000000
00000000
,  // measure 46
00100000
00010000
01000000
00200000
00000000
10300000
00010000
00000000
,  // measure 47
00210000
00000000
00000000
00000000
10300000
00000000
00100000
00000000
01000000
00000000
00000000
00010000
00000000
00000000
00001000
00000000
,  // measure 48
00000020
00000000
00001030
00020000
00000000
00001000
00031000
00000100
,  // measure 49
00000001
00000001
00000010
00000200
00000000
00001000
00001300
00000000
,  // measure 50
00000001
00000100
00001000
00020000
00000000
00001000
00031000
00000000
,  // measure 51
00200000
00000000
01300000
20000000
00000000
30020000
00000000
02000000
,  // measure 52
00000000
00000000
00030000
00100000
,  // measure 53
03002000
00000000
00010000
00000000
00003100
00000010
00001000
00000100
,  // measure 54
00010000
00000000
00000000
00001000
00000000
00000000
00200000
00000000
00000000
00000000
01300000
00000000
10000000
00000000
00000000
00000000
,  // measure 55
02010000
00000000
00000000
00000000
03100000
00000000
10000000
00000000
01000000
00000000
00000000
00010000
00000000
00000000
00001000
00000000
,  // measure 56
00000020
00000000
00000000
00000000
00000130
00000000
00002000
00000000
00000000
00000000
00000001
00003000
00000001
00000000
00000100
00000000
,  // measure 57
00001000
00010000
01000000
00200000
00000000
00310000
10000000
00000000
,  // measure 58
00100000
00010000
00001000
00000200
00000000
00000310
00000010
00001000
,  // measure 59
00000002
00000000
00000013
00000200
00000000
00000320
00000000
00000031
,  // measure 60
00000011
00000000
00001100
00000000
00001001
00001002
00000000
00000103
,  // measure 61
00002000
00000000
00010000
00000000
00003100
00000001
00000100
00001000
,  // measure 62
00020000
00000000
00001000
00000000
02030000
00000000
13000000
01000000
,  // measure 63
00200000
00000000
01000000
00000000
00301000
00010000
00001000
00000100
,  // measure 64
00002000
00000000
00000000
00000000
00013000
00000000
00001000
00010000
00002000
00000000
00000000
00000000
00003010
00000000
00001000
00000000
,  // measure 65
00020000
00000000
00001000
00000000
01030000
10000000
01000000
00010000
,  // measure 66
00002000
00000100
00023000
01000000
,  // measure 67
00032000
00000000
00010000
00000000
00203000
00000000
00310000
01000000
,  // measure 68
00200000
00000000
10300000
00020000
00000000
00230000
00000000
00300000
,  // measure 69
02000000
00000000
00100000
00000000
13000000
00100000
01000000
00010000
,  // measure 70
00200000
00000000
01000000
00000000
00320000
00000000
01030000
00100000
,  // measure 71
00020000
00000000
00001000
00000000
00030100
00001000
00000100
00000001
,  // measure 72
00000200
00000000
00000000
00000000
00001300
00000000
00000001
00000100
00000020
00000000
00000000
00000000
00000031
00000000
00000010
00000000
,  // measure 73
00000200
00000000
00000001
00000000
00001300
00010000
01000000
10000000
,  // measure 74
02000000
10000000
03200000
00310000
,  // measure 75
10000000
00000000
10000000
00000000
00010000
01000000
00010000
00000000
00100000
00000000
00100000
00000000
00001000
00010000
00001000
00000000
,  // measure 76
00011000
00000000
00101000
00010100
00000000
00022000
00000000
00033000
;

//---------------dance-double - ----------------
#NOTES:
     dance-double:
     :
     Medium:
     6:
     0.450279,0.440023,0.228955,0.335801,0.061055,339.000000,30.000000,44.000000,0.000000,0.000000,0.000000,0.450279,0.440023,0.228955,0.335801,0.061055,339.000000,30.000000,44.000000,0.000000,0.000000,0.000000:
// measure 0
00000000
00000000
00000000
00000000
,  // measure 1
00000000
00000000
00000000
00000000
,  // measure 2
00000000
00000000
00000000
00000000
,  // measure 3
00000000
00000000
00000000
00000000
,  // measure 4
00000000
00000000
00000000
00000000
,  // measure 5
00010000
00011000
00000100
00010100
,  // measure 6
00000010
00000000
00000011
00000000
00001000
00000000
00000010
00000010
,  // measure 7
00000100
00000110
00001000
00001001
,  // measure 8
00000010
00000000
00000000
00000010
00000000
00000000
00000010
00000000
00000000
00000010
00000000
00000000
00000110
00000000
00000000
00000000
,  // measure 9
00000001
00000000
00001000
00000000
00000001
00000000
00001000
00000001
,  // measure 10
00000100
00000000
00000010
00000000
00000100
00000000
00000010
00010000
,  // measure 11
00001000
00000000
00010000
00000000
00001000
00000000
00010000
00001000
,  // measure 12
00100000
00000000
01000000
00000000
00100000
00000000
01000000
01000000
,  // measure 13
01000000
00000000
10000000
00000000
01000000
00000000
10000000
00010000
,  // measure 14
00100000
00000000
00001000
00000000
00100000
00000000
00001000
00010000
,  // measure 15
00000100
00010000
00000100
00010000
,  // measure 16
00011000
00000000
00000000
00000000
00010000
00010000
00002000
00000000
,  // measure 17
00103000
00110000
01000000
11000000
,  // measure 18
00010000
01010000
10000000
10010000
,  // measure 19
00100000
00101000
00010000
00010100
,  // measure 20
00000100
00000000
00000110
00000000
00000010
00000001
00000100
00000000
,  // measure 21
00000010
00000110
00001000
00001100
,  // measure 22
00000100
00010100
00010000
00011000
,  // measure 23
00100000
00110000
01000000
11000000
,  // measure 24
10010000
00000000
01100000
00000000
00010000
10000000
00000000
00010000
,  // measure 25
10000000
00000000
01000000
00000000
00100000
00010000
10000000
01000000
,  // measure 26
00100000
01000000
10000000
10000000
,  // measure 27
00010000
00000000
01000000
00000000
00100000
01000000
00010000
00100000
,  // measure 28
00001000
00010000
00000100
00000100
,  // measure 29
00000010
00000000
00000001
00000000
00001000
00000100
00000010
00000001
,  // measure 30
00001000
00000001
00000100
00000100
,  // measure 31
00000010
00000000
00001000
00000000
00000100
00010000
00001000
01000000
,  // measure 32
00010000
01000000
00100000
00100000
,  // measure 33
10000000
00000000
00000000
10000000
00000000
00000000
10000000
00000000
00000000
00000000
10000000
00000000
01000000
00000000
00000000
00000000
,  // measure 34
00100000
00000000
00000000
00010000
00000000
00000000
00100000
00000000
00000000
00010000
00000000
00000000
00100000
00000000
00000000
00000000
,  // measure 35
00001000
00000000
00000000
00010000
00000000
00000000
00001000
00000000
00000000
00010000
00000000
00000000
00001000
00000000
00000000
00000000
,  // measure 36
00010000
00000000
00000000
00000100
00000000
00000000
00010000
00000000
00000000
00000100
00000000
00000000
00001000
00000000
00000000
00000000
,  // measure 37
00000001
00000000
00000000
00000001
00000000
00000000
00000001
00000000
00000000
00000000
00000100
00000000
00000010
00000000
00000000
00000000
,  // measure 38
00001000
00000000
00000000
00000100
00000000
00000000
00010000
00000000
00000000
00000100
00000000
00000000
00001000
00000000
00000000
00000000
,  // measure 39
00000100
00000000
00000000
00010000
00000000
00000000
00001000
00000000
00000000
00010000
00000000
00000000
00000100
00000000
00000000
00000000
,  // measure 40
00010000
00000000
00000000
00010000
00000000
00000000
00001000
00000000
00000000
00001000
00000000
00000000
00010000
00000000
00011000
00000000
,  // measure 41
00010000
00000000
00001000
00100000
00000000
00000000
00010000
00000000
,  // measure 42
01000000
00000000
00100000
10000000
00000000
00000000
00010000
00000000
,  // measure 43
10000000
00000000
01000000
00100000
00000000
00000000
00100000
00000000
,  // measure 44
00001000
00000000
00010000
00001000
00010000
00001000
00011000
00000000
,  // measure 45
00010000
00000000
00010000
00000200
00000000
00000000
00000310
00000000
,  // measure 46
00000001
00000000
00000100
00000020
00000000
00000000
00001030
00000000
,  // measure 47
00001001
00000000
00000001
00000000
00001000
00000100
00000010
00000001
,  // measure 48
00002000
00000000
00000000
00003002
00000000
00000000
00000103
00000010
,  // measure 49
00001000
00000000
00000100
00020000
00000000
00000000
00031000
00000000
,  // measure 50
00100000
00000000
00100000
00020000
00000000
00000000
10030000
00000000
,  // measure 51
00020000
00000000
00000000
00230000
00000000
02300000
00000000
20000000
,  // measure 52
00000000
00000000
00000000
00000000
00000000
33000000
10000000
00000000
,  // measure 53
00020000
00000000
00000000
00030000
00010000
00100000
01000000
10000000
,  // measure 54
00010000
00000000
01000000
00020000
00000000
00000000
00030000
00000000
,  // measure 55
00100000
00000000
00001000
00000000
00010000
00000100
00000010
00000001
,  // measure 56
00002000
00000000
00000000
00003020
00000000
00000000
00000130
00000001
,  // measure 57
00001000
00000000
00001000
00000002
00000000
00000000
00001003
00000000
,  // measure 58
00000100
00000000
00010000
00002000
00000000
00000000
00000000
00013000
,  // measure 59
00000100
00000000
00010000
00001000
00000000
00010000
00000000
00001000
,  // measure 60
00011000
00000000
00010100
00000000
00000110
00000110
00000000
00000000
,  // measure 61
00000002
00000000
00000010
00000000
00000013
00000100
00000010
00000100
,  // measure 62
00002000
00000000
00000001
00000000
00003002
00000000
00000103
00000010
,  // measure 63
00002000
00000000
00000100
00000000
00003100
00010000
00001000
00010000
,  // measure 64
00000200
00000000
00010000
00010300
00002000
00000000
00013000
00001000
,  // measure 65
02000000
00000000
00100000
00000000
03100000
10000000
00100000
10000000
,  // measure 66
00020000
10000000
20030000
01000000
,  // measure 67
32000000
00000000
00100000
00000000
03200000
00000000
00301000
00010000
,  // measure 68
00002000
00000000
01003000
00002000
00000000
00023000
00000000
00030000
,  // measure 69
00002000
00000000
00010000
00000000
00013000
00000100
00010000
00000100
,  // measure 70
00002000
00000000
00000100
00000000
00003020
00000000
00000130
00000001
,  // measure 71
00000020
00000000
00000001
00000000
00000130
00001000
00000100
00001000
,  // measure 72
00000020
00000000
00000100
00000130
00000002
00000000
00000013
00000001
,  // measure 73
00000200
00000000
00001000
00000000
00001300
00010000
00001000
00010000
,  // measure 74
02000000
00100000
23000000
01000000
,  // measure 75
30020000
00000000
01000000
00000000
02030000
00000000
03100000
01000000
,  // measure 76
01100000
00000000
10000000
00020000
00000000
00200000
00000000
00330000
;

//---------------dance-double - ----------------
#NOTES:
     dance-double:
     :
     Easy:
     4:
     0.286739,0.321634,0.083950,0.297642,0.000000,213.000000,11.000000,39.000000,0.000000,0.000000,0.000000,0.286739,0.321634,0.083950,0.297642,0.000000,213.000000,11.000000,39.000000,0.000000,0.000000,0.000000:
00000000
00000000
00000000
00000000
,
00000000
00000000
00000000
00000000
,
00000000
00000000
00000000
00000000
,
00000000
00000000
00000000
00000000
,
00000000
00000000
00000000
00000000
,
10000000
00010000
00000000
00010000
,
01000000
00001000
00000000
00010000
,
00000100
00001000
00000000
00000100
,
00000020
00000000
00000000
00000030
,
00000001
00000100
00000001
00000000
,
00001000
00000100
00001000
00000000
,
00000100
00010000
00000100
00000000
,
00010000
00001000
00010000
00000000
,
00001000
00100000
00010000
00000000
,
10000000
00010000
01000000
00000000
,
00100000
01000000
00010000
00000000
,
10010000
00000000
00000000
00000000
,
10000000
01000000
00100000
00000000
,
00010000
00100000
00001000
00000000
,
00010000
00000100
00000010
00000001
,
00001000
00000010
00000100
00000000
,
00000001
00000100
00000010
00000000
,
00001000
00000100
00010000
00000000
,
00001000
01000000
00100000
10000000
,
00010000
00000000
00100000
00000000
01000000
01000000
00000000
00000000
,
10000000
01000000
00010000
00001000
,
00000100
00000000
00000001
00000000
,
00000010
00000001
00000100
00001000
,
00010000
00000000
01000000
00000000
,
00100000
00001000
00010000
00000100
,
00000010
00000000
00000001
00000000
,
00000100
00001000
00010000
01000000
,
00100000
00000000
00010000
00000000
,
20000000
00000000
30000000
01000000
,
00100000
00000000
00100000
00001000
,
00010000
00000000
00010000
00000100
,
00000010
00000000
00001001
00000000
,
00000002
00000000
00000003
00000010
,
00000100
00000000
00000100
00010000
,
00001000
00000000
00001000
00100000
,
02200000
00000000
00000000
03300000
,
10000000
00010000
00000000
01000000
,
00100000
10000000
00000000
01000000
,
00010000
00001000
00000000
00010000
,
00000100
00000010
00000001
00001001
,
00000001
00000100
00000010
00001000
,
00000100
00000010
00000100
00000000
,
00000010
00000100
00010000
00001000
,
01000000
00010000
10000000
00000000
,
00100000
01000000
00010000
10000000
,
01000000
00100000
00010000
00000000
,
01000000
00100000
00010000
00001000
,
00000200
00000000
00000000
00000300
,
00000002
00000000
00001003
00000100
,
00000010
00001000
00010000
00000000
,
00002000
00000000
00103000
00010000
,
02000000
00000000
03200000
00000000
,
20300000
00000000
30010000
10000000
,
01000000
00100000
00010000
00000000
,
02000000
00000000
03100000
10000000
,
10010000
01100000
10010000
00000000
,
00020000
00000000
00230000
01300000
,
20000000
00000000
30200000
10300000
,
00020000
00000000
00230000
00301000
,
00020000
00000000
00030200
00000310
,
00000020
00000000
00000032
00001003
,
00000020
00000000
00000230
00000310
,
00020000
00000000
00032000
00103000
,
00010000
10000000
10010000
00000000
,
20000000
00000000
30200000
01300000
,
00020000
00000000
20030000
31000000
,
00200000
00000000
02300000
03010000
,
00002000
00000000
00003200
00000301
,
00002000
00000000
00003002
00000013
,
00000200
00000000
00020300
00000000
,
00031000
00010100
00000100
00001001
,
00000110
00000000
00001000
00000002
00000000
00000103
00000000
00000000
;
