#TITLE:tig-hug;
#SUBTITLE:;
#ARTIST:sasakure.UK feat. GUMI;
#TITLETRANSLIT:;
#SUBTITLETRANSLIT:;
#ARTISTTRANSLIT:;
#GENRE:;
#CREDIT:TaroNuke;
#BANNER:tig-hug-bn.png;
#BACKGROUND:tig-hug-bg.png;
#LYRICSPATH:;
#CDTITLE:;
#MUSIC:tig-hug.ogg;
#OFFSET:-0.093;
#SAMPLESTART:53.861;
#SAMPLELENGTH:12.000;
#SELECTABLE:YES;
#BPMS:0.000=160.000;
#STOPS:;
#BGCHANGES:;
#KEYSOUNDS:;

//---------------dance-single - TaroNuke----------------
#NOTES:
     dance-single:
     TaroNuke:
     Hard:
     9:
     0.768,0.788,0.212,0.374,0.086:
0000
0000
0000
0000
,
0000
0000
0000
0000
,
0000
0000
0000
0000
,
0000
0000
0000
0000
,
1000
0001
0100
0010
0000
1000
0010
0010
,
0200
0000
0301
0010
0000
0100
4000
0000
,
3001
1000
0100
0010
0000
0001
0100
0010
,
1000
0100
0010
0001
0000
0010
0100
1000
,
0001
0000
0000
1000
0001
0000
0000
1000
,
0001
0100
0010
0100
0000
0001
0000
1000
,
0100
0000
0000
0010
0100
0000
0000
1000
0100
0000
0010
0000
0001
0000
0020
0000
,
0100
0000
0001
0000
0130
0010
0100
1000
,
0001
0000
0000
1000
0001
0000
0000
1000
,
0001
0100
1000
0100
0000
0010
0000
1000
,
0001
0000
0011
0000
1100
0000
1000
0001
,
0100
0010
1000
0100
0010
0001
0100
0001
,
1000
0000
0000
0001
1000
0000
0040
0000
,
1030
0100
0010
0100
0000
0010
0004
0000
,
0103
0000
0000
0010
0100
0000
0000
0001
0100
0000
0010
0000
1000
0000
0020
0000
,
0100
0000
1000
0000
0130
0010
0100
0001
,
1000
0000
0000
0001
1000
0000
0400
0000
,
1300
0100
0001
0100
0000
0010
0400
0000
,
1300
0000
1010
0000
0101
0000
0001
1000
,
0100
0000
0010
0000
0001
0000
0100
0000
0010
0000
1000
0100
1000
0000
0010
0100
,
0001
0000
0000
1000
0000
0000
1100
0000
0000
0000
0100
0000
1000
0000
0020
0000
,
0000
0000
0000
0000
0031
0000
0000
0000
1000
0000
0000
0001
0000
0000
0101
0000
,
0000
0001
0100
0020
0000
1030
0100
0010
,
0001
0000
1000
0000
0100
0000
0010
0000
0001
1000
0001
0000
1001
0000
0000
0000
,
2000
0001
3200
0310
,
0002
1000
0203
0310
,
2000
0001
3200
1300
,
0001
1000
0020
0000
0230
0000
0301
1000
,
1100
0000
0001
0101
0000
1000
1010
0000
,
0001
0000
0011
0000
0000
0000
1000
0000
1001
0000
0000
0110
0000
0000
1001
0000
,
0000
0001
0010
0100
1000
0001
0010
0100
,
1000
0000
0001
0000
0010
0000
0100
0000
1000
0001
1000
0000
1001
0000
0001
0000
,
1000
0100
0010
0001
1000
0010
0100
0001
,
0010
0001
0100
0010
2000
0001
3001
0000
,
1000
0010
0100
0010
1000
0100
0010
0100
,
1000
0010
0100
0001
0010
0100
0000
1000
,
0001
0100
0010
1000
0001
0010
0100
0001
,
1000
0010
0100
0010
0002
1000
0103
0000
,
1000
0010
0100
0010
1000
0100
0010
0001
,
1000
0000
0001
0000
0100
0000
0001
0000
1000
0000
0001
0100
0001
0100
0001
0100
,
0010
1000
0010
0100
0010
1000
0100
0010
,
0001
0100
0010
0100
0002
0010
0013
0000
,
1000
0100
0010
0100
1000
0010
0100
0010
,
1000
0100
0010
0001
0100
0010
0100
0001
,
1000
0001
0010
0001
1000
0010
0100
1000
,
0001
0010
0100
0010
2000
0010
3100
0010
,
0012
1003
2010
3001
,
1000
0000
0100
0000
0010
0000
0100
0000
1000
0000
0010
1000
0010
1000
0010
1000
,
0002
0000
1003
0100
0010
1000
0010
1000
,
0001
0100
0001
0100
0010
0001
1000
0010
,
1000
0100
0010
0100
1000
0010
0100
0010
,
1000
0100
0010
0001
0100
0010
0100
0001
,
2000
0000
3001
0100
0010
0001
0010
0001
,
1000
0100
1000
0100
0010
1000
0001
0010
,
0001
0100
0010
0100
0001
0010
0100
1000
,
0002
2003
3200
0320
,
0031
0000
1100
0000
,
1010
0000
0101
0000
,
1000
0001
0100
0010
0000
1000
0010
0010
,
0200
0000
0301
0010
0000
0100
4000
0000
,
3001
1000
0100
0010
0000
0001
0100
0010
,
1000
0100
0010
0001
0000
0010
0100
1000
,
0001
1000
0100
0010
0000
0001
0010
0010
,
0200
0000
1300
0010
0000
0100
0004
0000
,
1003
0001
0100
0010
0000
1000
0100
0010
,
0001
0100
0010
1000
0000
0010
0100
0001
,
2000
0000
0001
0000
0010
0000
3100
0100
,
0020
0000
0031
1000
0000
0010
0400
0000
,
0302
0000
1000
0000
0010
0000
0103
0010
,
2000
0000
0001
0000
3100
1000
0010
0100
,
0002
0000
1000
0000
0010
0000
0103
0100
,
0020
0000
1030
0001
0000
0010
0400
0000
,
2300
0000
0001
0000
0010
0000
3100
0010
,
0002
0000
1000
0000
0013
0001
0100
0001
,
2002
0000
0000
0000
,
0000
0000
0000
0000
,
0000
0000
0000
0000
,
0000
0000
0000
0000
,
3003
0000
0000
0000
;

//---------------dance-single - TaroNuke----------------
#NOTES:
     dance-single:
     TaroNuke:
     Medium:
     7:
     0.576,0.663,0.081,0.222,0.000:
0000
0000
0000
0000
,
0000
0000
0000
0000
,
0000
0000
0000
0000
,
0000
0000
0000
0000
,
1000
0000
0001
0000
0100
0010
0100
0100
,
0002
0000
1003
0000
0100
0010
0002
0000
,
1003
0000
0001
0000
0010
0100
0010
0000
,
0001
0000
1000
0000
0010
0100
0001
0100
,
0001
0000
0000
0100
0001
0000
0000
0100
,
0001
0010
0100
0010
0000
0001
0000
1000
,
0010
0000
0010
0000
0010
0100
0001
1000
,
0100
0000
0100
0000
0100
0000
0000
1000
,
0100
0000
0000
1000
0100
0000
0000
1000
,
0100
1000
0010
1000
0000
0100
0000
0010
,
0001
0000
0100
0000
0010
0000
1000
0001
,
0100
0001
1000
0100
0000
0000
0000
1000
,
0001
0000
0000
1000
0001
0000
0000
1000
,
0001
0100
0010
0100
0000
0001
0000
1000
,
0100
0000
0100
0000
0100
0010
0001
1000
,
0010
0000
0010
0000
0010
0000
0000
0100
,
0010
0000
0000
0100
0010
0000
0000
0100
,
0010
1000
0001
0010
0000
0100
0000
1000
,
0001
0000
0100
0000
0010
0000
0100
0001
,
1000
0100
0010
0001
0000
0000
0000
0000
,
0100
0000
0000
0001
0000
0000
0000
1000
,
0000
0000
0000
0000
0100
0000
0000
1000
,
0000
0000
0000
0001
0000
0000
1000
0001
,
1000
0001
1000
0001
1000
0000
0001
0000
,
0200
0000
0301
0000
,
0200
0000
1300
0000
,
0001
1000
0001
0010
,
0100
1000
0100
0000
1001
0000
0000
0000
,
1100
0000
0000
0101
0000
0000
1100
0000
,
0000
0101
0000
0000
1001
0000
0000
0110
,
0000
0000
1000
0001
1000
0001
1000
0001
,
0100
0010
0100
0010
1000
0001
1000
0000
,
0001
0100
0001
0000
0100
1000
0100
0000
,
1000
0010
1000
0000
0010
0001
0010
0000
,
0001
0010
0100
0000
1000
0010
0100
0000
,
0001
0010
0100
0000
2000
0000
3002
0000
,
1003
0100
1000
0000
0100
0001
0100
0000
,
0001
0010
0001
0000
0010
1000
0010
0000
,
1000
0100
1000
0100
0010
0001
0010
0001
,
2000
3020
0230
0302
,
1003
0010
1000
0000
0010
0001
0010
0000
,
0001
0100
0001
0000
0100
1000
0100
0000
,
1000
0010
0100
0000
0001
0010
0100
0000
,
1000
0010
0100
0000
0002
0000
2003
0000
,
3001
0010
0001
0000
0010
1000
0010
0000
,
1000
0100
1000
0000
0100
0001
0100
0000
,
0002
0203
0320
2030
,
3100
0010
0100
0010
0001
1000
0001
0000
,
1000
0000
0100
1000
0100
0001
0100
0000
,
0010
0000
0001
0100
1000
0100
0001
0000
,
1000
0000
0010
1000
0010
0001
0010
0000
,
0100
0000
0001
0010
1000
0010
0001
1000
,
0001
0000
0100
0001
0100
1000
0100
0000
,
0010
0000
1000
0100
0001
0100
1000
0000
,
0001
0000
0010
0001
0010
1000
0010
0000
,
0100
0000
1000
0010
0001
0010
1000
0000
,
0001
0000
0100
0000
,
0010
0000
1000
0000
,
1000
0000
0001
0000
0100
0010
0100
0100
,
0002
0000
1003
0000
0100
0010
0002
0000
,
1003
0000
0001
0000
0010
0100
0010
0000
,
0001
0000
1000
0000
0010
0100
0001
0100
,
0001
0000
1000
0000
0100
0010
0100
0100
,
2000
0000
3001
0000
0100
0010
2000
0000
,
3001
0000
1000
0000
0010
0100
0010
0000
,
1000
0000
0001
0000
0010
0100
1000
0100
,
0010
0010
0001
0001
,
0100
0100
0010
0010
,
1000
1000
0100
0100
,
0010
0010
0001
0001
,
1000
1000
0010
0010
,
0100
0100
0001
0001
,
0010
0010
0100
0100
,
1000
1000
0001
0001
,
2002
0000
0000
0000
,
0000
0000
0000
0000
,
0000
0000
0000
0000
,
0000
0000
0000
0000
,
3003
0000
0000
0000
;

//---------------dance-single - TaroNuke----------------
#NOTES:
     dance-single:
     TaroNuke:
     Beginner:
     2:
     0.146,0.237,0.040,0.000,0.000:
0000
0000
0000
0000
,
0000
0000
0000
0000
,
0000
0000
0000
0000
,
0000
0000
0000
0000
,
1000
0000
0000
0000
,
0000
0000
0000
0000
,
0001
0000
0000
0000
,
1000
0000
0000
0000
,
0010
0000
0010
0000
,
0010
0000
0000
0000
,
0100
0000
0100
0000
,
0100
0000
0000
0000
,
0010
0000
0010
0000
,
0010
0000
0000
0000
,
0100
0000
0100
0000
,
0100
0000
0000
0000
,
0001
0000
0001
0000
,
0001
0000
0000
0000
,
1000
0000
1000
0000
,
1000
0000
0000
0000
,
0001
0000
0001
0000
,
0001
0000
0000
0000
,
1000
0000
1000
0000
,
1000
0000
0000
0000
,
0010
0000
0000
0000
,
0000
0000
0010
0000
,
0000
0000
0000
0000
,
0000
0000
0000
0000
,
0001
0000
0000
0000
,
1000
0000
0000
0000
,
0010
0000
0000
0000
,
0100
0000
0000
0000
,
1001
0000
0000
1001
,
0000
0000
1001
0000
,
0000
0000
0000
0000
,
0000
0000
0000
0000
,
1000
0000
1000
0000
,
0100
0000
0100
0000
,
0010
0000
0010
0000
,
0001
0000
0000
0000
,
0001
0000
0001
0000
,
0100
0000
0100
0000
,
0010
0000
0010
0000
,
1000
0000
0000
0000
,
0001
0000
0100
0000
,
0001
0000
0100
0000
,
0010
0000
1000
0000
,
0010
0000
1000
0000
,
0001
0000
0010
0000
,
0001
0000
0010
0000
,
0100
0000
1000
0000
,
0100
0000
1000
0000
,
0001
0000
0001
0000
,
1000
0000
1000
0000
,
0010
0000
0010
0000
,
0100
0000
0100
0000
,
0001
0000
0001
0000
,
1000
0000
1000
0000
,
0100
0000
0100
0000
,
0010
0000
0010
0000
,
0001
0000
0000
0000
,
1000
0000
0000
0000
,
0001
0000
0000
0000
,
0000
0000
0000
0000
,
1000
0000
0000
0000
,
0001
0000
0000
0000
,
1000
0000
0000
0000
,
0000
0000
0000
0000
,
0001
0000
0000
0000
,
1000
0000
0000
0000
,
0010
0000
0000
0000
,
0000
0000
0000
0000
,
0100
0000
0000
0000
,
0010
0000
0000
0000
,
0100
0000
0000
0000
,
0000
0000
0000
0000
,
0010
0000
0000
0000
,
0100
0000
0000
0000
,
1001
0000
0000
0000
;

//---------------dance-single - TaroNuke----------------
#NOTES:
     dance-single:
     TaroNuke:
     Easy:
     4:
     0.313,0.332,0.020,0.061,0.000:
0000
0000
0000
0000
,
0000
0000
0000
0000
,
0000
0000
0000
0000
,
0000
0000
0000
0000
,
1000
0100
0010
0001
,
1000
0010
0100
0001
,
1000
0100
0010
0001
,
1000
0010
0100
0100
,
0001
0000
0001
0000
,
0001
0100
0001
0000
,
1000
0000
1000
0000
,
1000
0000
0001
0100
,
0010
0000
0010
0000
,
0010
0100
0010
0000
,
0100
0000
0100
0000
,
0100
0010
1000
0000
,
0001
0000
0001
0000
,
0001
0010
0001
0000
,
1000
0000
1000
0000
,
1000
0000
0001
0010
,
0100
0000
0100
0000
,
0100
0010
0100
0000
,
0010
0000
0010
0000
,
0010
0100
1000
0000
,
0001
0000
0000
0100
0000
0000
0000
0010
,
0000
0000
1000
0000
0001
0000
0000
0010
,
0000
0000
0000
0100
0000
0000
1000
0000
,
1000
1000
1000
1000
,
0002
0000
0000
0000
,
2003
0000
0000
0000
,
3020
0000
0000
0000
,
0230
0000
0000
0000
,
0301
0000
0000
1000
0000
0000
0001
0000
,
0000
1000
0000
0000
0001
0000
0000
1001
,
0000
0000
0000
0000
,
0000
0000
0000
0000
,
1000
0100
1000
0000
,
0100
0001
0100
0000
,
0001
0010
0001
0000
,
1000
0010
1000
0000
,
0001
0010
0100
1000
,
0010
0100
1000
0000
,
0001
0010
0100
0001
,
0010
0100
1000
0001
,
1000
0010
1000
0000
,
0010
0001
0010
0000
,
0001
0100
0001
0000
,
0100
1000
0100
0000
,
1000
0010
0100
0001
,
0010
0100
0001
0000
,
0100
0010
1000
0001
,
0100
0010
1000
0001
,
1000
0100
1000
0100
,
0001
0100
0001
0100
,
1000
0000
1000
0000
,
0001
0000
0001
0000
,
0001
0100
0001
0100
,
1000
0100
1000
0100
,
0001
0000
0001
0000
,
1000
0000
1000
0000
,
0010
0000
0010
0000
,
0100
0000
0100
0000
,
0001
0010
0100
1000
,
0001
0100
0010
1000
,
0001
0010
0100
1000
,
0001
0100
0010
1000
,
0100
0010
0001
1000
,
0010
0100
0001
1000
,
0100
0010
0001
1000
,
0010
0100
0001
0010
,
0100
0000
0100
0000
,
1000
0000
1000
0000
,
0010
0000
0010
0000
,
0001
0000
0001
0000
,
0100
0000
0100
0000
,
1000
0000
1000
0000
,
0010
0000
0010
0000
,
0001
0000
0001
0000
,
2002
0000
0000
0000
,
0000
0000
0000
0000
,
0000
0000
0000
0000
,
0000
0000
0000
0000
,
3003
0000
0000
0000
;
