#TITLE:That Man;
#SUBTITLE:;
#ARTIST:Caro Emerald;
#TITLETRANSLIT:;
#SUBTITLETRANSLIT:;
#ARTISTTRANSLIT:;
#CREDIT:;
#BANNER:That Man.png;
#BACKGROUND:That Man-bg.png;
#LYRICSPATH:;
#CDTITLE:;
#MUSIC:That Man.mp3;
#OFFSET:-0.040;
#SAMPLESTART:46.390;
#SAMPLELENGTH:13.910;
#SELECTABLE:YES;
#DISPLAYBPM:104.000;
#BPMS:0.000=103.500;
#STOPS:;
#BGCHANGES:0.000=That Man.avi=1.000=1=1=0,
176.000=That Man-bg.png=1.000=1=0=1,
99999=-nosongbg-=1.000=0=0=0 // don't automatically add -songbackground-
;

//---------------dance-single - ----------------
#NOTES:
     dance-single:
     :
     Hard:
     8:
     0.409,0.415,0.099,0.269,0.274: // measure 1
0000
0000
0000
0000
,  // measure 2
0000
0000
0000
0000
,  // measure 3
1000
0100
0010
0100
,  // measure 4
1000
0000
0000
0000
0000
0000
0001
0000
0000
0000
0000
0000
0100
0000
0000
0000
0000
0010
0100
0000
0000
0010
0000
0000
,  // measure 5
1000
0000
0000
0000
0000
0000
0001
0000
0000
0000
0000
0000
0100
0000
0000
0000
0000
0010
0000
0000
0000
0100
0000
0000
,  // measure 6
0010
0000
0000
0000
0000
0000
1000
0000
0000
0000
0000
0000
0001
0000
0000
0000
0000
0010
0001
0000
0000
1000
0000
0000
,  // measure 7
0010
0000
0000
0000
0000
0000
1000
0000
0000
0000
0000
0000
0100
0000
0000
0000
0000
0010
0000
0000
0000
0001
0000
0000
,  // measure 8
1000
0000
0000
0000
0000
0000
0010
0000
0000
0000
0000
0000
0100
0000
0000
0001
0000
1000
0100
0000
0000
0010
0000
0000
,  // measure 9
0012
0000
0103
0000
0001
0100
0010
2000
,  // measure 10
0000
3001
1000
0000
0001
0000
0010
0001
,  // measure 11
0100
0000
0000
0100
0000
0000
0100
0000
0000
0000
0000
0000
0001
0000
0000
0001
0000
0000
0001
0000
0000
1000
0000
0200
,  // measure 12
1000
0000
0001
0000
1300
0001
1000
0001
,  // measure 13
0100
0020
0001
0000
0100
0000
1030
0010
,  // measure 14
1000
0000
0000
0001
0000
0000
0010
0000
0000
0000
0000
0000
0100
0000
0000
0000
0000
0010
0001
0000
0000
1000
0000
0000
,  // measure 15
0001
0000
0000
0001
0000
0000
0100
0000
0000
0100
0000
0000
0010
0000
0000
1000
0000
0000
0001
0000
0000
1000
0000
0001
,  // measure 16
2000
0000
0010
0000
0001
0000
3100
0100
,  // measure 17
1002
0000
0000
1000
0000
0000
0000
0000
0100
0000
0000
0000
1003
0000
0000
0000
0000
0001
0000
0000
1000
0001
0000
0000
,  // measure 18
1000
0000
0000
0100
0000
0000
0010
0000
0000
0001
0000
2000
0000
0000
0000
0000
0000
0000
3000
0000
0000
0001
0000
0000
,  // measure 19
0200
0000
0000
0000
0000
0000
0010
0000
0000
0000
0000
0000
1000
0000
0000
0000
0000
0010
0000
0000
0000
0301
0000
0000
,  // measure 20
2002
3003
0110
1001
,  // measure 21
0001
0000
0000
0100
0000
0000
0001
0000
0000
0010
0000
0000
0100
0000
0010
0000
0000
0010
0000
0000
0000
0001
0000
0000
,  // measure 22
0100
0000
0000
0010
0000
0000
1000
0000
0000
0010
0000
0000
1000
0000
0100
0000
0000
0100
0000
0000
0000
0010
0000
0000
,  // measure 23
0001
0000
0000
1000
0000
0000
0020
0000
0000
0000
0000
0100
0000
0000
0100
0000
0000
0130
0000
0000
0000
0000
0000
0000
,  // measure 24
0010
1000
0100
0010
0001
0000
1001
0000
,  // measure 25
0001
0000
0000
0100
0000
0000
1000
0000
0000
0100
0000
0000
0010
0000
1000
0000
0000
2000
0000
0000
0000
3001
0000
0000
,  // measure 26
0010
0000
0000
0100
0000
0000
0010
0000
0000
0001
0000
0000
1000
0000
0010
0000
0000
0020
0000
0000
0000
0130
0000
0000
,  // measure 27
0010
0000
0000
1000
0000
0000
0001
0000
0000
2000
0000
0001
0000
0000
0001
0000
0000
3001
0000
0000
0000
0000
0000
0100
,  // measure 28
1000
0010
0100
0001
0202
0000
0303
0000
,  // measure 29
0001
0000
0000
0000
0000
0000
1000
0000
0000
0000
0000
0000
0100
0000
0000
0000
0000
0100
0000
0000
0000
0000
0000
1001
,  // measure 30
0000
0000
0000
0001
0000
0000
0100
0000
0000
0001
0000
0000
1000
0000
0000
0000
0000
0100
0000
0000
0000
0010
0000
0000
,  // measure 31
0001
0000
0000
0000
0000
0000
0100
0000
0000
0000
0000
0000
0010
0000
1000
0000
0000
1000
0010
0000
0000
0100
0000
0000
,  // measure 32
0001
0000
0000
1000
0000
0000
0100
0000
0000
1000
0000
0000
0001
0000
0000
1000
0000
0000
0010
0000
0100
0010
0000
0000
,  // measure 33
1000
0000
0000
0100
0000
0000
0001
0000
0000
0100
0000
0000
0010
0000
0001
0000
0000
0010
0001
0000
0000
1000
0000
0010
,  // measure 34
0000
0000
0010
1000
0000
0000
0001
0000
0000
0100
0000
0000
0001
0000
1000
0000
0000
2002
0000
0000
0000
3003
0000
0000
,  // measure 35
0100
0000
0000
0001
0000
0000
0010
0000
0000
0100
0000
0000
0010
0000
0001
0000
0000
0100
0000
0000
0001
1000
0000
0000
,  // measure 36
0010
0000
0000
0010
0000
0000
0010
0000
0100
0000
0000
2002
0000
0000
0000
0000
0000
0000
3003
0000
0000
0000
0000
0000
,  // measure 37
0001
0000
0100
0002
0000
0000
0010
0000
0000
0000
0000
0000
1000
0000
0000
0000
0000
0000
0100
0000
0103
0000
0000
0000
,  // measure 38
1000
0000
0010
2000
0000
0000
0010
0000
0000
0000
0000
0000
0001
0000
0000
0000
0000
0000
0100
0000
3100
0000
0000
0000
,  // measure 39
0001
0000
1000
0002
0000
0000
0100
0000
0000
0000
0000
0000
0010
0000
0000
0000
0000
0000
1000
0000
1003
0000
0000
0000
,  // measure 40
1000
0000
0000
0100
0000
0000
0010
0000
0000
0001
0000
0000
0100
0000
0010
0000
0000
0220
0000
0000
0000
0330
0000
0000
,  // measure 41
0010
0000
1000
0200
0000
0000
0001
0000
0000
0000
0000
0000
0010
0000
0000
0000
0000
0000
1000
0000
1300
0000
0000
0000
,  // measure 42
1000
0000
0001
0200
0000
0000
1000
0000
0000
0000
0000
0000
0010
0000
0000
0000
0000
0000
0001
0000
0301
0000
0000
0000
,  // measure 43
0001
0000
0010
0200
0000
0000
0001
0000
0000
0000
0000
0000
0010
0000
0000
0000
0000
0000
1000
0000
1300
0000
0000
0000
,  // measure 44
0001
0000
0000
0100
0000
0000
0010
0000
0000
1000
0000
0000
0001
0000
1000
0002
0000
2000
0000
0000
0000
0000
0000
0000
,  // measure 45
3003
0000
0000
0000
;

//---------------dance-single - ----------------
#NOTES:
     dance-single:
     :
     Medium:
     5:
     0.299,0.296,0.072,0.171,0.036:
0000
0000
0000
0000
,
0000
0000
0000
0000
,
1000
0001
1000
0001
,
0100
0000
0010
0000
0100
0000
0001
0001
,
0001
0000
1000
0000
0100
0000
0010
0100
,
0010
0000
0001
0000
1000
0001
1000
0001
,
0100
0000
0010
0000
0100
0000
0010
1000
,
0010
0000
1000
0000
0001
0010
0100
1000
,
0002
0000
0010
0000
1000
0000
0103
0001
,
2000
0000
0010
0000
0001
0000
3100
1000
,
0100
0000
0010
0000
0100
0010
0001
0100
,
0020
1000
0200
0330
,
0010
1000
0001
0000
1000
0000
0001
0010
,
0200
0001
0010
1300
,
1000
0100
0010
0000
0010
0001
1000
0001
,
2000
0010
0001
3100
,
0220
0000
0000
0000
,
0000
0000
0330
0000
,
2002
0000
0000
0000
,
3003
0000
1001
0110
,
1000
0000
0000
0001
0000
0000
1000
0000
0000
0000
0000
0000
0001
0000
0000
0000
0000
0100
0000
0000
0000
0010
0000
0000
,
1000
0000
0000
0001
0000
0000
1000
0000
0000
0000
0000
0000
0001
0000
0000
0000
0000
0010
0000
0000
0000
0100
0000
0000
,
0010
0001
0100
0000
0010
1000
0100
0000
,
1000
0001
0010
0100
0020
0000
0031
0000
,
0001
0000
0000
0100
0000
0000
1000
0000
0000
0000
0000
0000
0100
0000
0000
0000
0000
0010
0000
0000
0000
0100
0000
0000
,
0001
0000
0000
0010
0000
0000
1000
0000
0000
0000
0000
0000
0010
0000
0000
0000
0000
0100
0000
0000
0000
0010
0000
0000
,
0001
1000
0010
0000
0100
0010
1000
0000
,
0001
0100
0010
1000
0200
0000
1300
0000
,
0001
0000
0000
0000
0000
0000
1000
0000
0000
0000
0000
0000
0001
0000
0000
0000
0000
0001
0000
0000
0000
0000
0000
0000
,
1000
0000
0000
0000
0000
0000
0100
0000
0000
0000
0000
0000
0010
0000
0000
0000
0000
0010
0000
0000
0000
0000
0000
0000
,
0001
0000
0000
0000
0000
0000
0100
0000
0000
0000
0000
0000
0001
0000
0000
0000
0000
0001
0000
0000
0000
0000
0000
0000
,
1000
0000
0000
0000
0000
0000
0100
0000
0000
0000
0000
0000
1000
0000
0000
0000
0000
1000
0000
0000
0000
0001
0000
0000
,
0100
0010
0100
0000
0001
1000
0001
0000
,
1000
0100
0010
0000
0001
0100
0010
1000
,
0001
0000
1001
0000
1000
0010
0100
0000
,
0001
0010
0100
1000
0100
0000
0011
0000
,
2010
0000
0001
0000
0100
0000
3010
1000
,
0002
0000
0010
0000
1000
0000
0103
0001
,
0020
0000
0001
0000
0100
0000
0031
1000
,
0010
0100
0010
0000
0100
0001
0100
0000
,
1002
0000
0010
0000
0100
0000
1003
0001
,
0200
0000
1000
0000
0010
0000
0301
0100
,
0020
0000
1000
0000
0001
0000
0130
0010
,
1000
0001
1000
0000
0001
0010
0002
0000
,
0003
0000
0000
0000
;

//---------------dance-single - ----------------
#NOTES:
     dance-single:
     :
     Easy:
     3:
     0.217,0.216,0.045,0.251,0.000:
0000
0000
0000
0000
,
0000
0000
0000
0000
,
0001
0001
0001
0000
,
1000
1000
1000
0000
,
0001
1000
0100
0000
,
1000
0001
0100
0000
,
0010
0100
0001
0000
,
0010
0100
0010
0001
,
2000
0000
3001
0100
,
0002
0000
1003
0100
,
1000
0100
0010
0001
,
0200
0000
0310
0100
,
0002
0000
0013
0001
,
2000
0000
3010
1000
,
0001
0100
0010
1000
,
0200
0000
0300
0000
,
2002
0000
0000
0000
,
0000
0000
3003
0000
,
0220
0000
0000
0000
,
0330
0000
1001
1001
,
1001
0001
0100
0100
,
0001
1000
0100
0100
,
1000
0100
0010
0001
,
0100
0010
0200
0300
,
0010
1000
0010
0010
,
0100
0001
1000
1000
,
0001
0010
0001
1000
,
0100
0010
0200
0300
,
0002
0010
2000
3003
,
2000
0010
0002
3003
,
0020
1000
0200
0330
,
0200
0001
0020
0330
,
0010
1000
0100
0100
,
0010
0001
0100
0100
,
0001
1000
0010
0100
,
0001
0010
0200
0300
,
1000
0100
2000
3100
,
1000
0001
0200
0301
,
0010
0100
0020
0031
,
0100
0001
1000
0010
,
0100
0001
2000
3001
,
0001
0010
0200
0310
,
0010
0001
2000
3010
,
1000
0001
0200
0310
;

//---------------dance-single - ----------------
#NOTES:
     dance-single:
     :
     Beginner:
     1:
     0.105,0.138,0.054,0.000,0.000:
0000
0000
0000
0000
,
0000
0000
0000
0000
,
1000
0000
0000
0000
,
0001
0000
0000
0000
,
1000
0000
1000
0000
,
0001
0000
0001
0000
,
0100
0000
0100
0000
,
0010
0000
0010
0000
,
1000
0000
0001
0000
,
1000
0000
0000
0000
,
0001
0000
0010
0000
,
0001
0000
0000
0000
,
1000
0000
0100
0000
,
1000
0000
0000
0000
,
0010
0000
0100
0000
,
0010
0000
0000
0000
,
1001
0000
0000
0000
,
0000
0000
0000
0000
,
0110
0000
0000
0000
,
1001
0000
1001
0000
,
0000
0000
0000
0000
,
0001
0000
0100
0000
,
0001
0000
1000
0000
,
0100
0100
0100
0000
,
1000
0000
0001
0000
,
0010
0000
0001
0000
,
1000
0000
0010
0000
,
0100
0100
0100
0000
,
1001
0000
0000
0000
,
0000
0000
0000
0000
,
0001
0000
0000
0000
,
1000
0000
0000
0000
,
0100
0000
0100
0000
,
0010
0000
0001
0000
,
1000
0000
0001
0000
,
1000
1000
1000
0000
,
1001
0000
0001
0000
,
0100
0000
0010
0010
,
0010
0000
0100
0000
,
0001
0001
0001
0001
,
0001
0000
1000
0000
,
0100
0000
0010
0010
,
0010
0000
0100
0000
,
1000
1000
1000
1000
;
