#TITLE:恋愛レボリューション21;
#SUBTITLE:-秋葉工房Mix-;
#ARTIST:DJ Command feat. うさ&ともみん;
#TITLETRANSLIT:Renai Revolution 21;
#SUBTITLETRANSLIT:-Akiba Koubou Mix-;
#ARTISTTRANSLIT:DJ Command feat. Usa & Tomimin;
#GENRE:;
#CREDIT:;
#BANNER:恋愛レボリューション21-banner.png;
#BACKGROUND:恋愛レボリューション21-bg.png;
#LYRICSPATH:;
#CDTITLE:;
#MUSIC:04 恋愛レボリューション21-秋葉工房mix-.mp3;
#OFFSET:0.000000;
#SAMPLESTART:70.139633;
#SAMPLELENGTH:12.000000;
#SELECTABLE:YES;
#BPMS:0.000000=158.000000
;
#STOPS:
;
#BGCHANGES:;
#KEYSOUNDS:;
#ATTACKS:;

//---------------dance-single - ----------------
#NOTES:
     dance-single:
     :
     Hard:
     8:
     0.600907,0.567484,0.248897,0.331862,0.141041,437.000000,30.000000,40.000000,0.000000,0.000000,0.000000,0.600907,0.567484,0.248897,0.331862,0.141041,437.000000,30.000000,40.000000,0.000000,0.000000,0.000000:
// measure 0
0000
0000
0000
0000
,  // measure 1
0000
0000
0000
0000
,  // measure 2
0000
0000
0000
0000
,  // measure 3
0000
0000
0000
0000
,  // measure 4
0000
0000
0000
0000
,  // measure 5
0000
2001
0100
3020
,  // measure 6
0001
0000
1030
0000
1001
0000
1000
0100
,  // measure 7
0001
0010
2000
0000
0100
0000
3001
0100
,  // measure 8
0020
0000
0001
0000
1030
0100
0010
0000
,  // measure 9
0110
1002
0100
0023
,  // measure 10
1000
0000
0031
0000
1001
0000
0001
0100
,  // measure 11
1000
0010
0002
0000
0100
0000
1003
0100
,  // measure 12
0001
0000
0100
0000
1000
0000
0000
1000
0000
0000
0001
0000
0100
0000
0000
0100
,  // measure 13
0000
0001
2000
0000
0000
0000
0000
0001
,  // measure 14
3001
0000
1000
0001
0100
0001
0100
0000
,  // measure 15
0101
0000
0001
0100
0010
0010
1000
0000
,  // measure 16
1001
0000
1000
0100
0001
0100
1000
0010
,  // measure 17
0001
0010
1000
0100
0010
0002
0000
1000
,  // measure 18
1003
0000
0001
1000
0100
1000
0100
0000
,  // measure 19
1100
0000
1000
0100
0010
0010
0001
0000
,  // measure 20
1001
0000
0001
0100
1000
0100
0001
0010
,  // measure 21
1000
0010
0001
0100
0010
2000
0000
0001
,  // measure 22
3001
0000
1000
0100
0010
0100
1000
0010
,  // measure 23
0001
0000
1000
0100
0001
0010
0100
0010
,  // measure 24
0001
0100
0010
0000
0100
0010
1000
0000
,  // measure 25
1001
0000
1000
0100
1000
0100
0010
0100
,  // measure 26
0010
0000
0001
0100
0010
0100
0001
0010
,  // measure 27
1000
0000
0001
0100
1000
0010
0100
0010
,  // measure 28
1000
0100
0010
0000
0100
0010
0001
0000
,  // measure 29
1001
0000
0001
0100
0001
0100
0010
0100
,  // measure 30
0010
0000
0000
0000
1000
0000
0100
0000
0001
0000
0100
0000
1000
0000
0000
1000
,  // measure 31
0001
0100
0010
0000
0101
0000
0010
0000
,  // measure 32
1100
0000
0000
0000
1000
0000
0100
0000
0001
0000
0100
0000
0010
0000
0000
0010
,  // measure 33
0001
0100
0020
0000
0001
0000
1030
0000
,  // measure 34
1001
0000
0000
0000
0001
0000
0100
0000
1000
0000
0100
0000
0001
0000
0000
0001
,  // measure 35
1000
0100
0010
0000
1100
0000
0010
0000
,  // measure 36
0101
0000
0000
0000
0001
0000
0100
0000
1000
0000
0100
0000
0010
0000
0000
0010
,  // measure 37
1000
0100
0020
0000
1000
0000
0031
0000
,  // measure 38
1001
0000
1000
1000
1000
0000
0001
0100
,  // measure 39
0001
0000
1000
0100
0001
0200
0000
1000
,  // measure 40
1300
0000
0001
0001
0001
0000
1000
0100
,  // measure 41
1000
0000
0001
0100
1000
0200
0000
0001
,  // measure 42
0301
0000
1001
1000
1001
0000
1000
0100
,  // measure 43
0110
0000
0001
0100
0010
0010
0001
0100
,  // measure 44
0010
0000
1001
0001
1001
0000
0001
0100
,  // measure 45
0110
0000
1000
0100
0010
0010
1000
0100
,  // measure 46
0010
1002
0100
0023
,  // measure 47
1000
0000
0031
0000
1001
0000
0001
0100
,  // measure 48
1000
0010
0002
0000
0100
0000
1003
0100
,  // measure 49
0001
0000
0100
0000
1000
0000
0000
1000
0000
0000
0001
0000
0100
0000
0000
0100
,  // measure 50
0000
0001
2000
0000
0000
0000
0000
0001
,  // measure 51
3001
0000
0000
0000
1000
0000
0100
0000
0001
0100
0000
0200
0000
0000
1000
0000
,  // measure 52
1300
0000
0000
0000
0001
0000
0100
0000
1000
0100
0000
0200
0000
0000
0001
0000
,  // measure 53
0301
0000
1000
0100
0001
0100
2000
0000
,  // measure 54
3020
0000
0032
0000
0203
0000
1300
0001
,  // measure 55
1000
0000
0000
0000
0001
0000
1000
0000
0010
0100
0000
0200
0000
0000
0010
0000
,  // measure 56
0310
0000
0000
0000
1000
0000
0001
0000
0010
0100
0000
0200
0000
0000
0010
0000
,  // measure 57
0310
0000
0001
0100
1000
0100
0002
0000
,  // measure 58
0023
0000
2030
0000
3200
0000
0301
1000
,  // measure 59
0001
1002
0100
0023
,  // measure 60
1000
0000
0031
0000
1001
0000
0001
0100
,  // measure 61
1000
0010
0002
0000
0100
0000
1003
0100
,  // measure 62
0020
0000
1000
0000
0031
0100
0010
0000
,  // measure 63
0110
2001
0100
3020
,  // measure 64
0001
0000
1030
0000
1001
0000
1000
0100
,  // measure 65
0001
0010
2000
0000
0100
0000
3001
0100
,  // measure 66
1000
0000
0100
0000
0001
0000
0000
0001
0000
0000
1000
0000
0100
0000
0000
0100
,  // measure 67
0000
1000
0002
0000
0000
0000
0000
1000
,  // measure 68
1003
0000
0000
0000
0001
0000
0100
0000
1000
0000
0100
0010
0000
0100
0010
0000
,  // measure 69
0000
0000
1000
0100
0010
0000
0100
0010
0001
0000
1000
0001
0000
1000
0001
0000
,  // measure 70
1000
0000
1000
0000
0001
0000
0100
0000
1000
0000
0100
0000
0001
0000
0010
0100
,  // measure 71
0000
0100
0010
0000
0001
0000
0100
0000
0010
0000
2000
0000
0000
0000
0001
0000
,  // measure 72
3001
0000
0000
0000
1000
0000
0100
0000
0001
0000
0100
0010
0000
0100
0010
0000
,  // measure 73
0000
0000
0001
0100
0010
0000
0100
0010
1000
0000
0001
1000
0000
0001
1000
0000
,  // measure 74
0001
0000
0001
0000
1000
0000
0100
0000
0001
0000
0100
0000
1000
0000
0010
0100
,  // measure 75
0000
0100
0010
0000
1000
0000
0100
0000
0010
0000
0002
0000
0000
0000
1000
0000
,  // measure 76
1003
0000
0000
0000
;

//---------------dance-single - ----------------
#NOTES:
     dance-single:
     :
     Medium:
     6:
     0.568906,0.472903,0.564166,0.464607,0.000000,356.000000,68.000000,56.000000,0.000000,0.000000,0.000000,0.568906,0.472903,0.564166,0.464607,0.000000,356.000000,68.000000,56.000000,0.000000,0.000000,0.000000:
0000
0000
0000
0000
,
0000
0000
0000
0000
,
0000
0000
0000
0000
,
0000
0000
0000
0000
,
0000
0000
0000
0000
,
0000
1002
0100
0023
,
1000
0000
0031
0000
1001
0000
1000
0100
,
0001
0100
2000
0000
0100
0000
3001
0100
,
0020
0001
2030
3100
,
0110
2001
0100
3020
,
0001
0000
1030
0000
1001
0000
0001
0100
,
1000
0100
0002
0000
0100
0000
1003
0100
,
0020
1000
0032
0103
,
0110
0000
2001
0000
0000
0000
0000
0001
,
3001
0000
1002
0000
0100
0000
1003
0100
,
0001
0000
0001
0100
1000
0010
0100
0000
,
0110
0000
0010
0100
0010
0000
0100
0010
,
0100
0120
2030
0100
,
3001
0000
2001
0000
0100
0000
3001
0100
,
1000
0000
1000
0100
0001
0010
0100
0000
,
0110
0000
0010
0100
0010
0000
0100
0010
,
0100
0120
0032
0100
,
1003
0000
0101
0000
0101
0000
0001
1000
,
0100
0000
1100
0000
1100
0000
1000
0001
,
0100
0000
0110
0000
1001
0000
0001
0100
,
0010
0000
1000
0100
0010
0000
0100
0010
,
0001
0000
1100
0000
1100
0000
1000
0001
,
0100
0000
0101
0000
0101
0000
0001
1000
,
0100
0000
0110
0000
1001
0000
1000
0100
,
0010
0000
0001
0100
0010
0000
0100
0010
,
1000
0000
0001
0100
1000
0000
1000
0100
,
0001
0012
0103
2010
,
3100
0000
1000
0100
0001
0000
0001
0100
,
1000
2010
3100
0012
,
0103
0000
1000
0010
0100
0000
0010
0100
,
0001
0012
1003
2010
,
3001
0000
0001
0010
0100
0000
0010
0100
,
1000
2010
3001
0012
,
1003
0000
1001
0000
1001
0000
1000
0100
,
0001
0000
0011
0000
1010
0000
1000
0001
,
1000
0000
1001
0000
1001
0000
0001
0100
,
1000
0000
1010
0000
0011
0000
0001
1000
,
0001
0000
1001
0000
1001
0000
1000
0100
,
0001
0000
0110
0000
1000
0000
0001
1000
,
0001
0000
1001
0000
1001
0000
0001
0100
,
1000
0000
0110
0000
0001
0000
1000
0001
,
1000
2001
0100
3020
,
0001
0000
1030
0000
1001
0000
0001
0100
,
1000
0100
0002
0000
0100
0000
1003
0100
,
0020
1000
0032
0103
,
0110
0000
2001
0000
0000
0000
0000
0001
,
3001
0000
1000
0100
0001
0100
1000
0000
,
1001
0000
0001
0100
1000
0100
0001
0000
,
1001
0000
1000
0100
0001
0100
2000
0000
,
3020
0000
0032
0000
0203
0000
1300
0001
,
1000
0000
0001
0100
1000
0100
0001
0000
,
1001
0000
1000
0100
0001
0100
1000
0000
,
1001
0000
0001
0100
1000
0100
0002
0000
,
0023
0000
2030
0000
3200
0000
0301
1000
,
0001
2001
0100
3020
,
0001
0000
1030
0000
1001
0000
0001
0100
,
1000
0100
0002
0000
0100
0000
1003
0100
,
0020
1000
0032
0103
,
0110
1002
0100
0023
,
1000
0000
0031
0000
1001
0000
1000
0100
,
0001
0100
2000
0000
0100
0000
3001
0100
,
0020
0001
2030
3100
,
0110
0000
1002
0000
0000
0000
0000
1000
,
1003
0000
2001
0000
0100
0000
3001
0100
,
1000
0000
1000
0100
0001
0010
0100
0000
,
0110
0000
0010
0100
0010
0000
0100
0010
,
0100
0120
0032
0100
,
1003
0000
1002
0000
0100
0000
1003
0100
,
0001
0000
0001
0100
1000
0010
0100
0000
,
0110
0000
0010
0100
0010
0000
0100
0010
,
0100
0120
2030
0100
,
3001
0000
0000
0000
;

//---------------dance-single - ----------------
#NOTES:
     dance-single:
     :
     Easy:
     4:
     0.362678,0.409850,0.232303,0.232303,0.008297,250.000000,28.000000,28.000000,0.000000,0.000000,0.000000,0.362678,0.409850,0.232303,0.232303,0.008297,250.000000,28.000000,28.000000,0.000000,0.000000,0.000000:
0000
0000
0000
0000
,
0000
0000
0000
0000
,
0000
0000
0000
0000
,
0000
0000
0000
0000
,
0000
0000
0000
0000
,
0000
2001
0000
0000
,
0000
0000
0000
3001
,
0100
1000
0010
0001
,
0100
0000
0010
0000
1000
0100
0010
0000
,
0110
1002
0000
0000
,
0000
0000
0000
1003
,
0100
0010
0100
0010
,
0001
2001
0100
3002
,
0100
0000
2003
0000
0000
0000
0000
0001
,
3001
1000
0100
0001
,
0000
0001
0100
1000
,
0000
0001
0100
0010
,
0100
0010
1000
1001
,
0000
0001
0100
1000
,
0000
1000
0100
0001
,
0000
1000
0100
0010
,
0010
0000
0000
0000
0001
0000
0000
0001
0000
0000
0002
0000
0000
0000
1000
0000
,
1003
0001
0100
1000
,
0000
1000
0100
0001
,
1000
0001
2000
0000
0001
0000
3001
0000
,
0000
1000
0001
1000
,
0001
1000
0100
0001
,
0000
0001
0100
1000
,
0001
1000
0002
0000
1000
0000
1003
0000
,
0000
0001
1000
0001
,
1000
0001
0100
0001
,
0100
0001
0101
1000
,
1100
1000
0001
0001
,
0100
0210
1000
0301
,
1001
1000
0100
1000
,
0100
1000
1100
0001
,
0101
0001
1000
1000
,
0100
0210
0001
1300
,
1001
0000
1000
1000
1000
0000
0001
0100
,
1000
0100
0001
1002
,
0103
0000
0001
0001
0001
0000
1000
0100
,
0001
0100
1000
2001
,
3100
0000
1001
0000
1001
0000
0001
0100
,
1000
0100
0001
2010
,
3001
0000
1001
0000
1001
0000
1000
0100
,
0001
0100
1000
0012
,
1003
2001
0000
0000
,
0000
0000
0000
3001
,
0100
0010
0100
0010
,
1000
1002
0100
2003
,
0100
0000
3002
0000
0000
0000
0000
1000
,
1003
0001
0100
1000
,
0000
1000
0100
0001
,
0000
1000
0100
0001
,
0010
2000
0100
3002
,
0103
1000
0100
0001
,
0000
0001
0100
1000
,
0000
0001
0100
1000
,
0010
0002
0100
2003
,
3100
1002
0000
0000
,
0000
0000
0000
1003
,
0100
0001
0010
1000
,
0100
0000
0010
0000
0001
0100
0010
0000
,
0110
2001
0000
0000
,
0000
0000
0000
3001
,
0100
0010
0100
0010
,
1000
1002
0100
2003
,
0100
0000
3002
0000
0000
0000
0000
1000
,
1003
0001
0100
1000
,
0000
1000
0100
0001
,
0000
1000
0100
0010
,
0100
0010
0001
1001
,
0000
1000
0100
0001
,
0000
0001
0100
1000
,
0000
0001
0100
0010
,
0010
0000
0000
0000
1000
0000
0000
1000
0000
0000
2000
0000
0000
0000
0001
0000
,
3001
0000
0000
0000
;
