#TITLE:Red Balloon;
#SUBTITLE:;
#ARTIST:Charli XCX;
#TITLETRANSLIT:;
#SUBTITLETRANSLIT:;
#ARTISTTRANSLIT:;
#GENRE:;
#CREDIT:;
#BANNER:;
#BACKGROUND:;
#LYRICSPATH:;
#CDTITLE:;
#MUSIC:Red Balloon.ogg;
#OFFSET:-0.947863;
#SAMPLESTART:87.233986;
#SAMPLELENGTH:12.000000;
#LASTBEATHINT:251.000000;
#SELECTABLE:YES;
#BPMS:0.000000=178.000000
;
#STOPS:251.000000=1.348000
;
#BGCHANGES:;
#KEYSOUNDS:;
#ATTACKS:;

//---------------dance-single - ----------------
#NOTES:
     dance-single:
     :
     Beginner:
     2:
     0.117158,0.142760,0.000000,0.000000,0.000000,108.000000,0.000000,0.000000,0.000000,0.000000,0.000000,0.117158,0.142760,0.000000,0.000000,0.000000,108.000000,0.000000,0.000000,0.000000,0.000000,0.000000:
0000
0000
0000
0000
,
0000
0000
0000
0000
,
0000
0000
0000
0000
,
0000
0000
0000
0000
,
0000
0000
0000
0000
,
0000
0000
0000
0000
,
0000
0000
0000
0000
,
0000
0000
0000
0000
,
1000
0000
0000
0000
,
0100
0000
0000
0000
,
0010
0000
0000
0000
,
0001
0000
0000
0000
,
0100
0000
0000
0000
,
0010
0000
0000
0000
,
1000
0000
0000
0000
,
0001
0000
0000
0000
,
1000
0000
1000
0000
,
0001
0000
0001
0000
,
0100
0000
0100
0000
,
0010
0000
0010
0000
,
1000
0000
1000
0000
,
0100
0000
0100
0000
,
0010
0000
0010
0000
,
0001
0000
0000
0000
,
1000
0000
1000
0000
,
0010
0000
0010
0000
,
0100
0000
0100
0000
,
0001
0000
0001
0000
,
0010
0000
0010
0000
,
0100
0000
0100
0000
,
1000
0000
1000
0000
,
0001
0000
0000
0000
,
1000
0000
0000
0000
,
0100
0000
0000
0000
,
0010
0000
0000
0000
,
0001
0000
0000
0000
,
0100
0000
0000
0000
,
0010
0000
0000
0000
,
1000
0000
0000
0000
,
0001
0000
0000
0000
,
1000
0000
0000
0000
,
0010
0000
0000
0000
,
0100
0000
0000
0000
,
0001
0000
0000
0000
,
0010
0000
0000
0000
,
0100
0000
0000
0000
,
1000
0000
0000
0000
,
0001
0000
0000
0000
,
1000
0000
0000
0000
,
0000
0000
0000
0000
,
0001
0000
0000
0000
,
0000
0000
0000
0000
,
0100
0000
0000
0000
,
0000
0000
0000
0000
,
0010
0000
0000
0000
,
0000
0000
0000
0000
,
1000
0000
0000
0000
,
0000
0000
0000
0000
,
0100
0000
0000
0000
,
0000
0000
0000
0000
,
0010
0000
0000
0000
,
0000
0000
0000
0000
,
0001
0000
0000
0000
,
1000
0000
1000
0000
,
1000
0000
1000
0000
,
0001
0000
0001
0000
,
0001
0000
0001
0000
,
0100
0000
0100
0000
,
0100
0000
0100
0000
,
0010
0000
0010
0000
,
0010
0000
0000
0000
,
1000
0000
1000
0000
,
1000
0000
1000
0000
,
0100
0000
0100
0000
,
0100
0000
0100
0000
,
0010
0000
0010
0000
,
0010
0000
0010
0000
,
0001
0000
0001
0000
,
0001
0000
0000
0000
,
1000
0000
0000
0000
,
0001
0000
0000
0000
,
0100
0000
0000
0000
,
0010
0000
0000
0000
,
1000
0000
0000
0000
,
0100
0000
0000
0000
,
0010
0000
0000
0000
,
0001
0000
0000
0000
,
0100
0000
0000
0000
,
0010
0000
0000
0000
,
1000
0000
0000
0000
,
0001
0000
0000
0000
,
1000
0000
0000
0000
,
0100
0000
0000
0000
,
0010
0000
0000
0000
,
0001
0000
0000
0000
;

//---------------dance-single - ----------------
#NOTES:
     dance-single:
     :
     Easy:
     4:
     0.285302,0.287797,0.060749,0.000000,0.000000,255.000000,8.000000,0.000000,0.000000,0.000000,0.000000,0.285302,0.287797,0.060749,0.000000,0.000000,255.000000,8.000000,0.000000,0.000000,0.000000,0.000000:
0000
0000
0000
0000
,
0000
0000
0000
0000
,
0000
0000
0000
0000
,
0000
0000
0000
0000
,
0000
0000
0000
0000
,
0000
0000
0000
0000
,
0000
0000
0000
0000
,
0000
0000
0000
0000
,
1000
0000
1000
0000
,
0001
0000
0001
0000
,
0100
0000
0100
0000
,
0010
0000
0010
0000
,
1000
0000
0100
0000
,
0010
0000
0001
0000
,
0100
0000
0010
0000
,
1000
0000
0001
0000
,
1000
1000
1000
0000
,
0001
0001
0001
0000
,
0100
0100
0100
0000
,
0010
0010
0010
0000
,
1000
1000
1000
0000
,
0100
0100
0100
0000
,
0010
0010
0010
0000
,
0001
0001
0001
0000
,
1000
0010
1000
0000
,
0001
0100
0001
0000
,
1000
0100
1000
0000
,
0001
0010
0001
0000
,
1000
0001
1000
0000
,
0001
1000
0001
0000
,
0100
0010
0100
0000
,
0010
0100
0010
0000
,
1000
0000
1000
0000
,
0100
0100
0100
0000
,
0010
0000
0010
0000
,
0001
0001
0001
0000
,
0100
0000
0100
0000
,
0010
0010
0010
0000
,
1000
0001
1000
0000
,
0001
1000
0001
0000
,
1000
0000
1000
0000
,
0010
0010
0010
0000
,
0100
0000
0100
0000
,
0001
0001
0001
0000
,
0010
0000
0010
0000
,
0100
0100
0100
0000
,
1000
0100
1000
0000
,
0001
0010
0001
0000
,
1100
0000
1000
0000
,
1100
0000
0100
0000
,
0011
0000
0010
0000
,
0011
0000
0001
0000
,
0101
0000
0100
0000
,
0101
0000
0001
0000
,
1010
0000
1000
0000
,
1010
0000
0010
0000
,
0100
0100
0100
0100
,
0001
0001
0001
0001
,
1000
1000
1000
1000
,
0010
0010
0010
0010
,
1000
0100
1000
0100
,
0010
0001
0010
0001
,
0100
0010
0100
0010
,
1000
0100
1000
1000
,
0001
0100
0001
0001
,
1000
0010
1000
1000
,
0001
0010
0001
0001
,
0100
0010
0100
0010
,
1000
0001
1000
0001
,
1000
0100
0010
0001
,
0000
0100
0100
0100
,
0001
0010
0001
0001
,
1000
0010
1000
1000
,
0001
0100
0001
0001
,
1000
0100
1000
1000
,
0001
0010
0100
0100
,
1000
0010
0100
0100
,
0001
1000
0100
1000
,
0001
0100
0010
0010
,
1000
0000
1000
0000
,
0001
0000
0001
0000
,
0100
0000
0100
0000
,
0010
0000
0010
0000
,
1000
0000
1000
0000
,
0100
0000
0100
0000
,
0010
0000
0010
0000
,
0001
0000
0001
0000
,
1000
1000
1000
0000
,
0001
0001
0001
0000
,
0100
0100
0100
0000
,
0010
0010
0010
0000
,
1000
0100
1000
0000
,
0001
0100
0001
0000
,
1000
0001
0100
0010
,
1000
1000
0001
0001
;

//---------------dance-single - ----------------
#NOTES:
     dance-single:
     :
     Medium:
     6:
     0.425241,0.575594,0.129091,0.250589,0.000000,342.000000,17.000000,33.000000,0.000000,0.000000,0.000000,0.425241,0.575594,0.129091,0.250589,0.000000,342.000000,17.000000,33.000000,0.000000,0.000000,0.000000:
0000
0000
0000
0000
,
0000
0000
0000
0000
,
0000
0000
0000
0000
,
0000
0000
0000
0000
,
0000
0000
0000
0000
,
0000
0000
0000
0000
,
0000
0000
0000
0000
,
0000
0000
0000
0000
,
1000
0000
0000
0100
0000
0000
0010
0000
,
0000
0001
0000
0000
0100
0000
0010
0000
,
1000
0000
0000
0001
0000
0000
0010
0000
,
0000
0100
0000
0000
1000
0000
0001
0000
,
1000
0000
0000
0100
0000
0000
0010
0000
,
0000
0100
0000
0000
1000
0000
0001
0000
,
0100
0000
0000
0010
0000
0000
0100
0000
,
0000
0001
0000
0000
0010
0000
0100
0000
,
1000
0000
1000
0000
0000
0001
0100
0000
,
0001
0000
0001
0000
0000
1000
0100
0000
,
1000
0000
1000
0000
0000
0001
0010
0000
,
0001
0000
0001
0000
0000
1000
0010
0000
,
1000
0000
0100
0000
0000
0010
0100
0000
,
1000
0000
0010
0000
0000
0100
0001
0000
,
0010
0000
0100
0000
0000
0010
0001
0000
,
0100
0000
0010
0000
0000
0100
0001
0000
,
0010
0000
0010
0000
0000
0100
1000
0000
,
0010
0000
0010
0000
0000
0100
0001
0000
,
1000
0000
1000
0000
0000
0001
0100
0000
,
0001
0000
0001
0000
0000
1000
0100
0000
,
1000
0000
0010
0000
0000
0100
0001
0000
,
1000
0000
0100
0000
0000
0010
0001
0000
,
0100
0000
0010
0000
0000
0100
0001
0000
,
0010
0000
0100
0000
0000
1000
0001
0000
,
1000
0000
1000
0001
0000
0001
1000
0000
,
1000
0001
0000
0001
1000
0000
0001
0000
,
0100
0000
0100
0010
0000
0010
0100
0000
,
0100
0010
0000
0010
0100
0000
0001
0000
,
0010
0000
0010
0100
0000
0100
0010
0000
,
0010
0100
0000
0100
0010
0000
0001
0000
,
1000
0001
0100
0010
,
1000
0100
0010
0001
,
1000
0000
1000
0100
0000
0100
1000
0000
,
1000
0010
0000
0010
0100
0000
0001
0000
,
0010
0000
0010
0100
0000
0100
0010
0000
,
0010
0001
0000
0001
0100
0000
0001
0000
,
0010
0000
0010
0100
0000
0100
1000
0000
,
1000
0010
0000
0010
0100
0000
0001
0000
,
1000
0100
1000
0001
,
0010
0001
0100
0010
,
2200
3300
2200
3300
,
0022
0033
0022
0033
,
0202
0303
0202
0303
,
2020
3030
2020
3030
,
2002
3003
2002
3003
,
0220
0330
0220
0330
,
2002
3003
0220
0330
,
2002
3003
0220
0330
,
1000
0001
1000
0001
,
1000
0100
1000
0100
,
0010
0001
0010
0001
,
0100
0010
0100
0010
,
1000
0001
0010
0100
,
1000
0100
0010
0001
,
0100
0100
0100
0200
,
0310
0000
1000
0010
0000
1000
0010
0000
,
0100
0001
0000
0100
0001
0000
0001
0000
,
1000
0000
0100
1000
0000
0100
1000
0000
,
0001
0010
0000
0001
0010
0000
0010
0000
,
0100
0000
1000
0010
0000
0100
0001
0000
,
0010
0100
0000
1000
0001
0000
0100
0000
,
0001
0000
1000
0010
0000
0100
0001
0000
,
0000
0010
0100
0000
1000
0000
1000
0000
,
0001
0000
1000
0010
0000
0010
0100
0000
,
0100
0001
0000
0001
0010
0000
0100
0000
,
1000
0000
1000
0001
0000
0001
1000
0000
,
1000
0010
0000
0010
0100
0000
0001
0000
,
0010
0000
0010
0100
0000
0100
1000
0000
,
1000
0001
0000
0001
0100
0000
0010
0000
,
0100
0000
0100
0001
0000
0001
0010
0000
,
0010
0100
0000
0100
1000
0000
0001
0000
,
1000
0000
0000
0000
0001
0000
0000
0100
,
0000
0100
0010
0000
0100
0000
0001
0000
,
0010
0000
0000
0000
0100
0000
0000
0010
,
0000
0001
0100
0000
0010
0000
0100
0000
,
0001
0000
0000
0000
1000
0000
0000
0100
,
0000
1000
0010
0000
0100
0000
0001
0000
,
0010
0000
0000
0000
0100
0000
0000
0010
,
0000
0100
1000
0000
0001
0000
0000
0000
,
1000
0000
0000
0000
0010
0000
0000
0100
,
0000
0001
0010
0000
0100
0000
0010
0000
,
0001
0000
0000
0000
1000
0000
0000
0010
,
0000
0100
0001
0000
0100
0000
0010
0000
,
1000
0000
0000
0000
0001
0000
0000
0010
,
0000
0100
1000
0000
0001
0000
0100
0000
,
0010
0000
0000
0000
0100
0000
0000
0001
,
0000
0010
0100
0000
0010
0000
1001
0000
;

//---------------dance-single - ----------------
#NOTES:
     dance-single:
     :
     Hard:
     8:
     0.606402,0.611569,0.493583,0.311337,0.000000,453.000000,65.000000,41.000000,0.000000,0.000000,0.000000,0.606402,0.611569,0.493583,0.311337,0.000000,453.000000,65.000000,41.000000,0.000000,0.000000,0.000000:
// measure 0
0000
0000
0000
0000
,  // measure 1
0000
0000
0000
0000
,  // measure 2
0000
0000
0000
0000
,  // measure 3
0000
0000
0000
0000
,  // measure 4
0000
0000
0000
0000
,  // measure 5
0000
0000
0000
0000
,  // measure 6
0000
0000
0000
0000
,  // measure 7
0000
0000
0000
0000
,  // measure 8
1000
0000
0000
0001
0000
0000
1000
0000
,  // measure 9
0000
0001
0000
0000
1000
0000
0001
0000
,  // measure 10
0100
0000
0000
0010
0000
0000
0100
0000
,  // measure 11
0000
0010
0000
0000
0100
0000
0010
0000
,  // measure 12
1000
0000
0000
0100
0000
0000
1000
0000
,  // measure 13
0000
0100
0000
0000
1000
0000
0100
0000
,  // measure 14
0010
0000
0000
0001
0000
0000
0010
0000
,  // measure 15
0000
0001
0000
0000
0010
0000
0001
0000
,  // measure 16
1000
0000
0010
0000
0100
0001
0000
0020
,  // measure 17
0000
0130
1000
0100
0001
0100
1000
0001
,  // measure 18
0100
0000
0010
0000
0001
0010
0000
2000
,  // measure 19
0000
3001
0010
0100
1000
0100
0010
0001
,  // measure 20
0100
0000
0010
0000
0001
0010
0000
0200
,  // measure 21
0000
0301
0010
0100
1000
0100
0001
0100
,  // measure 22
1000
1100
0001
0101
,  // measure 23
1000
1010
0001
0011
,  // measure 24
0001
0000
0100
0000
0010
0100
0000
0002
,  // measure 25
0000
0013
0100
1000
0010
0100
0010
1000
,  // measure 26
0001
0000
0010
0000
0100
0001
0000
0200
,  // measure 27
0000
1300
0001
0100
1000
0100
0001
1000
,  // measure 28
0010
0000
0100
0000
0001
0010
0000
0200
,  // measure 29
0000
1300
0010
0100
1000
0100
0001
0010
,  // measure 30
0100
0110
0010
0011
,  // measure 31
0001
0000
1001
0000
1000
0000
1000
0010
,  // measure 32
0100
0000
0100
0001
0000
0001
0010
0000
,  // measure 33
0010
0100
0000
0100
1000
0100
0001
0100
,  // measure 34
1000
0000
1000
0001
0000
0001
0100
0000
,  // measure 35
0100
0010
0000
0010
0001
0010
1000
0001
,  // measure 36
0010
0000
0010
0100
0000
0100
1000
0000
,  // measure 37
1000
0001
0000
0001
0100
0010
0100
0001
,  // measure 38
1000
0000
0100
0000
0000
0010
0100
0000
,  // measure 39
0001
0000
0100
0000
0000
0010
0100
0000
,  // measure 40
1000
0000
0001
0100
0000
0100
0010
0000
,  // measure 41
0010
0100
0000
0100
0001
0010
0100
1000
,  // measure 42
0001
0000
0001
1000
0000
1000
0010
0000
,  // measure 43
0010
0100
0000
0100
0001
0010
0100
1000
,  // measure 44
0100
0000
0100
1000
0000
1000
0010
0000
,  // measure 45
0010
0100
0000
0100
0001
0010
0100
0010
,  // measure 46
0001
0000
1000
0000
0000
0010
0100
0000
,  // measure 47
0001
0000
1000
0000
0000
0100
0010
0000
,  // measure 48
0022
0033
0202
0303
,  // measure 49
2020
3030
2200
3300
,  // measure 50
2002
3003
0022
0033
,  // measure 51
0202
0303
2002
3003
,  // measure 52
2200
3300
0022
0033
,  // measure 53
0202
0303
2020
3030
,  // measure 54
2002
3003
2020
3030
,  // measure 55
0202
0000
0303
0000
1000
0001
1000
0001
,  // measure 56
1010
0100
0011
0100
,  // measure 57
1001
0010
1001
0100
,  // measure 58
0011
0100
1010
0100
,  // measure 59
1001
0010
1001
0100
,  // measure 60
0101
1100
0101
1100
,  // measure 61
0011
1010
0011
1010
,  // measure 62
1001
1100
0011
1002
,  // measure 63
1003
0010
0100
0001
0010
0100
1000
0010
,  // measure 64
0100
0001
0010
0100
1000
0001
1000
0001
,  // measure 65
1000
0100
0010
0001
0100
0010
1000
0100
,  // measure 66
0010
0001
0100
0010
1000
0001
1000
0001
,  // measure 67
1000
0100
0001
1000
0010
0001
1000
0100
,  // measure 68
0001
1000
0010
0001
1000
0001
1000
0001
,  // measure 69
1000
0010
0100
0001
0010
0100
1000
0010
,  // measure 70
0100
0001
0010
0100
1001
0000
1001
0000
,  // measure 71
1000
0010
0001
1000
0100
0001
1000
0010
,  // measure 72
0001
1000
0100
0001
0010
0100
0010
0100
,  // measure 73
1000
0100
0010
0001
0100
0010
1000
0100
,  // measure 74
0010
0001
0100
0010
1000
0001
1000
0001
,  // measure 75
1000
0100
0001
1000
0010
0001
1000
0100
,  // measure 76
0001
1000
0010
0001
1000
0001
1000
0001
,  // measure 77
1000
0010
0100
0001
0010
0100
1000
0100
,  // measure 78
0010
0001
0100
0010
1000
0100
1001
0000
,  // measure 79
2100
0000
3001
0001
1000
0000
0001
1000
,  // measure 80
0000
1000
0010
0000
0101
0000
0011
0000
,  // measure 81
0102
0000
1003
1000
0010
0000
0100
0001
,  // measure 82
0000
0001
0010
0000
0110
0000
1100
0000
,  // measure 83
2010
0000
3100
0100
0010
0000
0100
1000
,  // measure 84
0000
1000
0001
0000
0101
0000
1001
0000
,  // measure 85
1020
0000
0130
0100
0001
0000
0010
0100
,  // measure 86
0000
0100
1000
0000
1001
0000
0101
0000
,  // measure 87
1001
0000
0001
0100
0000
0100
0010
0000
,  // measure 88
1001
0000
1000
0100
0000
0100
0010
0000
,  // measure 89
1100
0000
0010
0001
0000
0001
0100
0000
,  // measure 90
0101
0000
0010
1000
0000
1000
0100
0000
,  // measure 91
1001
0000
0001
0100
0000
0100
0001
0000
,  // measure 92
1001
0000
1000
0100
0000
0100
1000
0000
,  // measure 93
1001
0000
0001
0100
0000
0010
0100
0000
,  // measure 94
1001
0000
1000
0100
0000
0010
0100
0000
;
