#TITLE:Rattlesnake;
#SUBTITLE:;
#ARTIST:Foxsky;
#TITLETRANSLIT:;
#SUBTITLETRANSLIT:;
#ARTISTTRANSLIT:;
#GENRE:;
#CREDIT:;
#BANNER:Rattlesnake.png;
#BACKGROUND:Rattlesnake-bg.png;
#LYRICSPATH:;
#CDTITLE:;
#MUSIC:Rattlesnake.ogg;
#OFFSET:-9.435001;
#SAMPLESTART:75.303825;
#SAMPLELENGTH:9.851974;
#SELECTABLE:YES;
#BPMS:0.000000=204.020004
;
#STOPS:
;
#BGCHANGES:;
#KEYSOUNDS:;
#ATTACKS:;

//---------------dance-single - ----------------
#NOTES:
     dance-single:
     :
     Hard:
     9:
     0.639062,0.704382,0.367344,0.114285,0.024490,489.000000,45.000000,14.000000,0.000000,0.000000,0.000000,0.639062,0.704382,0.367344,0.114285,0.024490,489.000000,45.000000,14.000000,0.000000,0.000000,0.000000:
// measure 0
1001
0000
0000
0101
0000
0000
0101
0000
,  // measure 1
0000
0011
0010
0010
,  // measure 2
0011
0000
0000
1100
0000
0000
1100
0000
,  // measure 3
0000
0000
1001
0000
0001
0000
0100
0010
,  // measure 4
1000
0000
0000
0101
0000
0000
0101
0000
,  // measure 5
0000
1001
1000
1000
,  // measure 6
1010
0000
0000
1100
0000
0000
1100
0000
,  // measure 7
0000
0000
0101
0000
0001
0000
1000
0010
,  // measure 8
0100
0000
0000
1010
0000
0000
1010
0000
,  // measure 9
0000
1001
0001
0001
,  // measure 10
0011
0000
0000
1001
0000
0000
1001
0000
,  // measure 11
0000
0000
0101
0000
0100
0000
0001
0010
,  // measure 12
0100
0000
0000
1100
0000
0000
1100
0000
,  // measure 13
0000
1001
1000
1000
,  // measure 14
0001
0000
1000
1000
0010
0000
0100
0100
,  // measure 15
0001
0010
0100
1000
0001
0100
1000
0000
,  // measure 16
0100
0000
0010
1000
0001
0000
1000
0000
,  // measure 17
0000
0100
0010
0000
0001
0010
0001
1000
,  // measure 18
0010
0000
0000
0100
0001
0000
0010
0000
,  // measure 19
0100
1000
0100
0000
1000
0100
0010
0001
,  // measure 20
1000
0000
0000
0001
0100
0000
0010
0000
,  // measure 21
0100
0001
0100
0000
0001
0100
0010
1000
,  // measure 22
0100
0000
0000
0010
0001
0000
1000
0000
,  // measure 23
0001
1000
0001
0000
1000
0001
0010
0001
,  // measure 24
0100
0000
0010
1000
0100
0000
0010
0000
,  // measure 25
0001
0100
0010
0000
1000
0100
0010
0001
,  // measure 26
1000
0000
0001
1000
0100
0000
0010
0000
,  // measure 27
0100
1000
0001
0000
0001
1000
0010
1000
,  // measure 28
0001
0000
1000
0001
0010
0000
0100
0000
,  // measure 29
1000
0010
0100
0000
0010
0100
0001
1000
,  // measure 30
0001
0010
0100
1000
0001
0010
0100
1000
,  // measure 31
0001
0010
1000
0010
0002
2003
0200
3300
,  // measure 32
1001
0000
0000
0000
0001
1000
0010
0000
,  // measure 33
0100
0000
0001
0010
0001
0000
1000
0000
,  // measure 34
1010
0000
0000
0000
0010
0100
0001
0000
,  // measure 35
0010
0000
0100
0010
0001
1000
0010
1000
,  // measure 36
0200
0000
0000
0000
0310
0001
1000
0000
,  // measure 37
0010
0000
0100
0001
0010
0000
0100
0000
,  // measure 38
1100
0000
0000
0000
0100
0010
0001
0000
,  // measure 39
1000
0000
0001
0100
0001
0010
0100
0000
,  // measure 40
0020
0000
0000
0000
0130
0001
0010
0000
,  // measure 41
0100
0000
1000
0010
0100
0000
0001
0000
,  // measure 42
0011
0000
0000
0000
0010
0100
1000
0000
,  // measure 43
0001
0000
1000
0010
1000
0001
0100
0001
,  // measure 44
0020
0000
0000
0000
0130
1000
0001
0000
,  // measure 45
0100
0000
0010
1000
0001
0000
1000
0000
,  // measure 46
1100
0000
0000
0000
0100
0010
0001
0000
,  // measure 47
1000
0001
0000
0000
0001
1000
0000
0000
0001
0000
0010
0000
1000
0000
0000
0000
,  // measure 48
1001
0000
0000
0000
0001
0100
0010
0000
,  // measure 49
1000
0000
0001
0001
0010
0100
0010
0000
,  // measure 50
0110
0000
0100
0010
,  // measure 51
0001
0100
1000
0000
0100
0000
0010
1000
,  // measure 52
0002
0000
0000
0000
0013
0100
1000
0000
,  // measure 53
0100
0000
0010
0010
0100
1000
0001
0000
,  // measure 54
0101
0000
0001
0010
,  // measure 55
0100
1000
0010
0000
0100
0000
0001
1000
,  // measure 56
0020
0000
0100
0000
0130
0001
0010
0000
,  // measure 57
0100
0000
0010
0001
1000
0010
0100
0000
,  // measure 58
0101
0001
1000
0100
,  // measure 59
0010
0001
0100
0000
0010
0000
1000
0001
,  // measure 60
0020
0000
0100
0000
0130
1000
0010
0000
,  // measure 61
0100
0000
0001
0010
0001
1000
0100
0000
,  // measure 62
1001
0001
0100
0010
,  // measure 63
1000
0001
0000
0000
0001
1000
0000
0000
0001
0000
0100
0000
1000
0000
0000
0000
,  // measure 64
0100
0010
0100
0010
0100
0010
0100
0010
,  // measure 65
1000
0001
1000
0001
1000
0001
1000
0001
,  // measure 66
0010
0100
0010
0100
0010
0100
0010
0100
,  // measure 67
1000
0001
1000
0001
0020
0000
0000
0000
,  // measure 68
0130
0000
1000
0100
0000
0010
0001
0000
,  // measure 69
0100
0010
1001
1001
,  // measure 70
0001
0000
0100
0001
0000
0001
0010
0000
,  // measure 71
0100
0000
1000
0000
1000
0100
1000
0000
,  // measure 72
0001
0000
1000
0010
0000
0010
0100
0000
,  // measure 73
0001
0100
0110
0110
,  // measure 74
0010
0000
0100
0010
0000
0010
1000
0000
,  // measure 75
0001
1000
0000
0000
1000
0001
0000
0000
1000
0000
0010
0000
0010
0000
0100
0000
,  // measure 76
0001
0000
0010
0100
0000
0100
0010
0000
,  // measure 77
0100
0000
1000
0100
0000
0100
1000
0000
,  // measure 78
0001
0000
0100
0010
0000
0010
0100
0000
,  // measure 79
0010
0000
1000
0010
0000
0010
1000
0000
,  // measure 80
0001
0000
0010
0100
0000
0100
1000
0000
,  // measure 81
0100
0000
0010
0001
0000
0001
0100
0000
,  // measure 82
0010
0000
1000
0010
0000
0001
0010
0000
,  // measure 83
1000
0000
0100
0001
0000
0001
0100
0000
,  // measure 84
0010
0100
0010
0100
0010
0100
0010
0100
,  // measure 85
1000
0001
1000
0001
1000
0001
1000
0001
,  // measure 86
0100
0010
0100
0010
0100
0010
0100
0010
,  // measure 87
1000
0001
1000
0001
0200
0000
0000
0000
,  // measure 88
0310
0010
1000
1000
,  // measure 89
0001
0010
0001
0000
0011
0000
1100
0000
,  // measure 90
0100
0100
0010
0010
,  // measure 91
0001
0010
0001
0000
0011
0000
1010
0000
,  // measure 92
1000
1000
0001
0001
,  // measure 93
0100
0001
0100
0000
0101
0000
1100
0000
,  // measure 94
0100
0100
0010
0010
,  // measure 95
0001
0010
0001
0000
0020
0032
2000
3003
;

//---------------dance-single - ----------------
#NOTES:
     dance-single:
     :
     Medium:
     7:
     0.499121,0.469588,0.195917,0.089795,0.000000,393.000000,24.000000,11.000000,0.000000,0.000000,0.000000,0.499121,0.469588,0.195917,0.089795,0.000000,393.000000,24.000000,11.000000,0.000000,0.000000,0.000000:
// measure 0
1001
0000
0001
0010
,  // measure 1
0100
0010
0001
0001
,  // measure 2
0000
0000
0010
0100
,  // measure 3
1000
0000
0100
0000
0010
0000
0100
1000
,  // measure 4
0010
0000
0100
0001
,  // measure 5
1000
0010
0100
0100
,  // measure 6
0000
0000
0010
1000
,  // measure 7
0001
0000
0010
0000
0100
0000
1000
0100
,  // measure 8
0010
0000
0100
1000
,  // measure 9
0010
0100
0001
0001
,  // measure 10
0000
0000
1000
0100
,  // measure 11
1000
0000
0010
0000
0100
0000
0001
0010
,  // measure 12
0100
0000
0010
0001
,  // measure 13
1000
0010
0100
0100
,  // measure 14
0000
0000
0010
0100
,  // measure 15
0001
0000
1000
0000
0001
0010
0100
0000
,  // measure 16
0010
0000
0000
0100
0010
0000
1000
0000
,  // measure 17
0000
0010
0100
0000
0001
0000
0000
0000
,  // measure 18
1000
0000
0000
0100
1000
0000
0010
0000
,  // measure 19
0000
0100
0001
0000
1000
0000
0100
0000
,  // measure 20
0010
0000
0000
0001
0010
0000
0001
0000
,  // measure 21
0000
0010
0100
0000
1000
0000
0000
0000
,  // measure 22
0100
0000
0000
1000
0100
0000
0010
0000
,  // measure 23
0000
0100
1000
0000
0010
0000
0100
0000
,  // measure 24
0001
1000
0010
1000
,  // measure 25
0001
0100
0010
0010
,  // measure 26
0100
0001
0010
0100
,  // measure 27
1000
0010
0100
0100
,  // measure 28
0010
1000
0001
0010
,  // measure 29
0100
1000
0100
0100
,  // measure 30
1000
0100
0010
0001
,  // measure 31
1000
0001
0100
0010
1000
0100
0010
0000
,  // measure 32
1001
0000
0000
0000
0001
0100
0001
0000
,  // measure 33
0100
0010
1000
1000
,  // measure 34
0000
0000
0000
0000
0100
1000
0100
0000
,  // measure 35
0010
0001
0010
0100
,  // measure 36
2000
0000
0000
0000
3001
1000
0001
0000
,  // measure 37
1000
0010
0100
0100
,  // measure 38
0000
0000
0000
0000
0001
0100
0001
0000
,  // measure 39
1000
0001
0010
0100
,  // measure 40
1200
0000
0000
0000
0310
0001
0010
0000
,  // measure 41
0001
0000
1000
0100
0010
0000
0001
0000
,  // measure 42
1000
0000
0001
1000
,  // measure 43
0010
0000
0100
0001
0100
0010
1000
0001
,  // measure 44
0200
0000
0000
0000
0301
0010
0001
0000
,  // measure 45
0010
0000
0100
0010
0001
0000
1000
0000
,  // measure 46
0000
0000
0000
0000
0001
1000
0001
0000
,  // measure 47
1001
0000
1010
0000
1000
0010
0100
0000
,  // measure 48
1001
0000
0000
0000
1000
0010
0100
0000
,  // measure 49
0010
0000
0100
0001
0100
0001
0100
0000
,  // measure 50
0010
0000
0100
0001
,  // measure 51
1000
0100
1000
0000
0100
0000
0010
0001
,  // measure 52
0020
0000
0000
0000
0031
0010
0100
0000
,  // measure 53
1000
0000
0100
1000
0100
1000
0100
0000
,  // measure 54
1000
0000
0001
1000
,  // measure 55
0100
0010
0001
0000
0010
0000
0100
1000
,  // measure 56
0002
0000
0000
0000
1003
0100
1000
0000
,  // measure 57
0100
0000
1000
0010
0100
0001
1000
0000
,  // measure 58
0000
0000
0001
0010
,  // measure 59
0100
0010
0001
0000
1000
0000
0001
0100
,  // measure 60
0002
0000
0000
0000
0103
0010
1000
0000
,  // measure 61
0010
0000
0100
0010
1000
0001
0010
0000
,  // measure 62
0000
0000
0100
0010
,  // measure 63
0011
0000
1100
0000
0100
0010
0001
0000
,  // measure 64
1001
0001
0001
0001
,  // measure 65
0101
0100
0100
0100
,  // measure 66
0110
0010
0010
0010
,  // measure 67
1010
1000
0002
0000
,  // measure 68
1003
0000
0010
1000
0000
1000
0010
0000
,  // measure 69
1000
0010
0100
0100
,  // measure 70
0001
0000
0100
0001
0000
0001
0010
0000
,  // measure 71
0100
1000
0100
0100
,  // measure 72
1000
0000
0100
0010
0000
0010
0001
0000
,  // measure 73
0010
0001
0100
0100
,  // measure 74
0010
0000
1000
0001
0000
0001
0100
0000
,  // measure 75
1010
0000
1001
0000
0001
0100
0010
0000
,  // measure 76
1000
0010
0100
0001
,  // measure 77
0100
0010
1000
0100
,  // measure 78
0010
0100
1000
0001
,  // measure 79
0010
0000
1000
0000
0010
0001
0100
0000
,  // measure 80
0010
1000
0001
0100
,  // measure 81
0001
1000
0100
0010
,  // measure 82
0100
1000
0001
0100
,  // measure 83
0010
1000
0100
0010
,  // measure 84
0011
0010
0010
0010
,  // measure 85
0110
0100
0100
0100
,  // measure 86
1100
1000
1000
1000
,  // measure 87
1001
0001
0200
0000
,  // measure 88
0310
1000
0010
0100
,  // measure 89
0001
1000
1001
1001
,  // measure 90
1000
0100
0010
0100
,  // measure 91
1000
0001
0110
0110
,  // measure 92
0010
0100
0001
1000
,  // measure 93
0100
0010
0011
1010
,  // measure 94
1000
0010
0100
0001
,  // measure 95
1000
0000
1000
0000
0002
0023
0200
0330
;

//---------------dance-single - ----------------
#NOTES:
     dance-single:
     :
     Easy:
     5:
     0.362679,0.351732,0.032653,0.081632,0.000000,297.000000,4.000000,10.000000,0.000000,0.000000,0.000000,0.362679,0.351732,0.032653,0.081632,0.000000,297.000000,4.000000,10.000000,0.000000,0.000000,0.000000:
// measure 0
0001
0000
0000
0001
0000
0000
0001
0000
,  // measure 1
0000
1000
0010
0010
,  // measure 2
0100
0000
0000
0100
0000
0000
0100
0000
,  // measure 3
0000
0010
1000
0001
,  // measure 4
0100
0000
0000
0100
0000
0000
0100
0000
,  // measure 5
0000
0010
1000
1000
,  // measure 6
0001
0000
0000
0001
0000
0000
0001
0000
,  // measure 7
0000
0010
0100
1000
,  // measure 8
0100
0000
0000
0100
0000
0000
0100
0000
,  // measure 9
0000
0010
0001
0001
,  // measure 10
1000
0000
0000
1000
0000
0000
1000
0000
,  // measure 11
0000
0001
0100
0010
,  // measure 12
0100
0000
0000
0100
0000
0000
0100
0000
,  // measure 13
0000
0010
1000
1000
,  // measure 14
0001
0100
0010
1000
,  // measure 15
0100
0000
0010
0000
0001
0010
0001
0000
,  // measure 16
1001
0000
1000
0001
,  // measure 17
0000
0010
0100
0000
,  // measure 18
1000
0000
0100
1000
,  // measure 19
0000
0100
1000
0010
,  // measure 20
0100
0000
0001
1000
,  // measure 21
0000
1000
0001
0000
,  // measure 22
0100
0000
0001
0100
,  // measure 23
0000
0100
0010
1000
,  // measure 24
0010
0000
0100
0001
,  // measure 25
0100
0010
1000
0000
,  // measure 26
0001
0000
0010
0100
,  // measure 27
1000
0100
1000
0000
,  // measure 28
0100
1000
0010
0100
,  // measure 29
0001
0100
0010
1000
,  // measure 30
0001
0010
0100
1000
,  // measure 31
0001
0000
1000
0000
0001
1000
0001
0000
,  // measure 32
1001
0000
0001
1000
,  // measure 33
0010
0100
0001
0001
,  // measure 34
0000
0000
0100
0010
,  // measure 35
1000
0100
0010
0100
,  // measure 36
1000
0000
0100
0010
,  // measure 37
0001
0010
0001
0001
,  // measure 38
0000
0000
0010
0001
,  // measure 39
1000
0010
0100
0001
,  // measure 40
1000
0000
0100
1000
,  // measure 41
0010
0100
0001
0001
,  // measure 42
0000
0000
1000
0100
,  // measure 43
1000
0010
0100
0001
,  // measure 44
0010
0000
0100
0010
,  // measure 45
0001
1000
1000
0001
,  // measure 46
0000
0000
0100
0010
,  // measure 47
1000
0000
0001
0000
1000
0001
1000
0000
,  // measure 48
1001
0000
0000
0001
0000
0000
1000
0000
,  // measure 49
0000
0010
0000
0000
,  // measure 50
0100
0000
0000
0100
0000
0000
0001
0000
,  // measure 51
0000
0000
0100
0000
0010
1000
0001
0000
,  // measure 52
1000
0000
0000
0100
0000
0000
0010
0000
,  // measure 53
0000
0010
0000
0000
,  // measure 54
0001
0000
0000
1000
0000
0000
0001
0000
,  // measure 55
0000
0000
0100
0000
0010
1000
0001
0000
,  // measure 56
1001
0000
0001
1000
,  // measure 57
0010
0100
0001
0001
,  // measure 58
0000
0000
0100
0010
,  // measure 59
1000
0100
0010
0001
,  // measure 60
0010
0000
0100
0010
,  // measure 61
0001
1000
1000
0001
,  // measure 62
0000
0000
1000
0001
,  // measure 63
0100
0000
0010
0000
1000
0001
0100
0000
,  // measure 64
0002
0000
0000
0000
,  // measure 65
0023
0000
0000
0000
,  // measure 66
0230
0000
0000
0000
,  // measure 67
2300
0000
0002
3003
,  // measure 68
1000
0000
0000
0100
0000
0000
1000
0000
,  // measure 69
0100
1000
0010
0010
,  // measure 70
0100
0000
0000
0001
0000
0000
0100
0000
,  // measure 71
0010
0000
1000
0000
0001
0100
0001
0000
,  // measure 72
0100
0000
0000
0010
0000
0000
1000
0000
,  // measure 73
0100
1000
0010
0010
,  // measure 74
0100
0000
0000
0001
0000
0000
1000
0000
,  // measure 75
0010
0000
0100
0000
0001
0100
0001
0000
,  // measure 76
0100
0010
1000
0001
,  // measure 77
0010
0010
0001
0001
,  // measure 78
0010
0100
1000
0100
,  // measure 79
1000
1000
0100
0100
,  // measure 80
1000
0010
0100
0001
,  // measure 81
1000
1000
0010
0010
,  // measure 82
0100
0001
0010
0100
,  // measure 83
0010
0010
0100
0100
,  // measure 84
2000
0000
0000
0000
,  // measure 85
3200
0000
0000
0000
,  // measure 86
0320
0000
0000
0000
,  // measure 87
0032
0000
2000
3003
,  // measure 88
0001
0000
1000
0000
,  // measure 89
0001
0000
0100
0100
,  // measure 90
0001
0000
1000
0000
,  // measure 91
0001
0000
0010
0010
,  // measure 92
0001
0000
0010
0000
,  // measure 93
0100
0000
1000
1000
,  // measure 94
0100
0000
0010
0000
,  // measure 95
0001
0000
0000
0000
1000
0001
1000
0000
;

//---------------dance-single - ----------------
#NOTES:
     dance-single:
     :
     Beginner:
     2:
     0.149270,0.195407,0.032653,0.000000,0.000000,124.000000,4.000000,0.000000,0.000000,0.000000,0.000000,0.149270,0.195407,0.032653,0.000000,0.000000,124.000000,4.000000,0.000000,0.000000,0.000000,0.000000:
// measure 0
0001
0000
0000
0000
,  // measure 1
0000
0000
0100
0100
,  // measure 2
0000
0000
0000
0000
,  // measure 3
0000
0000
0010
0010
,  // measure 4
0000
0000
0000
0000
,  // measure 5
0000
0000
1000
1000
,  // measure 6
0000
0000
0000
0000
,  // measure 7
0000
0000
0001
0001
,  // measure 8
1000
0000
0000
0000
,  // measure 9
0001
0000
0000
0000
,  // measure 10
0100
0000
0000
0000
,  // measure 11
0010
0000
0000
0000
,  // measure 12
1000
0000
0000
0000
,  // measure 13
0001
0000
0000
0000
,  // measure 14
0100
0000
0010
0000
,  // measure 15
1000
0000
0001
0001
,  // measure 16
1001
0000
0000
0000
,  // measure 17
0001
0000
0000
0000
,  // measure 18
1000
0000
0000
0000
,  // measure 19
0010
0000
0000
0000
,  // measure 20
0100
0000
0000
0000
,  // measure 21
0001
0000
0000
0000
,  // measure 22
0010
0000
0000
0000
,  // measure 23
0001
0000
0000
0000
,  // measure 24
1000
0000
0000
0000
,  // measure 25
0001
0000
0100
0000
,  // measure 26
0001
0000
0000
0000
,  // measure 27
1000
0000
0010
0000
,  // measure 28
0100
0000
0000
0000
,  // measure 29
0001
0000
0000
0000
,  // measure 30
1000
0000
0001
0000
,  // measure 31
0100
0000
0010
0010
,  // measure 32
0110
0000
0100
0000
,  // measure 33
0001
0000
0001
0000
,  // measure 34
0000
0000
1000
0000
,  // measure 35
0001
0000
0100
0000
,  // measure 36
1001
0000
1000
0000
,  // measure 37
1000
0000
0000
0000
,  // measure 38
0001
0000
0100
0000
,  // measure 39
0100
0000
0000
0000
,  // measure 40
0010
0000
0000
0000
,  // measure 41
1000
0000
0000
0000
,  // measure 42
0001
0000
0000
0000
,  // measure 43
0010
0000
0010
0000
,  // measure 44
0100
0000
0000
0000
,  // measure 45
1000
0000
0000
0000
,  // measure 46
0001
0000
0000
0000
,  // measure 47
1000
1000
0001
0100
,  // measure 48
0010
0000
0000
0000
,  // measure 49
0100
0000
0000
0000
,  // measure 50
0001
0000
0000
0000
,  // measure 51
0010
0000
0000
0000
,  // measure 52
0001
0000
0000
0000
,  // measure 53
1000
0000
0000
0000
,  // measure 54
0010
0000
0000
0000
,  // measure 55
0100
0000
0100
0000
,  // measure 56
0010
0000
0000
0000
,  // measure 57
1000
0000
0000
0000
,  // measure 58
0001
0000
0000
0000
,  // measure 59
0010
0000
0001
0000
,  // measure 60
0001
0000
0000
0000
,  // measure 61
1000
0000
0000
0000
,  // measure 62
0010
0000
0000
0000
,  // measure 63
0100
0100
0010
0100
,  // measure 64
1001
0000
0000
0000
,  // measure 65
0001
0000
0000
0000
,  // measure 66
0001
0000
0000
0000
,  // measure 67
0001
0000
1000
0000
,  // measure 68
0010
0000
0000
0000
,  // measure 69
0000
0000
0100
0100
,  // measure 70
0000
0000
0000
0000
,  // measure 71
0000
0000
0001
0001
,  // measure 72
0000
0000
0000
0000
,  // measure 73
0000
0000
1000
1000
,  // measure 74
0000
0000
0000
0000
,  // measure 75
0000
0000
0010
0010
,  // measure 76
1000
0000
0000
0000
,  // measure 77
0001
0000
0000
0000
,  // measure 78
0100
0000
0000
0000
,  // measure 79
0010
0000
0010
0000
,  // measure 80
0100
0000
0000
0000
,  // measure 81
0001
0000
0000
0000
,  // measure 82
1000
0000
0000
0000
,  // measure 83
0010
0000
0000
0000
,  // measure 84
0100
0000
0000
0000
,  // measure 85
0100
0000
0000
0000
,  // measure 86
0100
0000
0000
0000
,  // measure 87
0100
0000
0010
0000
,  // measure 88
1000
0000
0000
0000
,  // measure 89
0000
0000
0001
1000
,  // measure 90
0000
0000
0000
0000
,  // measure 91
0000
0000
0010
0100
,  // measure 92
0000
0000
0000
0000
,  // measure 93
0000
0000
0100
0001
,  // measure 94
0000
0000
0000
0000
,  // measure 95
0000
0000
1000
0001
;
